<?xml version="1.0" standalone="no"?>
<!DOCTYPE svg PUBLIC "-//W3C//DTD SVG 1.1//EN" "http://www.w3.org/Graphics/SVG/1.1/DTD/svg11.dtd" >
<svg xmlns="http://www.w3.org/2000/svg" xmlns:xlink="http://www.w3.org/1999/xlink" version="1.1">
<metadata>
Created by FontForge 20170731 at Mon Sep 26 19:50:35 2011
 By Aleksey,,,
Copyright 2011 Canonical Ltd.  Licensed under the Ubuntu Font Licence 1.0
</metadata>
<defs>
<font id="UbuntuMono-Regular" horiz-adv-x="500" >
  <font-face 
    font-family="Ubuntu Mono"
    font-weight="400"
    font-stretch="normal"
    units-per-em="1000"
    panose-1="2 11 5 9 3 6 2 3 2 4"
    ascent="800"
    descent="-200"
    x-height="464"
    cap-height="619"
    bbox="-316 -170 665 830"
    underline-thickness="20"
    underline-position="-153"
    unicode-range="U+0008-FFFD"
  />
<missing-glyph 
d="M50 0v750h400v-750h-400zM400 50v650h-300v-650h300z" />
    <glyph glyph-name=".notdef" 
d="M50 0v750h400v-750h-400zM400 50v650h-300v-650h300z" />
    <glyph glyph-name=".null" 
 />
    <glyph glyph-name=".null" 
 />
    <glyph glyph-name=".null" 
 />
    <glyph glyph-name="nonmarkingreturn" unicode="&#x9;" 
 />
    <glyph glyph-name="nonmarkingreturn" unicode="&#xd;" 
 />
    <glyph glyph-name="space" unicode=" " 
 />
    <glyph glyph-name="exclam" unicode="!" 
d="M293 451q0 -37 -1 -68t-3.5 -59t-5.5 -55.5t-6 -57.5h-57q-3 30 -6 57.5t-5.5 55.5t-3.5 59t-1 68v168h89v-168zM248 -12q-27 0 -47 18.5t-20 49.5t20 49.5t47 18.5q28 0 47.5 -18.5t19.5 -49.5t-19.5 -49.5t-47.5 -18.5z" />
    <glyph glyph-name="quotedbl" unicode="&#x22;" 
d="M206 679v-45q0 -44 -5 -100.5t-13 -103.5h-42q-7 47 -12 103.5t-5 101.5v44h77zM371 679v-45q0 -44 -5 -100.5t-12 -103.5h-42q-8 47 -13 103.5t-5 101.5v44h77z" />
    <glyph glyph-name="numbersign" unicode="#" 
d="M321 0h-75l31 163h-111l-31 -163h-75l31 163h-64v67h77l30 159h-107v66h121l31 164h75l-31 -164h111l30 164h75l-30 -164h64v-66h-77l-31 -159h108v-67h-121zM320 389h-110l-31 -159h110z" />
    <glyph glyph-name="dollar" unicode="$" 
d="M233 85q36 0 60.5 5.5t38.5 16t20 25t6 31.5q0 25 -12 42.5t-32.5 31t-46.5 24t-54 20.5q-27 10 -53.5 22t-47 29.5t-33.5 42t-13 60.5q0 64 38 104t110 51v103h74v-100q40 -2 73.5 -9.5t53.5 -15.5l-17 -70q-21 8 -53 16.5t-81 8.5q-54 0 -82.5 -20t-28.5 -58
q0 -21 8.5 -35t24.5 -25t37.5 -20t48.5 -19q34 -13 66 -27.5t56 -34.5t38.5 -48t14.5 -67q0 -59 -39 -100t-120 -51v-115h-74v112q-63 2 -102 14t-58 23l22 69q27 -13 64 -24.5t93 -11.5z" />
    <glyph glyph-name="percent" unicode="%" 
d="M95 0h-70l379 619h70zM18 477q0 76 29 115.5t80 39.5t80 -39.5t29 -115.5t-29 -116t-80 -40t-80 40t-29 116zM174 477q0 45 -12 74t-35 29t-35.5 -29t-12.5 -74t12.5 -74t35.5 -29t35 29t12 74zM265 142q0 76 28.5 115.5t79.5 39.5t80 -39.5t29 -115.5t-29 -115.5
t-80 -39.5t-79.5 39.5t-28.5 115.5zM421 142q0 45 -12.5 74t-35.5 29t-35 -29t-12 -74t12 -74t35 -29t35.5 29t12.5 74z" />
    <glyph glyph-name="ampersand" unicode="&#x26;" 
d="M272 283q17 -20 35.5 -40.5t37.5 -43.5q8 28 14 61t9 73l69 -9q-6 -58 -17.5 -103.5t-28.5 -82.5q23 -32 44 -66t38 -72h-87q-17 35 -38 67q-32 -40 -71.5 -57.5t-82.5 -17.5q-38 0 -68 12.5t-51 34.5t-32.5 51t-11.5 61q0 47 24.5 95t77.5 89q-26 35 -42 71t-16 74
q0 39 12.5 68t33.5 47.5t48.5 28t56.5 9.5q26 0 51 -8t44 -24.5t30.5 -40.5t11.5 -55q0 -46 -30 -94.5t-95 -89.5zM172 285q-29 -26 -43.5 -60t-14.5 -66q0 -39 20 -64.5t49 -32t63 8t62 54.5q-33 45 -68.5 83.5t-67.5 76.5zM288 496q0 36 -19.5 54t-44.5 18
q-26 0 -48.5 -20.5t-22.5 -61.5q0 -29 9 -54t38 -63q48 30 68 64t20 63z" />
    <glyph glyph-name="quotesingle" unicode="'" 
d="M293 679v-45q0 -22 -1.5 -50.5t-4 -59t-5.5 -60t-7 -52.5h-51q-4 23 -7 52.5t-5.5 60t-4 59.5t-1.5 51v44h87z" />
    <glyph glyph-name="parenleft" unicode="(" 
d="M384 641q-93 -72 -142 -166t-49 -205q0 -56 11.5 -106t35 -96t60 -89t86.5 -86l-45 -60q-115 85 -171.5 197.5t-56.5 237.5q0 124 57 237t171 196l44 -60h-1z" />
    <glyph glyph-name="parenright" unicode=")" 
d="M115 -107q93 72 142.5 166t49.5 205q0 56 -11.5 106t-35.5 96t-60.5 89t-86.5 86l45 60q115 -85 171.5 -197.5t56.5 -237.5q0 -62 -14.5 -122t-43 -115.5t-71 -105t-99.5 -90.5l-44 60h1z" />
    <glyph glyph-name="asterisk" unicode="*" 
d="M287 417q27 -25 56 -52.5t49 -58.5l4 -5l-70 -51l-5 6q-21 30 -38 65.5t-32 68.5q-16 -33 -33 -68.5t-40 -65.5l-5 -5l-69 50l5 6q22 31 50 58t55 52q-37 5 -76 10.5t-74 17.5l-7 2l27 82l7 -3q35 -14 70.5 -31t67.5 -35q-8 36 -14.5 75t-6.5 77v7h86v-7q0 -38 -6.5 -77
t-14.5 -75q32 19 67 35.5t70 29.5l7 3l26 -82l-6 -2q-36 -11 -74.5 -17t-75.5 -10z" />
    <glyph glyph-name="plus" unicode="+" 
d="M46 298h168v184h72v-184h169v-70h-169v-185h-72v185h-168v70z" />
    <glyph glyph-name="comma" unicode="," 
d="M149 -79q18 4 35.5 8t32.5 11.5t27 19t19 31.5q-32 3 -46.5 24.5t-14.5 42.5q0 40 22.5 60.5t51.5 20.5q37 0 56 -26.5t19 -64.5q0 -29 -11.5 -60.5t-35 -59t-58.5 -47t-83 -25.5z" />
    <glyph glyph-name="hyphen" unicode="-" 
d="M140 293h220v-78h-220v78z" />
    <glyph glyph-name="period" unicode="." 
d="M324 64q0 -30 -20 -53t-53 -23q-34 0 -54 23t-20 53q0 31 20 54t54 23q33 0 53 -23t20 -54z" />
    <glyph glyph-name="slash" unicode="/" 
d="M154 -165h-85l279 864h83z" />
    <glyph glyph-name="zero" unicode="0" 
d="M308 321q0 -26 -15.5 -45t-40.5 -19q-26 0 -42 19t-16 45t16 46t42 20q25 0 40.5 -20t15.5 -46zM46 310q0 156 53.5 239.5t150.5 83.5q98 0 151 -83.5t53 -239.5t-53 -239.5t-151 -83.5q-97 0 -150.5 83.5t-53.5 239.5zM370 310q0 51 -6 96.5t-20 79.5t-37 54t-57 20
t-57 -20t-37 -54t-20 -79.5t-6 -96.5t6 -96.5t20 -79.5t37 -54t57 -20t57 20t37 54t20 79.5t6 96.5z" />
    <glyph glyph-name="one" unicode="1" 
d="M75 491q51 20 99 50.5t89 77.5h58v-549h117v-70h-333v70h134v434q-11 -10 -26.5 -20.5t-34 -20.5t-38.5 -19t-39 -15z" />
    <glyph glyph-name="two" unicode="2" 
d="M420 461q0 -32 -12.5 -62t-33 -59t-46.5 -57t-53 -55q-15 -15 -35 -36t-38 -43t-30 -43t-12 -36h285v-70h-375q-1 5 -1 10.5v10.5q0 42 14 78t36 68t49.5 60.5t54.5 55.5q22 22 42.5 43t36 42t25 43.5t9.5 46.5q0 27 -8.5 46t-23 31.5t-33.5 18.5t-41 6q-26 0 -47.5 -7
t-38 -17t-28.5 -19.5t-18 -15.5l-41 58q8 9 24 22t38.5 24.5t50.5 19.5t60 8q97 0 143.5 -44.5t46.5 -127.5z" />
    <glyph glyph-name="three" unicode="3" 
d="M212 60q79 0 112.5 31.5t33.5 84.5q0 34 -14 57t-37 37t-53 20t-63 6h-21v67h29q22 0 45.5 4.5t43 16t31.5 31.5t12 51q0 51 -31.5 72.5t-73.5 21.5q-43 0 -73 -12.5t-50 -25.5l-32 63q21 15 63.5 31.5t94.5 16.5q49 0 84 -12t57.5 -34t33.5 -51.5t11 -64.5
q0 -49 -25.5 -83t-65.5 -52q48 -14 83 -54.5t35 -107.5q0 -40 -13.5 -74.5t-41 -59.5t-71 -39t-103.5 -14q-23 0 -47.5 3.5t-45.5 9t-37.5 11t-23.5 8.5l16 71q16 -8 51 -19t86 -11z" />
    <glyph glyph-name="four" unicode="4" 
d="M36 214q17 40 46.5 92t66.5 107.5t79 109t85 96.5h80v-393h73v-68h-73v-158h-80v158h-277v56zM313 521q-27 -29 -54.5 -64t-53.5 -73.5t-48.5 -78.5t-40.5 -79h197v295z" />
    <glyph glyph-name="five" unicode="5" 
d="M186 380q134 -5 195 -59t61 -145q0 -41 -13 -76t-40.5 -60t-70 -39t-100.5 -14q-24 0 -47.5 3.5t-44.5 8.5t-37 10.5t-23 9.5l16 71q16 -8 49.5 -19t84.5 -11q40 0 67 9t43.5 24.5t24 35.5t7.5 42q0 34 -11.5 60.5t-40 44.5t-78 27.5t-124.5 9.5q6 44 9.5 82.5t6 75
t4 72.5t3.5 76h298v-70h-226q-1 -14 -2.5 -36.5t-3.5 -47.5t-4 -48t-3 -37z" />
    <glyph glyph-name="six" unicode="6" 
d="M54 248q0 90 24.5 159.5t70 116.5t110.5 72t147 26l7 -70q-53 -1 -96.5 -11.5t-77.5 -34t-57 -60.5t-35 -91q24 11 52.5 18t60.5 7q52 0 88.5 -16t58.5 -42.5t32 -61.5t10 -72q0 -34 -11 -69.5t-34 -65t-59 -48t-86 -18.5q-103 0 -154 69t-51 192zM251 312
q-32 0 -58.5 -6t-53.5 -18q-1 -10 -1 -19.5v-20.5q0 -39 5.5 -73.5t19 -61t36.5 -42t59 -15.5q30 0 50 12.5t33 31.5t18.5 42.5t5.5 44.5q0 61 -27.5 93t-86.5 32z" />
    <glyph glyph-name="seven" unicode="7" 
d="M155 0q5 71 25.5 150.5t49.5 154t64 138t69 104.5h-300v72h392v-69q-30 -35 -65 -94t-66.5 -132.5t-54.5 -157t-29 -166.5h-85z" />
    <glyph glyph-name="eight" unicode="8" 
d="M449 161q0 -78 -49.5 -126t-150.5 -48q-58 0 -96 15.5t-60.5 40t-32 54.5t-9.5 59q0 53 29 94t69 66q-85 48 -85 147q0 34 13 65t37 54t58.5 37t77.5 14q50 0 85.5 -15t57.5 -38.5t32 -52t10 -55.5q0 -53 -27 -91.5t-62 -61.5q103 -49 103 -158zM131 155q0 -16 6 -33.5
t20 -32.5t37 -24.5t56 -9.5q31 0 53.5 8.5t37 23t21.5 32.5t7 36q0 57 -41 87.5t-113 46.5q-40 -22 -62 -55t-22 -79zM355 472q0 13 -6 29.5t-18.5 30t-32.5 23t-48 9.5q-29 0 -48.5 -9t-32.5 -22.5t-18.5 -30t-5.5 -32.5q0 -41 29.5 -76.5t97.5 -51.5q38 22 60.5 52
t22.5 78z" />
    <glyph glyph-name="nine" unicode="9" 
d="M447 371q0 -185 -90 -278.5t-271 -94.5l-3 70q112 0 180.5 44.5t90.5 153.5q-24 -11 -53 -17.5t-61 -6.5q-53 0 -89 15.5t-58 42t-32 60.5t-10 72q0 34 11 69.5t34 64.5t59 48t86 19q102 0 154 -70t52 -192zM249 310q32 0 59.5 6t53.5 17q1 10 1 19v19q0 39 -5.5 74
t-19 61t-37 41.5t-59.5 15.5q-30 0 -50 -12.5t-33 -31t-18.5 -41.5t-5.5 -44q0 -61 27.5 -92.5t86.5 -31.5z" />
    <glyph glyph-name="colon" unicode=":" 
d="M324 64q0 -30 -20 -53t-53 -23q-34 0 -54 23t-20 53q0 31 20 54t54 23q33 0 53 -23t20 -54zM324 387q0 -30 -20 -53t-53 -23q-34 0 -54 23t-20 53q0 31 20 54t54 23q33 0 53 -23t20 -54z" />
    <glyph glyph-name="semicolon" unicode=";" 
d="M125 -79q18 4 35.5 8t32.5 11.5t27 19t19 31.5q-32 3 -46.5 24.5t-14.5 42.5q0 40 22.5 60.5t51.5 20.5q37 0 56 -26.5t19 -64.5q0 -29 -11.5 -60.5t-35 -59t-58.5 -47t-83 -25.5zM324 387q0 -30 -20 -53t-53 -23q-34 0 -54 23t-20 53q0 31 20 54t54 23q33 0 53 -23
t20 -54z" />
    <glyph glyph-name="less" unicode="&#x3c;" 
d="M141 255l317 -131l-23 -69l-386 164v71l386 164l23 -69z" />
    <glyph glyph-name="equal" unicode="=" 
d="M46 203h409v-71h-409v71zM46 393h409v-71h-409v71z" />
    <glyph glyph-name="greater" unicode="&#x3e;" 
d="M49 385l23 69l386 -164v-71l-386 -164l-23 69l317 131z" />
    <glyph glyph-name="question" unicode="?" 
d="M185 211l-1 19q0 43 22 74.5t48.5 58.5t48.5 54t22 62q0 38 -24 61t-71 23q-29 0 -57.5 -7t-57.5 -23l-23 64q30 17 68 26.5t81 9.5q51 0 83.5 -14t51.5 -35.5t26.5 -47.5t7.5 -50q0 -30 -11.5 -53.5t-28.5 -44.5t-37 -40t-37 -39.5t-28.5 -44.5t-11.5 -53h-71zM228 -12
q-28 0 -47.5 18.5t-19.5 49.5t19.5 49.5t47.5 18.5q27 0 47 -18.5t20 -49.5t-20 -49.5t-47 -18.5z" />
    <glyph glyph-name="at" unicode="@" 
d="M468 63q-30 -12 -61 -16.5t-57 -4.5q-35 0 -65 11.5t-52.5 35.5t-35 61.5t-12.5 89.5q0 93 48 141.5t125 48.5q8 0 15.5 -0.5t15.5 -1.5q0 63 -26 100t-83 37q-35 0 -64 -17t-50 -54.5t-33 -96.5t-12 -143q0 -63 12 -121.5t37.5 -102.5t65 -70.5t94.5 -26.5q40 0 83 13
l8 -67q-53 -14 -98 -14q-73 0 -126.5 32.5t-88 85.5t-51.5 121t-17 139q0 103 18.5 177t51 121t75.5 69.5t93 22.5q88 0 139 -59.5t51 -165.5v-345zM265 240q0 -20 2.5 -43t11.5 -42.5t25.5 -33t45.5 -13.5q8 0 18 1t21 4v245q-9 3 -17.5 4t-16.5 1q-43 0 -66.5 -33.5
t-23.5 -89.5z" />
    <glyph glyph-name="A" unicode="A" 
d="M404 0l-37 162h-238l-36 -162h-84q17 66 38 143t45.5 158t51.5 162.5t57 155.5h102q29 -74 55.5 -155.5t50 -162.5t44.5 -158t38 -143h-87zM249 547q-23 -63 -50 -146t-51 -171h200q-23 90 -49.5 173.5t-49.5 143.5z" />
    <glyph glyph-name="B" unicode="B" 
d="M204 -5q-15 0 -35 1t-40 2.5t-40 4.5t-35 7v600q15 4 34.5 7t40 4.5t40 2.5t35.5 1q46 0 86 -8t69.5 -27t46 -50t16.5 -77q0 -22 -7 -42.5t-19.5 -38.5t-29 -31.5t-35.5 -20.5q51 -14 85.5 -51.5t34.5 -97.5q0 -92 -59 -139t-188 -47zM136 289v-221q2 -1 22.5 -2.5
t51.5 -1.5t59.5 5t50.5 18.5t35.5 35.5t13.5 57q0 31 -12.5 52t-33 33.5t-47.5 18t-56 5.5h-84zM136 357h65q25 0 50 5t45 16t32 30t12 48q0 27 -11 46t-29 31t-41.5 17t-49.5 5t-45.5 -0.5t-27.5 -2.5v-195z" />
    <glyph glyph-name="C" unicode="C" 
d="M460 26q-35 -20 -74.5 -29.5t-84.5 -9.5q-55 0 -101.5 19.5t-80.5 59t-53.5 100.5t-19.5 144q0 79 20.5 139t55.5 101t82 62t100 21q37 0 75.5 -10t75.5 -33l-24 -68q-66 38 -124 38q-41 0 -73.5 -17.5t-55.5 -50.5t-35.5 -79t-12.5 -103q0 -64 13.5 -111t37.5 -78
t57.5 -46t72.5 -15q29 0 61 7.5t66 26.5z" />
    <glyph glyph-name="D" unicode="D" 
d="M460 310q0 -86 -21.5 -146t-59 -97.5t-89 -54.5t-111.5 -17q-62 0 -125 15v600q63 15 125 15q60 0 111.5 -17t89 -55t59 -98t21.5 -145zM136 69q25 -3 51 -3q45 0 80 13.5t59 43t37 76t13 111.5q0 126 -48.5 185t-143.5 59q-13 0 -25.5 -0.5t-22.5 -2.5v-482z" />
    <glyph glyph-name="E" unicode="E" 
d="M91 0v619h347v-70h-265v-190h232v-70h-232v-219h287v-70h-369z" />
    <glyph glyph-name="F" unicode="F" 
d="M91 0v619h351v-70h-269v-193h237v-69h-237v-287h-82z" />
    <glyph glyph-name="G" unicode="G" 
d="M373 305h82v-290q-19 -7 -61 -17.5t-99 -10.5q-56 0 -102 21.5t-78.5 62.5t-50.5 101.5t-18 137.5q0 78 20 138t54.5 101t80.5 62.5t99 21.5q34 0 60 -5t44.5 -12t30.5 -14.5t18 -11.5l-27 -69q-23 18 -54.5 29.5t-66.5 11.5q-38 0 -70.5 -18t-55.5 -51t-36 -79.5
t-13 -103.5q0 -56 11.5 -102t33.5 -79t54.5 -51.5t74.5 -18.5q29 0 45 4t24 8v234z" />
    <glyph glyph-name="H" unicode="H" 
d="M373 619h82v-619h-82v288h-246v-288h-82v619h82v-261h246v261z" />
    <glyph glyph-name="I" unicode="I" 
d="M291 549v-479h120v-70h-322v70h120v479h-120v70h322v-70h-120z" />
    <glyph glyph-name="J" unicode="J" 
d="M127 549v70h293v-420q0 -44 -9.5 -83t-33 -67.5t-63 -45t-99.5 -16.5t-101 17t-60 33l33 67q19 -14 50.5 -30t73.5 -16q64 0 95.5 34t31.5 115v342h-211z" />
    <glyph glyph-name="K" unicode="K" 
d="M470 619q-49 -73 -107.5 -145t-126.5 -144q32 -27 68 -63t70.5 -78.5t65 -90.5t51.5 -98h-93q-25 46 -54 90t-61.5 82t-67 69.5t-69.5 54.5v-296h-82v619h82v-276q65 67 124.5 140t104.5 136h95z" />
    <glyph glyph-name="L" unicode="L" 
d="M460 70v-70h-369v619h82v-549h287z" />
    <glyph glyph-name="M" unicode="M" 
d="M251 311l96 308h77q20 -146 28.5 -299t15.5 -320h-80q-1 54 -2 117t-2.5 130t-3 136t-3.5 134l-90 -282h-72l-92 282q-1 -65 -2.5 -133.5t-3 -136t-3 -130.5t-2.5 -117h-80q3 76 7 156t9.5 159t13 156t16.5 148h76z" />
    <glyph glyph-name="N" unicode="N" 
d="M361 0q-34 83 -64 150.5t-57.5 126.5t-54.5 111.5t-55 105.5v-494h-75v619h84q41 -75 71.5 -131t56 -108.5t49.5 -108t54 -128.5v476h75v-619h-84z" />
    <glyph glyph-name="O" unicode="O" 
d="M29 310q0 83 16 144t45 100.5t69.5 59t90.5 19.5q49 0 90 -19.5t70 -59t45.5 -100.5t16.5 -144t-16.5 -144t-45.5 -101t-70 -59t-90 -19q-50 0 -90.5 19t-69.5 59t-45 101t-16 144zM113 310q0 -122 33 -187t102 -65q70 0 105 65t35 187t-35 187t-105 65q-69 0 -102 -65
t-33 -187z" />
    <glyph glyph-name="P" unicode="P" 
d="M235 625q55 0 96.5 -14t69 -39.5t41 -60.5t13.5 -78q0 -97 -57 -149.5t-171 -52.5h-72v-231h-82v610q18 4 39.5 7t43 5t42 2.5t37.5 0.5zM241 554q-26 0 -50 -0.5t-36 -2.5v-250h68q75 0 111.5 30t36.5 99q0 124 -130 124z" />
    <glyph glyph-name="Q" unicode="Q" 
d="M29 309q0 83 16 144t45 100.5t69.5 59t90.5 19.5q49 0 90 -19.5t70 -59t45.5 -100.5t16.5 -144q0 -74 -13 -130.5t-37 -96.5t-58 -63t-75 -30q3 -20 17 -34.5t35.5 -25t49 -17.5t57.5 -11l-19 -66q-41 7 -78.5 18t-67.5 29t-51 44t-28 64q-81 17 -128 94.5t-47 224.5z
M113 309q0 -122 33 -187t102 -65q70 0 105 65t35 187t-35 187t-105 65q-69 0 -102 -65t-33 -187z" />
    <glyph glyph-name="R" unicode="R" 
d="M431 430q0 -57 -30 -100.5t-81 -67.5q15 -24 33.5 -54.5t37.5 -65t37.5 -71t34.5 -71.5h-88q-30 72 -65.5 138t-68.5 107q-6 -1 -17.5 -1h-15.5h-70v-244h-83v610q15 4 34.5 7t40 4.5t40.5 2.5t36 1q112 0 168.5 -49t56.5 -146zM213 554q-23 0 -44.5 -0.5t-30.5 -2.5
v-239h53q36 0 64.5 5t49 18.5t31.5 37t11 61.5q0 36 -11 59t-29 36.5t-42.5 19t-51.5 5.5z" />
    <glyph glyph-name="S" unicode="S" 
d="M234 58q63 0 96 24t33 72q0 29 -12 49.5t-32 36t-45 27t-51 21.5q-30 12 -57.5 27t-49 35t-34 47t-12.5 64q0 81 51 126.5t142 45.5q25 0 49.5 -3.5t45.5 -8.5t37.5 -12t26.5 -14l-26 -69q-20 12 -55 24t-78 12q-45 0 -78 -22.5t-33 -67.5q0 -26 9.5 -44t26 -31.5
t38.5 -24.5t48 -22q38 -16 69.5 -32t54 -38t35 -52t12.5 -73q0 -81 -54.5 -124.5t-156.5 -43.5q-33 0 -62 4.5t-51.5 11.5t-39.5 14t-26 13l25 68q20 -11 59 -25.5t95 -14.5z" />
    <glyph glyph-name="T" unicode="T" 
d="M461 619v-70h-170v-549h-82v549h-170v70h422z" />
    <glyph glyph-name="U" unicode="U" 
d="M250 -13q-55 0 -93.5 16t-62.5 45t-35 71t-11 94v406h82v-397q0 -47 8.5 -78.5t24 -50.5t37.5 -27t50 -8t50 8t37.5 27t24 50.5t8.5 78.5v397h82v-406q0 -52 -11 -94t-35 -71t-62.5 -45t-93.5 -16z" />
    <glyph glyph-name="V" unicode="V" 
d="M102 619q12 -63 30.5 -137.5t39 -149t41.5 -142.5t39 -119q16 51 37.5 120t42.5 143.5t39.5 148.5t30.5 136h86q-8 -40 -26 -107.5t-43 -151t-55.5 -177t-63.5 -183.5h-102q-31 90 -60.5 183t-54.5 176.5t-43 151.5t-27 108h89z" />
    <glyph glyph-name="W" unicode="W" 
d="M153 0h-77q-9 61 -15.5 134.5t-12 153.5t-9.5 164t-7 167h80l11 -517l90 282h72l92 -282l11 517h80q-3 -84 -7.5 -168t-10.5 -163.5t-13 -152.5t-15 -135h-76l-97 308z" />
    <glyph glyph-name="X" unicode="X" 
d="M384 0q-11 27 -26 61t-32 70t-36.5 72t-40.5 67q-35 -56 -70 -128.5t-65 -141.5h-89q33 74 77 160.5t94 166.5l-161 292h91l121 -237l130 237h89l-164 -289q48 -78 93 -162t80 -168h-91z" />
    <glyph glyph-name="Y" unicode="Y" 
d="M210 0v230q-61 100 -110.5 195t-86.5 194h92q29 -84 66.5 -160.5t80.5 -157.5q46 85 81.5 161.5t64.5 156.5h90q-38 -98 -87 -191t-109 -196v-232h-82z" />
    <glyph glyph-name="Z" unicode="Z" 
d="M447 555q-32 -44 -71.5 -104.5t-80.5 -126.5t-79.5 -132.5t-67.5 -121.5h307v-70h-401v54q31 63 68.5 129.5t76.5 130.5t78 124t75 111h-283v70h378v-64z" />
    <glyph glyph-name="bracketleft" unicode="[" 
d="M143 699h239v-65h-161v-734h161v-65h-239v864z" />
    <glyph glyph-name="backslash" unicode="\" 
d="M70 699h83l277 -864h-84z" />
    <glyph glyph-name="bracketright" unicode="]" 
d="M357 -165h-239v65h161v734h-161v65h239v-864z" />
    <glyph glyph-name="asciicircum" unicode="^" 
d="M287 619l173 -304l-66 -34l-144 252l-144 -252l-66 34l173 304h74z" />
    <glyph glyph-name="underscore" unicode="_" 
d="M8 -95h484v-70h-484v70z" />
    <glyph glyph-name="grave" unicode="`" 
d="M216 693l114 -138l-42 -37l-125 122z" />
    <glyph glyph-name="a" unicode="a" 
d="M255 59q31 0 55.5 2t40.5 5v138q-16 5 -38.5 8t-47.5 3q-23 0 -45 -3.5t-39 -12.5t-28 -23.5t-11 -36.5q0 -45 30.5 -62.5t82.5 -17.5zM247 475q52 0 87.5 -13t57.5 -36t31 -56t9 -72v-290q-29 -5 -76.5 -12t-97.5 -7q-38 0 -74 6.5t-64 23t-45 45.5t-17 74
q0 40 17.5 67.5t45 44.5t63 24.5t71.5 7.5q49 0 96 -11v23q0 21 -4.5 40.5t-17 35.5t-34 25.5t-55.5 9.5q-43 0 -75 -6t-49 -12l-10 68q17 8 56.5 14t84.5 6z" />
    <glyph glyph-name="b" unicode="b" 
d="M154 447q15 9 43.5 18.5t63.5 9.5q47 0 84 -18t62.5 -50t39 -76.5t13.5 -98.5q0 -56 -16 -101t-45 -76.5t-70 -48.5t-91 -17q-55 0 -98 8t-69 16v666l83 14v-246zM154 72q19 -5 38 -7.5t36 -2.5q69 0 108 42.5t39 127.5q0 36 -7 67.5t-22 54t-38.5 35.5t-56.5 13
q-29 0 -56 -11.5t-41 -24.5v-294z" />
    <glyph glyph-name="c" unicode="c" 
d="M49 231q0 63 20 109t55 76t81.5 44.5t99.5 14.5q34 0 67.5 -4.5t71.5 -16.5l-19 -71q-33 12 -60.5 15.5t-55.5 3.5q-36 0 -68 -9.5t-55.5 -30t-37.5 -53t-14 -78.5q0 -44 13 -75.5t36.5 -52t56.5 -30.5t73 -10q32 0 61.5 3.5t64.5 15.5l12 -69q-35 -13 -71 -18.5
t-78 -5.5q-56 0 -102.5 15.5t-80 45.5t-52 75.5t-18.5 105.5z" />
    <glyph glyph-name="d" unicode="d" 
d="M346 366q-14 13 -41 24.5t-56 11.5q-33 0 -56.5 -13t-38.5 -35.5t-22 -54t-7 -67.5q0 -81 38 -125t99 -44q31 0 52.5 3t31.5 6v294zM346 679l83 14v-680q-27 -8 -69 -16t-98 -8q-50 0 -91 17t-70 48.5t-45 76.5t-16 101q0 54 13.5 98.5t39.5 76.5t62.5 50t83.5 18
q37 0 65 -9t42 -19v232z" />
    <glyph glyph-name="e" unicode="e" 
d="M259 475q94 0 145 -58.5t51 -177.5v-29h-332q5 -72 47.5 -109.5t119.5 -37.5q44 0 75 7t47 15l11 -70q-15 -8 -54 -17t-88 -9q-60 0 -105.5 18.5t-75.5 50.5t-45 76.5t-15 96.5q0 62 19 108t50 76t70 45t80 15zM371 277q0 59 -31 93.5t-82 34.5q-29 0 -52.5 -11
t-40.5 -29t-27 -41t-13 -47h246z" />
    <glyph glyph-name="f" unicode="f" 
d="M161 0v395h-98v69h98v42q0 54 15 89.5t39.5 57.5t57 31t68.5 9t72.5 -8t68.5 -19l-15 -71q-22 11 -55 19t-67 8q-21 0 -39.5 -5.5t-32.5 -19t-22 -36t-8 -56.5v-41h187v-69h-187v-395h-82z" />
    <glyph glyph-name="g" unicode="g" 
d="M346 43q-14 -8 -43 -17t-67 -9q-41 0 -76.5 13.5t-62 41t-42 70t-15.5 100.5q0 51 14.5 93.5t42 73.5t67.5 48.5t91 17.5q60 0 102.5 -8.5t71.5 -16.5v-414q0 -108 -54.5 -156t-164.5 -48q-45 0 -81.5 7t-64.5 17l15 73q26 -11 59.5 -18t73.5 -7q72 0 103 29t31 94v16z
M346 391q-12 4 -33 7.5t-57 3.5q-64 0 -97.5 -44t-33.5 -117q0 -40 9.5 -68.5t26 -47t37.5 -27t45 -8.5q31 0 58.5 9t44.5 21v271z" />
    <glyph glyph-name="h" unicode="h" 
d="M71 0v679l83 14v-236q20 8 45 12.5t49 4.5q53 0 88.5 -15.5t56.5 -43.5t30 -67t9 -86v-262h-82v244q0 86 -24 121.5t-86 35.5q-26 0 -50.5 -5.5t-35.5 -10.5v-385h-83z" />
    <glyph glyph-name="i" unicode="i" 
d="M209 536q-26 0 -45 18t-19 49t19 49t45 18q27 0 45.5 -18t18.5 -49t-18.5 -49t-45.5 -18zM188 395h-134v69h216v-285q0 -69 19 -92.5t57 -23.5q29 0 53.5 7t38.5 15l12 -70q-6 -3 -17 -7.5t-25.5 -8.5t-32 -7t-36.5 -3q-44 0 -73 12t-46.5 36t-24.5 59.5t-7 82.5v216z
" />
    <glyph glyph-name="j" unicode="j" 
d="M308 536q-26 0 -45 18t-19 49t19 49t45 18q27 0 45.5 -18t18.5 -49t-18.5 -49t-45.5 -18zM114 395v69h270v-459q0 -48 -13.5 -81.5t-36 -54.5t-52 -30t-62.5 -9q-38 0 -76.5 8t-72.5 25l25 70q25 -12 55.5 -20.5t58.5 -8.5q40 0 66 20.5t26 79.5v391h-188z" />
    <glyph glyph-name="k" unicode="k" 
d="M238 255q27 -20 61 -50.5t67.5 -65.5t63.5 -71.5t48 -67.5h-98q-19 31 -47 63.5t-59.5 62.5t-63 55t-56.5 42v-223h-83v679l83 14v-423q55 48 110 95.5t99 98.5h97q-43 -51 -103.5 -105t-118.5 -104z" />
    <glyph glyph-name="l" unicode="l" 
d="M338 -11q-44 0 -73 12t-46 36t-24 59.5t-7 82.5v439h-134v70h216v-509q0 -35 4.5 -57t14 -35.5t23.5 -18.5t33 -5q29 0 54 7t39 15l12 -70q-6 -3 -17 -7.5t-26 -8.5t-32.5 -7t-36.5 -3z" />
    <glyph glyph-name="m" unicode="m" 
d="M41 451q60 23 113 23q29 0 54.5 -8.5t43.5 -26.5q43 35 92 35q24 0 45.5 -9t38 -27t26.5 -45t10 -63v-330h-75v332q0 36 -16 55t-40 19q-12 0 -25 -6t-24 -19q6 -23 6 -51v-151h-75v152q0 35 -11 55t-43 20q-20 0 -45 -9v-397h-75v451z" />
    <glyph glyph-name="n" unicode="n" 
d="M71 451q45 11 89.5 17t83.5 6q93 0 140.5 -48t47.5 -154v-272h-82v257q0 45 -8 73t-22.5 43.5t-35 21.5t-44.5 6q-20 0 -42.5 -2.5t-43.5 -6.5v-392h-83v451z" />
    <glyph glyph-name="o" unicode="o" 
d="M460 232q0 -55 -15.5 -99.5t-43.5 -76.5t-67 -49.5t-85 -17.5q-45 0 -83.5 17.5t-66.5 49.5t-43.5 76.5t-15.5 99.5t15.5 100t43.5 76.5t66.5 49t83.5 17.5q46 0 85 -17.5t67 -49t43.5 -76.5t15.5 -100zM375 232q0 79 -34 124.5t-92 45.5q-57 0 -90.5 -45.5t-33.5 -124.5
q0 -78 33.5 -123.5t90.5 -45.5q58 0 92 45.5t34 123.5z" />
    <glyph glyph-name="p" unicode="p" 
d="M375 231q0 81 -38 125.5t-99 44.5q-34 0 -53.5 -3t-30.5 -7v-293q14 -13 41 -24t56 -11q33 0 56.5 13t38.5 35.5t22 53t7 66.5zM460 231q0 -53 -13.5 -97.5t-39 -76.5t-62.5 -50t-84 -18q-37 0 -65 9t-42 20v-183h-83v615q27 8 69.5 16t97.5 8q50 0 91 -17t70 -48.5
t45 -76.5t16 -101z" />
    <glyph glyph-name="q" unicode="q" 
d="M125 231q0 -36 7.5 -66.5t22.5 -53t38.5 -35.5t56.5 -13q29 0 56 11t41 24v293q-11 4 -30.5 7t-53.5 3q-61 0 -99.5 -44.5t-38.5 -125.5zM40 231q0 56 16 101t45 76.5t70.5 48.5t91.5 17q54 0 95.5 -8.5t70.5 -16.5v-614h-83v183q-15 -10 -43 -19.5t-63 -9.5
q-47 0 -84 18t-62.5 50t-39.5 76.5t-14 97.5z" />
    <glyph glyph-name="r" unicode="r" 
d="M107 0v439q102 35 206 35q32 0 61 -2.5t64 -10.5l-15 -73q-32 9 -56.5 11.5t-53.5 2.5q-61 0 -124 -17v-385h-82z" />
    <glyph glyph-name="s" unicode="s" 
d="M351 116q0 25 -20.5 41t-51 28t-66.5 23.5t-66.5 28.5t-51 42t-20.5 65q0 56 45.5 93.5t142.5 37.5q38 0 78.5 -5.5t69.5 -14.5l-15 -74q-8 4 -22 8.5t-32 8t-38.5 5.5t-39.5 2q-108 0 -108 -59q0 -21 20.5 -35.5t51.5 -26.5t67 -24.5t67 -30.5t51.5 -43.5t20.5 -64.5
q0 -63 -49 -97.5t-155 -34.5q-48 0 -88 8t-76 24l16 75q35 -16 73.5 -26.5t82.5 -10.5q113 0 113 57z" />
    <glyph glyph-name="t" unicode="t" 
d="M243 464h196v-69h-196v-216q0 -35 5 -57t16.5 -35.5t29.5 -18.5t44 -5q36 0 58 6t42 16l12 -70q-14 -6 -44.5 -16t-75.5 -10q-52 0 -85 12t-51.5 36t-25.5 59.5t-7 82.5v216h-98v69h98v130l82 14v-144z" />
    <glyph glyph-name="u" unicode="u" 
d="M429 13q-27 -7 -71.5 -15t-104.5 -8q-53 0 -88 15.5t-57 44t-31 67.5t-9 86v261h82v-243q0 -86 25.5 -122t85.5 -36q13 0 26.5 1t25.5 2.5t21 3t12 2.5v392h83v-451z" />
    <glyph glyph-name="v" unicode="v" 
d="M470 464q-18 -65 -41 -127.5t-47 -122t-49 -113.5t-48 -101h-75q-47 94 -95 214t-85 250h90q12 -44 27.5 -93t32.5 -98t34.5 -94.5t34.5 -81.5q17 36 35.5 81.5t36.5 94.5t34.5 98t28.5 93h86z" />
    <glyph glyph-name="w" unicode="w" 
d="M343 0q-15 34 -26 62t-21.5 56t-21 58.5t-24.5 69.5q-14 -39 -25 -69.5t-21.5 -58.5t-22 -56t-26.5 -62h-62q-28 123 -46.5 243.5t-27.5 220.5h78q3 -39 6.5 -76.5t8.5 -78.5t11.5 -89t14.5 -108q16 40 27 70t20 57t17.5 55t18.5 63h62l18 -63t17 -55l19 -57t25 -69
q9 55 16 102t12 88.5t9 80.5t7 80h75q-5 -50 -12 -107t-17 -117t-22 -121.5t-25 -118.5h-62z" />
    <glyph glyph-name="x" unicode="x" 
d="M380 0q-10 20 -24.5 44t-31.5 49.5t-35.5 50.5t-36.5 47q-18 -23 -38 -48t-38.5 -50.5t-34.5 -49.5t-27 -43h-85q33 60 80.5 123.5t93.5 120.5l-167 220h93l125 -162l115 162h88l-153 -215q45 -59 90.5 -123t77.5 -126h-92z" />
    <glyph glyph-name="y" unicode="y" 
d="M51 -87q9 -5 25.5 -8t30.5 -3q49 0 76.5 21.5t50.5 70.5q-56 106 -105 227.5t-81 242.5h90q10 -40 23.5 -86.5t30.5 -95.5t36.5 -98.5t41.5 -94.5q16 46 30 91t26 90.5t24 93t25 100.5h86q-32 -130 -71.5 -252t-84.5 -226q-17 -40 -36.5 -69t-42.5 -48t-52 -28t-66 -9
q-19 0 -41.5 5t-30.5 9z" />
    <glyph glyph-name="z" unicode="z" 
d="M420 402q-18 -21 -49 -58.5t-66.5 -83t-70.5 -95.5t-62 -95h255v-70h-354v55q21 40 52.5 87.5t65.5 94t66.5 88.5t56.5 70h-228v69h334v-62z" />
    <glyph glyph-name="braceleft" unicode="{" 
d="M79 299h40q17 0 30 7.5t21.5 20t13 28t4.5 31.5v161q0 37 7.5 65t25.5 47.5t48.5 29.5t76.5 10h81v-65h-85q-42 0 -59.5 -19t-17.5 -69v-138q0 -67 -20 -98.5t-46 -42.5q26 -12 46 -45t20 -96v-138q0 -50 18 -69t60 -19h84v-65h-81q-46 0 -76.5 10t-48.5 29.5t-25.5 47.5
t-7.5 65v161q0 15 -4.5 30.5t-13 28t-21 20.5t-29.5 8h-41v64z" />
    <glyph glyph-name="bar" unicode="|" 
d="M212 699h77v-864h-77v864z" />
    <glyph glyph-name="braceright" unicode="}" 
d="M421 235h-40q-17 0 -29.5 -7.5t-21 -20t-13 -28t-4.5 -31.5v-161q0 -37 -7.5 -65t-26 -47.5t-49 -29.5t-76.5 -10h-81v65h85q42 0 59.5 19t17.5 69v138q0 67 20 98.5t46 42.5q-26 12 -46 45t-20 96v138q0 50 -18 69t-60 19h-84v65h81q46 0 76.5 -10t49 -29.5t26 -47.5
t7.5 -65v-161q0 -15 4 -30.5t12.5 -28t21 -20.5t29.5 -8h41v-64z" />
    <glyph glyph-name="asciitilde" unicode="~" 
d="M463 314q-3 -17 -10.5 -39t-22 -41t-36.5 -32t-53 -13q-27 0 -49.5 10.5t-43.5 23.5q-24 14 -46 28t-48 14q-14 0 -24 -6.5t-16.5 -16.5t-11.5 -22.5t-8 -23.5l-57 16q3 17 11 39t22 41t35.5 32t53.5 13q27 0 49.5 -10.5t43.5 -23.5q24 -14 46.5 -28t47.5 -14
q14 0 24 6.5t16.5 16.5t11.5 22.5t8 23.5z" />
    <glyph glyph-name="uni00A0" unicode="&#xa0;" 
 />
    <glyph glyph-name="exclamdown" unicode="&#xa1;" 
d="M204 3q0 37 1.5 68t3.5 59t5.5 55.5t6.5 57.5h57q3 -30 6 -57.5t5.5 -55.5t3.5 -59t1 -68v-168h-90v168zM249 465q28 0 47.5 -18.5t19.5 -49.5t-19.5 -49t-47.5 -18q-27 0 -47 18t-20 49t20 49.5t47 18.5z" />
    <glyph glyph-name="cent" unicode="&#xa2;" 
d="M49 260q0 53 15 93.5t42 69.5t64.5 46t81.5 23v127h74v-124q27 -2 54 -6.5t58 -14.5l-18 -69q-33 12 -60 15.5t-55 3.5q-36 0 -67.5 -9.5t-54.5 -29t-36 -51t-13 -74.5q0 -83 49.5 -122.5t129.5 -39.5q32 0 61 4t64 16l12 -68q-30 -11 -60 -16t-64 -7v-124h-74v126
q-92 13 -147.5 71t-55.5 160z" />
    <glyph glyph-name="sterling" unicode="&#xa3;" 
d="M210 333h170v-67h-170v-7q0 -45 -3.5 -94t-10.5 -94h259v-71h-352q10 64 17.5 126.5t7.5 126.5v13h-83v67h83v74q0 66 14 109.5t39 68.5t60.5 35t79.5 10q39 0 65.5 -6.5t51.5 -17.5l-20 -71q-45 22 -101 22q-24 0 -43.5 -7t-34 -24t-22 -45.5t-7.5 -71.5v-76z" />
    <glyph glyph-name="currency" unicode="&#xa4;" 
d="M78 310q0 55 25 95l-65 66l51 51l66 -67q43 26 95 26q51 0 94 -26l67 67l52 -51l-67 -66q26 -40 26 -95q0 -29 -6.5 -52t-19.5 -43l67 -66l-52 -52l-67 66q-43 -25 -94 -25q-54 0 -95 25l-66 -66l-51 52l65 65q-25 40 -25 96zM355 310q0 51 -31 81t-74 30t-74 -30
t-31 -81t31 -81t74 -30t74 30t31 81z" />
    <glyph glyph-name="yen" unicode="&#xa5;" 
d="M210 0v95h-145v63h145v91h-145v64h122q-49 78 -92.5 155.5t-81.5 150.5h91q32 -70 70 -139.5t79 -133.5q39 64 75.5 133.5t68.5 139.5h91q-40 -75 -83 -151.5t-92 -154.5h123v-64h-144v-91h144v-63h-144v-95h-82z" />
    <glyph glyph-name="brokenbar" unicode="&#xa6;" 
d="M212 177h77v-342h-77v342zM212 699h77v-342h-77v342z" />
    <glyph glyph-name="section" unicode="&#xa7;" 
d="M90 -1q27 -11 59 -19.5t82 -8.5q101 0 101 62q0 32 -24 49.5t-81 36.5q-33 11 -61.5 23.5t-50.5 30t-34.5 42.5t-12.5 61q0 23 7.5 43t19 36.5t25.5 29t27 20.5q-22 18 -35 41t-13 53q0 62 43.5 98t121.5 36q46 0 85 -8.5t63 -16.5l-19 -69q-22 8 -52.5 17t-77.5 9
q-35 0 -60 -14.5t-25 -44.5q0 -31 22 -48t72 -33q33 -11 61.5 -23.5t50.5 -30.5t34.5 -42.5t12.5 -60.5q0 -22 -7 -41.5t-18 -36t-24.5 -29.5t-26.5 -21q26 -19 42 -44t16 -58q0 -67 -47.5 -101t-135.5 -34q-60 0 -98.5 9.5t-61.5 20.5zM202 373q-26 -17 -42 -39.5
t-16 -49.5q0 -23 10.5 -39t28.5 -28t43 -21t54 -19l17 -6q26 17 42 39t16 50q0 23 -10.5 38.5t-28 26.5t-41 20t-49.5 19z" />
    <glyph glyph-name="dieresis" unicode="&#xa8;" 
d="M165 550q-20 0 -36 15t-16 38t16 37.5t36 14.5q21 0 36.5 -14.5t15.5 -37.5t-15.5 -38t-36.5 -15zM335 550q-21 0 -36.5 15t-15.5 38t15.5 37.5t36.5 14.5t36.5 -14.5t15.5 -37.5t-15.5 -38t-36.5 -15z" />
    <glyph glyph-name="copyright" unicode="&#xa9;" 
d="M408 231q0 48 -13.5 83.5t-36 59t-50.5 35.5t-58 12t-58 -12t-50.5 -35.5t-36 -59t-13.5 -81.5q0 -48 13.5 -83.5t36 -59t50.5 -35.5t58 -12t58.5 12t50.5 35.5t35.5 58.5t13.5 82zM327 120q-17 -8 -35.5 -12t-35.5 -4q-29 0 -50.5 10.5t-35.5 28t-21 40t-7 46.5t7 47
t21 41t35.5 29t51.5 11q16 0 33.5 -2.5t34.5 -10.5l-20 -54q-11 5 -22 6.5t-20 1.5q-32 0 -45.5 -20t-13.5 -45q0 -32 16.5 -50.5t46.5 -18.5q9 0 20.5 2t22.5 7zM34 231q0 61 19 107t49.5 76.5t69.5 45.5t79 15t79 -15t69 -45.5t48.5 -76t18.5 -105.5q0 -61 -19 -106.5
t-49.5 -76t-69.5 -46t-79 -15.5q-41 0 -79.5 15.5t-68.5 45.5t-48.5 75.5t-18.5 105.5z" />
    <glyph glyph-name="ordfeminine" unicode="&#xaa;" 
d="M259 349q20 0 39 1t24 3v89q-10 2 -25 3t-29 1q-15 0 -30.5 -2t-28.5 -7t-21 -14.5t-8 -24.5q0 -26 21 -37.5t58 -11.5zM253 630q73 0 102 -34t29 -90v-200q-22 -5 -58 -8.5t-73 -3.5q-59 0 -97 24t-38 80q0 28 11.5 47.5t31.5 31.5t45.5 17.5t54.5 5.5q13 0 27.5 -1
t33.5 -3v2q0 13 -2.5 26.5t-10.5 24t-22.5 17t-37.5 6.5q-21 0 -45 -2.5t-42 -8.5l-9 56q17 5 44 9t56 4z" />
    <glyph glyph-name="guillemotleft" unicode="&#xab;" 
d="M63 254l119 176l52 -27l-84 -149l80 -144l-50 -31zM242 254l120 176l51 -27l-83 -149l80 -144l-50 -31z" />
    <glyph glyph-name="logicalnot" unicode="&#xac;" 
d="M450 347v-304h-71v234h-338v70h409z" />
    <glyph glyph-name="uni00AD" unicode="&#xad;" 
d="M140 293h220v-78h-220v78z" />
    <glyph glyph-name="registered" unicode="&#xae;" 
d="M408 231q0 48 -13.5 83.5t-36 59t-50.5 35.5t-58 12t-58 -12t-50.5 -35.5t-36 -59t-13.5 -81.5q0 -48 13.5 -83.5t36 -59t50.5 -35.5t58 -12t58.5 12t50.5 35.5t35.5 58.5t13.5 82zM34 231q0 61 19 107t49.5 76.5t69.5 45.5t79 15t79 -15t69 -45.5t48.5 -76t18.5 -105.5
q0 -61 -19 -106.5t-49.5 -76t-69.5 -46t-79 -15.5q-41 0 -79.5 15.5t-68.5 45.5t-48.5 75.5t-18.5 105.5zM220 187v-77h-54v238q14 4 31 6.5t36 2.5q57 0 84.5 -22t27.5 -64q0 -48 -40 -71q12 -17 25 -40.5t26 -49.5h-57q-13 24 -23 42.5t-20 34.5h-36zM220 237h18
q27 0 40 7t13 30q0 20 -16 26.5t-33 6.5q-6 0 -11.5 -0.5t-10.5 -1.5v-68z" />
    <glyph glyph-name="macron" unicode="&#xaf;" 
d="M123 635h254v-64h-254v64z" />
    <glyph glyph-name="degree" unicode="&#xb0;" 
d="M375 569q0 -29 -10 -52t-27.5 -39t-40 -24.5t-47.5 -8.5t-47.5 8.5t-40 24.5t-27.5 39t-10 52t10 52t27.5 39t40 24.5t47.5 8.5t47.5 -8.5t40 -24.5t27.5 -39t10 -52zM315 569q0 32 -19 50t-46 18t-46 -18t-19 -50t19 -50t46 -18t46 18t19 50z" />
    <glyph glyph-name="plusminus" unicode="&#xb1;" 
d="M46 374h168v180h72v-180h169v-70h-169v-180h-72v180h-168v70zM46 71h409v-71h-409v71z" />
    <glyph glyph-name="twosuperior" unicode="&#xb2;" 
d="M362 534q0 -19 -8.5 -36.5t-23 -35t-33.5 -35.5t-40 -36q-15 -13 -30 -27.5t-17 -25.5h166v-57h-238q-3 30 4 52.5t20 41.5t30.5 34.5t35.5 31.5q30 26 49 48t19 43q0 45 -55 45q-15 0 -28.5 -4t-24.5 -9.5t-19 -11.5t-13 -10l-32 44q16 16 46.5 31.5t70.5 15.5
q62 0 91.5 -25.5t29.5 -73.5z" />
    <glyph glyph-name="threesuperior" unicode="&#xb3;" 
d="M226 330q48 0 65.5 14.5t17.5 37.5q0 15 -8 25.5t-21.5 17.5t-31.5 10t-37 3h-17v51h22q13 0 26.5 2.5t24.5 8t18.5 14.5t7.5 23q0 22 -16.5 31.5t-42.5 9.5q-24 0 -44.5 -8.5t-35.5 -15.5l-23 49q14 10 44.5 20t60.5 10q65 0 92 -26t27 -68q0 -43 -49 -71
q32 -10 50 -32.5t18 -54.5q0 -45 -34 -76t-113 -31q-28 0 -56.5 6.5t-44.5 14.5l13 53q20 -8 42 -13t45 -5z" />
    <glyph glyph-name="acute" unicode="&#xb4;" 
d="M338 640l-126 -122l-42 37l114 138z" />
    <glyph glyph-name="mu" unicode="&#xb5;" 
d="M429 13q-27 -7 -71.5 -15.5t-104.5 -8.5q-41 0 -63.5 9t-39.5 24q3 -23 3.5 -46t0.5 -49v-92h-83v629h83v-243q0 -43 5.5 -73t18 -49t33 -27.5t50.5 -8.5q13 0 26.5 1t25.5 2t21 2.5t12 2.5v393h83v-451z" />
    <glyph glyph-name="paragraph" unicode="&#xb6;" 
d="M377 553q-46 6 -87 2v-720h-69v399q-93 10 -143 56t-50 138q0 49 18.5 85.5t53.5 61.5t84.5 37.5t111.5 12.5q35 0 75 -3t76 -13v-774h-70v718z" />
    <glyph glyph-name="periodcentered" unicode="&#xb7;" 
d="M324 260q0 -30 -20 -53t-53 -23q-34 0 -54 23t-20 53q0 31 20 54t54 23q33 0 53 -23t20 -54z" />
    <glyph glyph-name="cedilla" unicode="&#xb8;" 
d="M272 -33q26 -12 37.5 -27t11.5 -44q0 -10 -4.5 -21.5t-15 -21t-28 -16t-43.5 -6.5q-23 0 -43 3.5t-31 8.5l10 51q11 -4 23 -6.5t27 -2.5q32 0 32 20t-37 31l-7 2q3 9 8.5 21l11 24t10.5 21.5t7 13.5h57q-5 -11 -13 -25.5t-13 -25.5z" />
    <glyph glyph-name="onesuperior" unicode="&#xb9;" 
d="M231 338v206q-20 -13 -45 -23t-43 -15l-17 49q34 11 67 29.5t57 41.5h44v-288h89v-57h-250v57h98z" />
    <glyph glyph-name="ordmasculine" unicode="&#xba;" 
d="M411 463q0 -39 -12 -70t-33.5 -53.5t-51 -34.5t-64.5 -12t-64.5 12t-51 34.5t-33.5 53.5t-12 70t12 70t33.5 53t51 34t64.5 12t64.5 -12t51 -34t33.5 -53t12 -70zM345 463q0 51 -24.5 80t-70.5 29q-45 0 -70 -29t-25 -80q0 -50 24.5 -80t70.5 -30t70.5 30t24.5 80z" />
    <glyph glyph-name="guillemotright" unicode="&#xbb;" 
d="M437 255l-120 -176l-52 27l84 149l-80 144l50 31zM256 255l-119 -176l-52 27l84 149l-81 144l50 31z" />
    <glyph glyph-name="onequarter" unicode="&#xbc;" 
d="M18 561q34 14 58 28t48 37h40v-250h-59v168q-20 -11 -36 -18t-34 -13zM441 250v-152h36v-50h-36v-48h-59v48h-129v41q26 46 50 83.5t55 77.5h83zM382 207q-21 -27 -38 -55t-32 -54h70v109zM95 -4h-70l379 619h70z" />
    <glyph glyph-name="onehalf" unicode="&#xbd;" 
d="M482 50v-50h-197q-1 3 -1 11.5v11.5q0 32 20 49.5t46 33.5l22 15q24 14 33 26.5t9 26.5q0 17 -11.5 25t-27.5 8q-15 0 -31 -6.5t-28 -19.5l-32 40q17 19 43 28.5t52 9.5q47 0 70.5 -25t23.5 -57q0 -26 -13 -44.5t-32 -32.5t-39 -26t-33 -24h126zM24 561q35 14 58.5 28
t47.5 37h41v-250h-59v168q-20 -11 -36.5 -18t-34.5 -13zM87 0h-70l379 619h70z" />
    <glyph glyph-name="threequarters" unicode="&#xbe;" 
d="M441 250v-152h36v-50h-36v-48h-59v48h-129v41q26 46 50 83.5t55 77.5h83zM36 430q11 -5 27.5 -9t36.5 -4q22 0 38.5 6.5t16.5 23.5q0 21 -19 27t-57 6h-12v50h22q26 0 40 5.5t14 23.5q0 15 -12.5 19.5t-26.5 4.5t-32 -5t-30 -10l-19 43q15 9 39.5 15.5t50.5 6.5
q17 0 33 -3.5t28.5 -11t20 -20t7.5 -30.5q0 -15 -7.5 -30t-23.5 -26q43 -20 43 -65q0 -14 -6 -28.5t-19 -26t-34 -18.5t-51 -7q-46 0 -83 14zM382 207q-21 -27 -38 -55t-32 -54h70v109zM100 0h-70l379 619h70z" />
    <glyph glyph-name="questiondown" unicode="&#xbf;" 
d="M317 243l1 -20q0 -29 -10.5 -51t-26 -41t-34 -35.5t-34 -33.5t-26 -36t-10.5 -42q0 -38 24 -61t70 -23q59 0 116 30l23 -64q-30 -16 -68 -26t-81 -10q-51 0 -83.5 14t-51.5 35.5t-26.5 47.5t-7.5 50q0 30 11.5 53t28.5 42.5t37 37.5t37 38t28.5 42.5t11.5 52.5h71z
M274 465q28 0 47.5 -18.5t19.5 -49.5t-19.5 -49t-47.5 -18q-27 0 -47 18t-20 49t20 49.5t47 18.5z" />
    <glyph glyph-name="Agrave" unicode="&#xc0;" 
d="M404 0l-37 162h-238l-36 -162h-84q17 66 38 143t45.5 158t51.5 162.5t57 155.5h102q29 -74 55.5 -155.5t50 -162.5t44.5 -158t38 -143h-87zM249 547q-23 -63 -50 -146t-51 -171h200q-23 90 -49.5 173.5t-49.5 143.5zM220 830l114 -138l-42 -37l-125 122z" />
    <glyph glyph-name="Aacute" unicode="&#xc1;" 
d="M404 0l-37 162h-238l-36 -162h-84q17 66 38 143t45.5 158t51.5 162.5t57 155.5h102q29 -74 55.5 -155.5t50 -162.5t44.5 -158t38 -143h-87zM249 547q-23 -63 -50 -146t-51 -171h200q-23 90 -49.5 173.5t-49.5 143.5zM335 777l-126 -122l-42 37l114 138z" />
    <glyph glyph-name="Acircumflex" unicode="&#xc2;" 
d="M404 0l-37 162h-238l-36 -162h-84q17 66 38 143t45.5 158t51.5 162.5t57 155.5h102q29 -74 55.5 -155.5t50 -162.5t44.5 -158t38 -143h-87zM249 547q-23 -63 -50 -146t-51 -171h200q-23 90 -49.5 173.5t-49.5 143.5zM250 826l121 -128l-34 -39l-87 78l-87 -78l-34 39z
" />
    <glyph glyph-name="Atilde" unicode="&#xc3;" 
d="M404 0l-37 162h-238l-36 -162h-84q17 66 38 143t45.5 158t51.5 162.5t57 155.5h102q29 -74 55.5 -155.5t50 -162.5t44.5 -158t38 -143h-87zM249 547q-23 -63 -50 -146t-51 -171h200q-23 90 -49.5 173.5t-49.5 143.5zM388 774q-3 -11 -10.5 -25t-18.5 -26t-26 -20.5
t-34 -8.5q-13 0 -30.5 7t-28.5 12q-26 14 -42 14q-13 0 -25 -13t-18 -27l-43 23q3 11 10.5 25t18.5 26t26 20.5t33 8.5q13 0 30.5 -7.5t28.5 -12.5q26 -14 42 -14q13 0 25.5 13t18.5 27z" />
    <glyph glyph-name="Adieresis" unicode="&#xc4;" 
d="M404 0l-37 162h-238l-36 -162h-84q17 66 38 143t45.5 158t51.5 162.5t57 155.5h102q29 -74 55.5 -155.5t50 -162.5t44.5 -158t38 -143h-87zM249 547q-23 -63 -50 -146t-51 -171h200q-23 90 -49.5 173.5t-49.5 143.5zM165 689q-20 0 -36 15t-16 38t16 37.5t36 14.5
q21 0 36.5 -14.5t15.5 -37.5t-15.5 -38t-36.5 -15zM335 689q-21 0 -36.5 15t-15.5 38t15.5 37.5t36.5 14.5t36.5 -14.5t15.5 -37.5t-15.5 -38t-36.5 -15z" />
    <glyph glyph-name="Aring" unicode="&#xc5;" 
d="M404 0l-37 162h-238l-36 -162h-84q16 63 37.5 140.5t45.5 157t49.5 154.5t51.5 134q-14 12 -24 30.5t-10 41.5q0 42 27.5 66.5t64.5 24.5t64.5 -24.5t27.5 -66.5q0 -22 -9.5 -41t-23.5 -30q25 -59 50.5 -134.5t49 -155.5t44 -157.5t37.5 -139.5h-87zM249 547
q-23 -63 -50 -146t-51 -171h200q-23 90 -49.5 173.5t-49.5 143.5zM298 658q0 23 -13.5 36t-33.5 13t-33.5 -13t-13.5 -36t13.5 -36t33.5 -13t33.5 13t13.5 36z" />
    <glyph glyph-name="AE" unicode="&#xc6;" 
d="M263 0v162h-118l-37 -162h-81q45 174 91 326.5t101 292.5h250v-70h-128v-190h105v-70h-105v-219h141v-70h-219zM263 566q-28 -88 -53.5 -175t-46.5 -161h100v336z" />
    <glyph glyph-name="Ccedilla" unicode="&#xc7;" 
d="M317 -33q26 -12 37.5 -27t11.5 -44q0 -10 -4.5 -21.5t-15 -21t-28 -16t-43.5 -6.5q-23 0 -43 3.5t-31 8.5l10 51q11 -4 23 -6.5t27 -2.5q32 0 32 20t-37 31l-7 2q4 11 10 24.5t12 26.5q-49 5 -90.5 26.5t-71.5 61.5t-46.5 98t-16.5 135q0 79 20.5 139t55.5 101t82 62
t100 21q37 0 75.5 -10t75.5 -33l-24 -68q-66 38 -124 38q-41 0 -73.5 -17.5t-55.5 -50.5t-35.5 -79t-12.5 -103q0 -64 13.5 -111t37.5 -78t57.5 -46t72.5 -15q29 0 61 7.5t66 26.5l22 -68q-58 -33 -132 -38z" />
    <glyph glyph-name="Egrave" unicode="&#xc8;" 
d="M91 0v619h347v-70h-265v-190h232v-70h-232v-219h287v-70h-369zM230 830l114 -138l-42 -37l-125 122z" />
    <glyph glyph-name="Eacute" unicode="&#xc9;" 
d="M91 0v619h347v-70h-265v-190h232v-70h-232v-219h287v-70h-369zM364 777l-126 -122l-42 37l114 138z" />
    <glyph glyph-name="Ecircumflex" unicode="&#xca;" 
d="M91 0v619h347v-70h-265v-190h232v-70h-232v-219h287v-70h-369zM268 826l121 -128l-34 -39l-87 78l-87 -78l-34 39z" />
    <glyph glyph-name="Edieresis" unicode="&#xcb;" 
d="M91 0v619h347v-70h-265v-190h232v-70h-232v-219h287v-70h-369zM183 689q-20 0 -36 15t-16 38t16 37.5t36 14.5q21 0 36.5 -14.5t15.5 -37.5t-15.5 -38t-36.5 -15zM353 689q-21 0 -36.5 15t-15.5 38t15.5 37.5t36.5 14.5t36.5 -14.5t15.5 -37.5t-15.5 -38t-36.5 -15z" />
    <glyph glyph-name="Igrave" unicode="&#xcc;" 
d="M291 549v-479h120v-70h-322v70h120v479h-120v70h322v-70h-120zM221 830l114 -138l-42 -37l-125 122z" />
    <glyph glyph-name="Iacute" unicode="&#xcd;" 
d="M291 549v-479h120v-70h-322v70h120v479h-120v70h322v-70h-120zM348 777l-126 -122l-42 37l114 138z" />
    <glyph glyph-name="Icircumflex" unicode="&#xce;" 
d="M291 549v-479h120v-70h-322v70h120v479h-120v70h322v-70h-120zM250 826l121 -128l-34 -39l-87 78l-87 -78l-34 39z" />
    <glyph glyph-name="Idieresis" unicode="&#xcf;" 
d="M291 549v-479h120v-70h-322v70h120v479h-120v70h322v-70h-120zM165 689q-20 0 -36 15t-16 38t16 37.5t36 14.5q21 0 36.5 -14.5t15.5 -37.5t-15.5 -38t-36.5 -15zM335 689q-21 0 -36.5 15t-15.5 38t15.5 37.5t36.5 14.5t36.5 -14.5t15.5 -37.5t-15.5 -38t-36.5 -15z" />
    <glyph glyph-name="Eth" unicode="&#xd0;" 
d="M460 310q0 -86 -20.5 -146t-56 -97.5t-84.5 -54.5t-106 -17q-61 0 -122 15v281h-53v64h53v255q61 15 122 15q57 0 106 -17t84.5 -55t56 -98t20.5 -145zM154 69q11 -2 23 -2.5t23 -0.5q42 0 74.5 13.5t55 43t34.5 76t12 111.5q0 126 -45.5 185t-133.5 59q-25 0 -43 -3
v-196h98v-64h-98v-222z" />
    <glyph glyph-name="Ntilde" unicode="&#xd1;" 
d="M361 0q-34 83 -64 150.5t-57.5 126.5t-54.5 111.5t-55 105.5v-494h-75v619h84q41 -75 71.5 -131t56 -108.5t49.5 -108t54 -128.5v476h75v-619h-84zM388 774q-3 -11 -10.5 -25t-18.5 -26t-26 -20.5t-34 -8.5q-13 0 -30.5 7t-28.5 12q-26 14 -42 14q-13 0 -25 -13t-18 -27
l-43 23q3 11 10.5 25t18.5 26t26 20.5t33 8.5q13 0 30.5 -7.5t28.5 -12.5q26 -14 42 -14q13 0 25.5 13t18.5 27z" />
    <glyph glyph-name="Ograve" unicode="&#xd2;" 
d="M29 310q0 83 16 144t45 100.5t69.5 59t90.5 19.5q49 0 90 -19.5t70 -59t45.5 -100.5t16.5 -144t-16.5 -144t-45.5 -101t-70 -59t-90 -19q-50 0 -90.5 19t-69.5 59t-45 101t-16 144zM113 310q0 -122 33 -187t102 -65q70 0 105 65t35 187t-35 187t-105 65q-69 0 -102 -65
t-33 -187zM221 830l114 -138l-42 -37l-125 122z" />
    <glyph glyph-name="Oacute" unicode="&#xd3;" 
d="M29 310q0 83 16 144t45 100.5t69.5 59t90.5 19.5q49 0 90 -19.5t70 -59t45.5 -100.5t16.5 -144t-16.5 -144t-45.5 -101t-70 -59t-90 -19q-50 0 -90.5 19t-69.5 59t-45 101t-16 144zM113 310q0 -122 33 -187t102 -65q70 0 105 65t35 187t-35 187t-105 65q-69 0 -102 -65
t-33 -187zM347 777l-126 -122l-42 37l114 138z" />
    <glyph glyph-name="Ocircumflex" unicode="&#xd4;" 
d="M29 310q0 83 16 144t45 100.5t69.5 59t90.5 19.5q49 0 90 -19.5t70 -59t45.5 -100.5t16.5 -144t-16.5 -144t-45.5 -101t-70 -59t-90 -19q-50 0 -90.5 19t-69.5 59t-45 101t-16 144zM113 310q0 -122 33 -187t102 -65q70 0 105 65t35 187t-35 187t-105 65q-69 0 -102 -65
t-33 -187zM250 826l121 -128l-34 -39l-87 78l-87 -78l-34 39z" />
    <glyph glyph-name="Otilde" unicode="&#xd5;" 
d="M29 310q0 83 16 144t45 100.5t69.5 59t90.5 19.5q49 0 90 -19.5t70 -59t45.5 -100.5t16.5 -144t-16.5 -144t-45.5 -101t-70 -59t-90 -19q-50 0 -90.5 19t-69.5 59t-45 101t-16 144zM113 310q0 -122 33 -187t102 -65q70 0 105 65t35 187t-35 187t-105 65q-69 0 -102 -65
t-33 -187zM388 774q-3 -11 -10.5 -25t-18.5 -26t-26 -20.5t-34 -8.5q-13 0 -30.5 7t-28.5 12q-26 14 -42 14q-13 0 -25 -13t-18 -27l-43 23q3 11 10.5 25t18.5 26t26 20.5t33 8.5q13 0 30.5 -7.5t28.5 -12.5q26 -14 42 -14q13 0 25.5 13t18.5 27z" />
    <glyph glyph-name="Odieresis" unicode="&#xd6;" 
d="M29 310q0 83 16 144t45 100.5t69.5 59t90.5 19.5q49 0 90 -19.5t70 -59t45.5 -100.5t16.5 -144t-16.5 -144t-45.5 -101t-70 -59t-90 -19q-50 0 -90.5 19t-69.5 59t-45 101t-16 144zM113 310q0 -122 33 -187t102 -65q70 0 105 65t35 187t-35 187t-105 65q-69 0 -102 -65
t-33 -187zM165 689q-20 0 -36 15t-16 38t16 37.5t36 14.5q21 0 36.5 -14.5t15.5 -37.5t-15.5 -38t-36.5 -15zM335 689q-21 0 -36.5 15t-15.5 38t15.5 37.5t36.5 14.5t36.5 -14.5t15.5 -37.5t-15.5 -38t-36.5 -15z" />
    <glyph glyph-name="multiply" unicode="&#xd7;" 
d="M380 82l-130 131l-130 -131l-50 50l130 131l-130 130l50 50l130 -130l130 130l50 -50l-130 -130l130 -131z" />
    <glyph glyph-name="Oslash" unicode="&#xd8;" 
d="M29 310q0 83 16 144t45 100.5t69.5 59t90.5 19.5q56 0 103 -27l21 45l62 -31l-30 -61q31 -41 48.5 -102.5t17.5 -146.5q0 -83 -16.5 -144t-45.5 -101t-70 -59t-90 -19q-62 0 -108 28l-23 -48l-61 31l32 66q-30 40 -45.5 100.5t-15.5 145.5zM388 310q0 50 -5.5 92
t-17.5 73l-191 -394q15 -13 34.5 -18t39.5 -5q70 0 105 65t35 187zM113 310q0 -48 3 -89.5t14 -72.5l190 392q-15 12 -33 17t-39 5q-69 0 -102 -65t-33 -187z" />
    <glyph glyph-name="Ugrave" unicode="&#xd9;" 
d="M250 -13q-55 0 -93.5 16t-62.5 45t-35 71t-11 94v406h82v-397q0 -47 8.5 -78.5t24 -50.5t37.5 -27t50 -8t50 8t37.5 27t24 50.5t8.5 78.5v397h82v-406q0 -52 -11 -94t-35 -71t-62.5 -45t-93.5 -16zM216 830l114 -138l-42 -37l-125 122z" />
    <glyph glyph-name="Uacute" unicode="&#xda;" 
d="M250 -13q-55 0 -93.5 16t-62.5 45t-35 71t-11 94v406h82v-397q0 -47 8.5 -78.5t24 -50.5t37.5 -27t50 -8t50 8t37.5 27t24 50.5t8.5 78.5v397h82v-406q0 -52 -11 -94t-35 -71t-62.5 -45t-93.5 -16zM347 777l-126 -122l-42 37l114 138z" />
    <glyph glyph-name="Ucircumflex" unicode="&#xdb;" 
d="M250 -13q-55 0 -93.5 16t-62.5 45t-35 71t-11 94v406h82v-397q0 -47 8.5 -78.5t24 -50.5t37.5 -27t50 -8t50 8t37.5 27t24 50.5t8.5 78.5v397h82v-406q0 -52 -11 -94t-35 -71t-62.5 -45t-93.5 -16zM250 826l121 -128l-34 -39l-87 78l-87 -78l-34 39z" />
    <glyph glyph-name="Udieresis" unicode="&#xdc;" 
d="M250 -13q-55 0 -93.5 16t-62.5 45t-35 71t-11 94v406h82v-397q0 -47 8.5 -78.5t24 -50.5t37.5 -27t50 -8t50 8t37.5 27t24 50.5t8.5 78.5v397h82v-406q0 -52 -11 -94t-35 -71t-62.5 -45t-93.5 -16zM165 689q-20 0 -36 15t-16 38t16 37.5t36 14.5q21 0 36.5 -14.5
t15.5 -37.5t-15.5 -38t-36.5 -15zM335 689q-21 0 -36.5 15t-15.5 38t15.5 37.5t36.5 14.5t36.5 -14.5t15.5 -37.5t-15.5 -38t-36.5 -15z" />
    <glyph glyph-name="Yacute" unicode="&#xdd;" 
d="M210 0v230q-61 100 -110.5 195t-86.5 194h92q29 -84 66.5 -160.5t80.5 -157.5q46 85 81.5 161.5t64.5 156.5h90q-38 -98 -87 -191t-109 -196v-232h-82zM347 777l-126 -122l-42 37l114 138z" />
    <glyph glyph-name="Thorn" unicode="&#xde;" 
d="M73 619h82v-103q31 3 61 3q115 0 177 -45.5t62 -133.5q0 -59 -17.5 -99t-49.5 -65.5t-77.5 -36.5t-100.5 -11h-55v-128h-82v619zM229 447h-42.5t-31.5 -1v-249h58q35 0 64 6.5t50 22.5t32.5 42.5t11.5 67.5q0 33 -12.5 54.5t-32.5 34t-45.5 17.5t-51.5 5z" />
    <glyph glyph-name="germandbls" unicode="&#xdf;" 
d="M400 550q0 -24 -7.5 -44t-18.5 -36.5t-25 -30.5t-26 -27q-14 -16 -20.5 -26.5t-6.5 -25.5q0 -20 13.5 -33t33.5 -24.5t43 -23.5t43 -29.5t33.5 -43t13.5 -64.5q0 -76 -41 -114.5t-128 -38.5q-16 0 -32.5 3t-31 7t-25 8t-15.5 7l14 73q5 -3 15 -7.5t23 -9t28 -7.5t30 -3
q41 0 60 20t19 58q0 27 -13.5 44.5t-33.5 31t-44 25t-44 26t-33.5 34t-13.5 49.5q0 36 15 60t38 47q21 20 37.5 40t16.5 43q0 38 -18 60.5t-58 22.5q-42 0 -64.5 -34t-22.5 -94v-493h-83v495q0 44 11.5 80.5t32.5 62.5t51.5 40.5t68.5 14.5q46 0 78 -11.5t51 -31.5t27.5 -46
t8.5 -54z" />
    <glyph glyph-name="agrave" unicode="&#xe0;" 
d="M255 59q31 0 55.5 2t40.5 5v138q-16 5 -38.5 8t-47.5 3q-23 0 -45 -3.5t-39 -12.5t-28 -23.5t-11 -36.5q0 -45 30.5 -62.5t82.5 -17.5zM247 475q52 0 87.5 -13t57.5 -36t31 -56t9 -72v-290q-29 -5 -76.5 -12t-97.5 -7q-38 0 -74 6.5t-64 23t-45 45.5t-17 74
q0 40 17.5 67.5t45 44.5t63 24.5t71.5 7.5q49 0 96 -11v23q0 21 -4.5 40.5t-17 35.5t-34 25.5t-55.5 9.5q-43 0 -75 -6t-49 -12l-10 68q17 8 56.5 14t84.5 6zM216 693l114 -138l-42 -37l-125 122z" />
    <glyph glyph-name="aacute" unicode="&#xe1;" 
d="M255 59q31 0 55.5 2t40.5 5v138q-16 5 -38.5 8t-47.5 3q-23 0 -45 -3.5t-39 -12.5t-28 -23.5t-11 -36.5q0 -45 30.5 -62.5t82.5 -17.5zM247 475q52 0 87.5 -13t57.5 -36t31 -56t9 -72v-290q-29 -5 -76.5 -12t-97.5 -7q-38 0 -74 6.5t-64 23t-45 45.5t-17 74
q0 40 17.5 67.5t45 44.5t63 24.5t71.5 7.5q49 0 96 -11v23q0 21 -4.5 40.5t-17 35.5t-34 25.5t-55.5 9.5q-43 0 -75 -6t-49 -12l-10 68q17 8 56.5 14t84.5 6zM356 640l-126 -122l-42 37l114 138z" />
    <glyph glyph-name="acircumflex" unicode="&#xe2;" 
d="M255 59q31 0 55.5 2t40.5 5v138q-16 5 -38.5 8t-47.5 3q-23 0 -45 -3.5t-39 -12.5t-28 -23.5t-11 -36.5q0 -45 30.5 -62.5t82.5 -17.5zM247 475q52 0 87.5 -13t57.5 -36t31 -56t9 -72v-290q-29 -5 -76.5 -12t-97.5 -7q-38 0 -74 6.5t-64 23t-45 45.5t-17 74
q0 40 17.5 67.5t45 44.5t63 24.5t71.5 7.5q49 0 96 -11v23q0 21 -4.5 40.5t-17 35.5t-34 25.5t-55.5 9.5q-43 0 -75 -6t-49 -12l-10 68q17 8 56.5 14t84.5 6zM259 687l121 -128l-34 -39l-87 78l-87 -78l-34 39z" />
    <glyph glyph-name="atilde" unicode="&#xe3;" 
d="M255 59q31 0 55.5 2t40.5 5v138q-16 5 -38.5 8t-47.5 3q-23 0 -45 -3.5t-39 -12.5t-28 -23.5t-11 -36.5q0 -45 30.5 -62.5t82.5 -17.5zM247 475q52 0 87.5 -13t57.5 -36t31 -56t9 -72v-290q-29 -5 -76.5 -12t-97.5 -7q-38 0 -74 6.5t-64 23t-45 45.5t-17 74
q0 40 17.5 67.5t45 44.5t63 24.5t71.5 7.5q49 0 96 -11v23q0 21 -4.5 40.5t-17 35.5t-34 25.5t-55.5 9.5q-43 0 -75 -6t-49 -12l-10 68q17 8 56.5 14t84.5 6zM388 635q-3 -11 -10.5 -25t-18.5 -26t-26 -20.5t-34 -8.5q-13 0 -30.5 7t-28.5 12q-26 14 -42 14q-13 0 -25 -13
t-18 -27l-43 23q3 11 10.5 25t18.5 26t26 20.5t33 8.5q13 0 30.5 -7.5t28.5 -12.5q26 -14 42 -14q13 0 25.5 13t18.5 27z" />
    <glyph glyph-name="adieresis" unicode="&#xe4;" 
d="M255 59q31 0 55.5 2t40.5 5v138q-16 5 -38.5 8t-47.5 3q-23 0 -45 -3.5t-39 -12.5t-28 -23.5t-11 -36.5q0 -45 30.5 -62.5t82.5 -17.5zM247 475q52 0 87.5 -13t57.5 -36t31 -56t9 -72v-290q-29 -5 -76.5 -12t-97.5 -7q-38 0 -74 6.5t-64 23t-45 45.5t-17 74
q0 40 17.5 67.5t45 44.5t63 24.5t71.5 7.5q49 0 96 -11v23q0 21 -4.5 40.5t-17 35.5t-34 25.5t-55.5 9.5q-43 0 -75 -6t-49 -12l-10 68q17 8 56.5 14t84.5 6zM165 550q-20 0 -36 15t-16 38t16 37.5t36 14.5q21 0 36.5 -14.5t15.5 -37.5t-15.5 -38t-36.5 -15zM335 550
q-21 0 -36.5 15t-15.5 38t15.5 37.5t36.5 14.5t36.5 -14.5t15.5 -37.5t-15.5 -38t-36.5 -15z" />
    <glyph glyph-name="aring" unicode="&#xe5;" 
d="M255 59q31 0 55.5 2t40.5 5v138q-16 5 -38.5 8t-47.5 3q-23 0 -45 -3.5t-39 -12.5t-28 -23.5t-11 -36.5q0 -45 30.5 -62.5t82.5 -17.5zM247 475q52 0 87.5 -13t57.5 -36t31 -56t9 -72v-290q-29 -5 -76.5 -12t-97.5 -7q-38 0 -74 6.5t-64 23t-45 45.5t-17 74
q0 40 17.5 67.5t45 44.5t63 24.5t71.5 7.5q49 0 96 -11v23q0 21 -4.5 40.5t-17 35.5t-34 25.5t-55.5 9.5q-43 0 -75 -6t-49 -12l-10 68q17 8 56.5 14t84.5 6zM342 605q0 -43 -27.5 -67.5t-64.5 -24.5t-64.5 24.5t-27.5 67.5q0 42 27.5 66.5t64.5 24.5t64.5 -24.5t27.5 -66.5
zM297 605q0 23 -13.5 36t-33.5 13t-33.5 -13t-13.5 -36q0 -24 13.5 -37t33.5 -13t33.5 13t13.5 37z" />
    <glyph glyph-name="ae" unicode="&#xe6;" 
d="M150 475q44 0 72 -17t43 -47q16 30 37 47t47 17q129 0 129 -236v-13.5t-1 -15.5h-185q0 -72 26 -109.5t67 -37.5q32 0 69 22l11 -70q-4 -4 -13.5 -8.5t-21.5 -8.5t-26 -6.5t-27 -2.5q-33 0 -58.5 11.5t-44.5 31.5q-27 -23 -55 -33t-57 -10q-33 0 -57.5 12.5t-41 32.5
t-24.5 45.5t-8 52.5q0 31 8.5 58.5t25.5 48t41.5 32t57.5 11.5q12 0 26.5 -2.5t26.5 -8.5v23q0 47 -18 79t-56 32q-22 0 -43 -6t-29 -12l-9 68q9 8 35.5 14t52.5 6zM172 215q-33 0 -49.5 -21t-16.5 -57q0 -30 15.5 -54t47.5 -24q17 0 36.5 8t33.5 21q-11 25 -17 54.5
t-8 61.5q-20 11 -42 11zM403 277q0 37 -4.5 61.5t-12 39.5t-16.5 21t-17 6q-23 0 -41 -29t-18 -99h109z" />
    <glyph glyph-name="ccedilla" unicode="&#xe7;" 
d="M294 -33q26 -12 37.5 -27t11.5 -44q0 -10 -4.5 -21.5t-15 -21t-28 -16t-43.5 -6.5q-23 0 -43 3.5t-31 8.5l10 51q11 -4 23 -6.5t27 -2.5q32 0 32 20t-37 31l-7 2q4 11 10.5 26t13.5 29q-91 13 -146 72.5t-55 165.5q0 63 20 109t55 76t81.5 44.5t99.5 14.5q34 0 67.5 -4.5
t71.5 -16.5l-19 -71q-33 12 -60.5 15.5t-55.5 3.5q-36 0 -68 -9.5t-55.5 -30t-37.5 -53t-14 -78.5q0 -44 13 -75.5t36.5 -52t56.5 -30.5t73 -10q32 0 61.5 3.5t64.5 15.5l12 -69q-34 -12 -69 -17.5t-77 -6.5z" />
    <glyph glyph-name="egrave" unicode="&#xe8;" 
d="M259 475q94 0 145 -58.5t51 -177.5v-29h-332q5 -72 47.5 -109.5t119.5 -37.5q44 0 75 7t47 15l11 -70q-15 -8 -54 -17t-88 -9q-60 0 -105.5 18.5t-75.5 50.5t-45 76.5t-15 96.5q0 62 19 108t50 76t70 45t80 15zM371 277q0 59 -31 93.5t-82 34.5q-29 0 -52.5 -11
t-40.5 -29t-27 -41t-13 -47h246zM216 693l114 -138l-42 -37l-125 122z" />
    <glyph glyph-name="eacute" unicode="&#xe9;" 
d="M259 475q94 0 145 -58.5t51 -177.5v-29h-332q5 -72 47.5 -109.5t119.5 -37.5q44 0 75 7t47 15l11 -70q-15 -8 -54 -17t-88 -9q-60 0 -105.5 18.5t-75.5 50.5t-45 76.5t-15 96.5q0 62 19 108t50 76t70 45t80 15zM371 277q0 59 -31 93.5t-82 34.5q-29 0 -52.5 -11
t-40.5 -29t-27 -41t-13 -47h246zM356 640l-126 -122l-42 37l114 138z" />
    <glyph glyph-name="ecircumflex" unicode="&#xea;" 
d="M259 475q94 0 145 -58.5t51 -177.5v-29h-332q5 -72 47.5 -109.5t119.5 -37.5q44 0 75 7t47 15l11 -70q-15 -8 -54 -17t-88 -9q-60 0 -105.5 18.5t-75.5 50.5t-45 76.5t-15 96.5q0 62 19 108t50 76t70 45t80 15zM371 277q0 59 -31 93.5t-82 34.5q-29 0 -52.5 -11
t-40.5 -29t-27 -41t-13 -47h246zM263 687l121 -128l-34 -39l-87 78l-87 -78l-34 39z" />
    <glyph glyph-name="edieresis" unicode="&#xeb;" 
d="M259 475q94 0 145 -58.5t51 -177.5v-29h-332q5 -72 47.5 -109.5t119.5 -37.5q44 0 75 7t47 15l11 -70q-15 -8 -54 -17t-88 -9q-60 0 -105.5 18.5t-75.5 50.5t-45 76.5t-15 96.5q0 62 19 108t50 76t70 45t80 15zM371 277q0 59 -31 93.5t-82 34.5q-29 0 -52.5 -11
t-40.5 -29t-27 -41t-13 -47h246zM178 550q-20 0 -36 15t-16 38t16 37.5t36 14.5q21 0 36.5 -14.5t15.5 -37.5t-15.5 -38t-36.5 -15zM348 550q-21 0 -36.5 15t-15.5 38t15.5 37.5t36.5 14.5t36.5 -14.5t15.5 -37.5t-15.5 -38t-36.5 -15z" />
    <glyph glyph-name="igrave" unicode="&#xec;" 
d="M188 395h-134v69h216v-285q0 -69 19 -92.5t57 -23.5q29 0 53.5 7t38.5 15l12 -70q-6 -3 -17 -7.5t-25.5 -8.5t-32 -7t-36.5 -3q-44 0 -73 12t-46.5 36t-24.5 59.5t-7 82.5v216zM181 693l114 -138l-42 -37l-125 122z" />
    <glyph glyph-name="iacute" unicode="&#xed;" 
d="M188 395h-134v69h216v-285q0 -69 19 -92.5t57 -23.5q29 0 53.5 7t38.5 15l12 -70q-6 -3 -17 -7.5t-25.5 -8.5t-32 -7t-36.5 -3q-44 0 -73 12t-46.5 36t-24.5 59.5t-7 82.5v216zM312 640l-126 -122l-42 37l114 138z" />
    <glyph glyph-name="icircumflex" unicode="&#xee;" 
d="M188 395h-134v69h216v-285q0 -69 19 -92.5t57 -23.5q29 0 53.5 7t38.5 15l12 -70q-6 -3 -17 -7.5t-25.5 -8.5t-32 -7t-36.5 -3q-44 0 -73 12t-46.5 36t-24.5 59.5t-7 82.5v216zM215 687l121 -128l-34 -39l-87 78l-87 -78l-34 39z" />
    <glyph glyph-name="idieresis" unicode="&#xef;" 
d="M188 395h-134v69h216v-285q0 -69 19 -92.5t57 -23.5q29 0 53.5 7t38.5 15l12 -70q-6 -3 -17 -7.5t-25.5 -8.5t-32 -7t-36.5 -3q-44 0 -73 12t-46.5 36t-24.5 59.5t-7 82.5v216zM130 550q-20 0 -36 15t-16 38t16 37.5t36 14.5q21 0 36.5 -14.5t15.5 -37.5t-15.5 -38
t-36.5 -15zM300 550q-21 0 -36.5 15t-15.5 38t15.5 37.5t36.5 14.5t36.5 -14.5t15.5 -37.5t-15.5 -38t-36.5 -15z" />
    <glyph glyph-name="eth" unicode="&#xf0;" 
d="M460 587l-96 -33q29 -49 48.5 -119.5t19.5 -160.5q0 -49 -8.5 -99.5t-30.5 -92t-60 -67.5t-97 -26q-45 0 -79 19t-56.5 50t-34 69t-11.5 77q0 114 48 174t131 60q38 0 67 -14.5t43 -27.5q-5 36 -19 69t-34 64l-107 -37l-21 56l92 32q-15 17 -30.5 32.5t-38.5 32.5l46 48
q20 -13 45.5 -34.5t51.5 -53.5l110 38zM351 271q0 22 -0.5 31t-0.5 17q-25 27 -53.5 38t-51.5 11q-56 0 -82 -45t-26 -116q0 -29 6.5 -56t19 -47.5t31 -32.5t42.5 -12q34 0 56.5 18.5t35.5 48.5t18 68t5 77z" />
    <glyph glyph-name="ntilde" unicode="&#xf1;" 
d="M71 451q45 11 89.5 17t83.5 6q93 0 140.5 -48t47.5 -154v-272h-82v257q0 45 -8 73t-22.5 43.5t-35 21.5t-44.5 6q-20 0 -42.5 -2.5t-43.5 -6.5v-392h-83v451zM388 635q-3 -11 -10.5 -25t-18.5 -26t-26 -20.5t-34 -8.5q-13 0 -30.5 7t-28.5 12q-26 14 -42 14
q-13 0 -25 -13t-18 -27l-43 23q3 11 10.5 25t18.5 26t26 20.5t33 8.5q13 0 30.5 -7.5t28.5 -12.5q26 -14 42 -14q13 0 25.5 13t18.5 27z" />
    <glyph glyph-name="ograve" unicode="&#xf2;" 
d="M460 232q0 -55 -15.5 -99.5t-43.5 -76.5t-67 -49.5t-85 -17.5q-45 0 -83.5 17.5t-66.5 49.5t-43.5 76.5t-15.5 99.5t15.5 100t43.5 76.5t66.5 49t83.5 17.5q46 0 85 -17.5t67 -49t43.5 -76.5t15.5 -100zM375 232q0 79 -34 124.5t-92 45.5q-57 0 -90.5 -45.5t-33.5 -124.5
q0 -78 33.5 -123.5t90.5 -45.5q58 0 92 45.5t34 123.5zM225 693l114 -138l-42 -37l-125 122z" />
    <glyph glyph-name="oacute" unicode="&#xf3;" 
d="M460 232q0 -55 -15.5 -99.5t-43.5 -76.5t-67 -49.5t-85 -17.5q-45 0 -83.5 17.5t-66.5 49.5t-43.5 76.5t-15.5 99.5t15.5 100t43.5 76.5t66.5 49t83.5 17.5q46 0 85 -17.5t67 -49t43.5 -76.5t15.5 -100zM375 232q0 79 -34 124.5t-92 45.5q-57 0 -90.5 -45.5t-33.5 -124.5
q0 -78 33.5 -123.5t90.5 -45.5q58 0 92 45.5t34 123.5zM347 640l-126 -122l-42 37l114 138z" />
    <glyph glyph-name="ocircumflex" unicode="&#xf4;" 
d="M460 232q0 -55 -15.5 -99.5t-43.5 -76.5t-67 -49.5t-85 -17.5q-45 0 -83.5 17.5t-66.5 49.5t-43.5 76.5t-15.5 99.5t15.5 100t43.5 76.5t66.5 49t83.5 17.5q46 0 85 -17.5t67 -49t43.5 -76.5t15.5 -100zM375 232q0 79 -34 124.5t-92 45.5q-57 0 -90.5 -45.5t-33.5 -124.5
q0 -78 33.5 -123.5t90.5 -45.5q58 0 92 45.5t34 123.5zM250 687l121 -128l-34 -39l-87 78l-87 -78l-34 39z" />
    <glyph glyph-name="otilde" unicode="&#xf5;" 
d="M460 232q0 -55 -15.5 -99.5t-43.5 -76.5t-67 -49.5t-85 -17.5q-45 0 -83.5 17.5t-66.5 49.5t-43.5 76.5t-15.5 99.5t15.5 100t43.5 76.5t66.5 49t83.5 17.5q46 0 85 -17.5t67 -49t43.5 -76.5t15.5 -100zM375 232q0 79 -34 124.5t-92 45.5q-57 0 -90.5 -45.5t-33.5 -124.5
q0 -78 33.5 -123.5t90.5 -45.5q58 0 92 45.5t34 123.5zM388 635q-3 -11 -10.5 -25t-18.5 -26t-26 -20.5t-34 -8.5q-13 0 -30.5 7t-28.5 12q-26 14 -42 14q-13 0 -25 -13t-18 -27l-43 23q3 11 10.5 25t18.5 26t26 20.5t33 8.5q13 0 30.5 -7.5t28.5 -12.5q26 -14 42 -14
q13 0 25.5 13t18.5 27z" />
    <glyph glyph-name="odieresis" unicode="&#xf6;" 
d="M460 232q0 -55 -15.5 -99.5t-43.5 -76.5t-67 -49.5t-85 -17.5q-45 0 -83.5 17.5t-66.5 49.5t-43.5 76.5t-15.5 99.5t15.5 100t43.5 76.5t66.5 49t83.5 17.5q46 0 85 -17.5t67 -49t43.5 -76.5t15.5 -100zM375 232q0 79 -34 124.5t-92 45.5q-57 0 -90.5 -45.5t-33.5 -124.5
q0 -78 33.5 -123.5t90.5 -45.5q58 0 92 45.5t34 123.5zM165 550q-20 0 -36 15t-16 38t16 37.5t36 14.5q21 0 36.5 -14.5t15.5 -37.5t-15.5 -38t-36.5 -15zM335 550q-21 0 -36.5 15t-15.5 38t15.5 37.5t36.5 14.5t36.5 -14.5t15.5 -37.5t-15.5 -38t-36.5 -15z" />
    <glyph glyph-name="divide" unicode="&#xf7;" 
d="M46 298h409v-70h-409v70zM308 96q0 -24 -16 -42t-42 -18q-27 0 -43.5 18t-16.5 42q0 25 16.5 43.5t43.5 18.5q26 0 42 -18.5t16 -43.5zM308 428q0 -24 -16 -42.5t-42 -18.5q-27 0 -43.5 18.5t-16.5 42.5q0 25 16.5 43t43.5 18q26 0 42 -18t16 -43z" />
    <glyph glyph-name="oslash" unicode="&#xf8;" 
d="M45 4l45 62q-23 32 -36.5 73.5t-13.5 92.5q0 55 15.5 100t43.5 76.5t66.5 49t83.5 17.5q69 0 117 -36l42 57l47 -36l-46 -63q24 -31 37.5 -72.5t13.5 -92.5q0 -55 -15.5 -99.5t-43.5 -76.5t-67 -49.5t-85 -17.5q-33 0 -62 9.5t-54 26.5l-42 -57zM375 232q0 28 -3.5 53
t-12.5 45l-181 -245q14 -12 32 -17t39 -5q58 0 92 45.5t34 123.5zM125 232q0 -31 3.5 -54t12.5 -43l180 244q-14 12 -32.5 17.5t-39.5 5.5q-57 0 -90.5 -45.5t-33.5 -124.5z" />
    <glyph glyph-name="ugrave" unicode="&#xf9;" 
d="M429 13q-27 -7 -71.5 -15t-104.5 -8q-53 0 -88 15.5t-57 44t-31 67.5t-9 86v261h82v-243q0 -86 25.5 -122t85.5 -36q13 0 26.5 1t25.5 2.5t21 3t12 2.5v392h83v-451zM216 693l114 -138l-42 -37l-125 122z" />
    <glyph glyph-name="uacute" unicode="&#xfa;" 
d="M429 13q-27 -7 -71.5 -15t-104.5 -8q-53 0 -88 15.5t-57 44t-31 67.5t-9 86v261h82v-243q0 -86 25.5 -122t85.5 -36q13 0 26.5 1t25.5 2.5t21 3t12 2.5v392h83v-451zM347 640l-126 -122l-42 37l114 138z" />
    <glyph glyph-name="ucircumflex" unicode="&#xfb;" 
d="M429 13q-27 -7 -71.5 -15t-104.5 -8q-53 0 -88 15.5t-57 44t-31 67.5t-9 86v261h82v-243q0 -86 25.5 -122t85.5 -36q13 0 26.5 1t25.5 2.5t21 3t12 2.5v392h83v-451zM250 687l121 -128l-34 -39l-87 78l-87 -78l-34 39z" />
    <glyph glyph-name="udieresis" unicode="&#xfc;" 
d="M429 13q-27 -7 -71.5 -15t-104.5 -8q-53 0 -88 15.5t-57 44t-31 67.5t-9 86v261h82v-243q0 -86 25.5 -122t85.5 -36q13 0 26.5 1t25.5 2.5t21 3t12 2.5v392h83v-451zM165 550q-20 0 -36 15t-16 38t16 37.5t36 14.5q21 0 36.5 -14.5t15.5 -37.5t-15.5 -38t-36.5 -15z
M335 550q-21 0 -36.5 15t-15.5 38t15.5 37.5t36.5 14.5t36.5 -14.5t15.5 -37.5t-15.5 -38t-36.5 -15z" />
    <glyph glyph-name="yacute" unicode="&#xfd;" 
d="M51 -87q9 -5 25.5 -8t30.5 -3q49 0 76.5 21.5t50.5 70.5q-56 106 -105 227.5t-81 242.5h90q10 -40 23.5 -86.5t30.5 -95.5t36.5 -98.5t41.5 -94.5q16 46 30 91t26 90.5t24 93t25 100.5h86q-32 -130 -71.5 -252t-84.5 -226q-17 -40 -36.5 -69t-42.5 -48t-52 -28t-66 -9
q-19 0 -41.5 5t-30.5 9zM353 640l-126 -122l-42 37l114 138z" />
    <glyph glyph-name="thorn" unicode="&#xfe;" 
d="M460 231q0 -53 -13.5 -97.5t-39 -76.5t-62.5 -50t-84 -18q-37 0 -65 9t-42 20v-183h-83v844l83 14v-246q29 15 56 21.5t53 6.5q42 0 78 -16.5t62.5 -48t41.5 -76.5t15 -103zM375 231q0 43 -9 75.5t-25.5 53.5t-39 31.5t-48.5 10.5t-49.5 -9t-49.5 -26v-269q14 -13 41 -24
t56 -11q33 0 56.5 13t38.5 35.5t22 53t7 66.5z" />
    <glyph glyph-name="ydieresis" unicode="&#xff;" 
d="M51 -87q9 -5 25.5 -8t30.5 -3q49 0 76.5 21.5t50.5 70.5q-56 106 -105 227.5t-81 242.5h90q10 -40 23.5 -86.5t30.5 -95.5t36.5 -98.5t41.5 -94.5q16 46 30 91t26 90.5t24 93t25 100.5h86q-32 -130 -71.5 -252t-84.5 -226q-17 -40 -36.5 -69t-42.5 -48t-52 -28t-66 -9
q-19 0 -41.5 5t-30.5 9zM180 550q-20 0 -36 15t-16 38t16 37.5t36 14.5q21 0 36.5 -14.5t15.5 -37.5t-15.5 -38t-36.5 -15zM350 550q-21 0 -36.5 15t-15.5 38t15.5 37.5t36.5 14.5t36.5 -14.5t15.5 -37.5t-15.5 -38t-36.5 -15z" />
    <glyph glyph-name="Amacron" unicode="&#x100;" 
d="M404 0l-37 162h-238l-36 -162h-84q17 66 38 143t45.5 158t51.5 162.5t57 155.5h102q29 -74 55.5 -155.5t50 -162.5t44.5 -158t38 -143h-87zM249 547q-23 -63 -50 -146t-51 -171h200q-23 90 -49.5 173.5t-49.5 143.5zM123 774h254v-64h-254v64z" />
    <glyph glyph-name="amacron" unicode="&#x101;" 
d="M255 59q31 0 55.5 2t40.5 5v138q-16 5 -38.5 8t-47.5 3q-23 0 -45 -3.5t-39 -12.5t-28 -23.5t-11 -36.5q0 -45 30.5 -62.5t82.5 -17.5zM247 475q52 0 87.5 -13t57.5 -36t31 -56t9 -72v-290q-29 -5 -76.5 -12t-97.5 -7q-38 0 -74 6.5t-64 23t-45 45.5t-17 74
q0 40 17.5 67.5t45 44.5t63 24.5t71.5 7.5q49 0 96 -11v23q0 21 -4.5 40.5t-17 35.5t-34 25.5t-55.5 9.5q-43 0 -75 -6t-49 -12l-10 68q17 8 56.5 14t84.5 6zM132 635h254v-64h-254v64z" />
    <glyph glyph-name="Abreve" unicode="&#x102;" 
d="M404 0l-37 162h-238l-36 -162h-84q17 66 38 143t45.5 158t51.5 162.5t57 155.5h102q29 -74 55.5 -155.5t50 -162.5t44.5 -158t38 -143h-87zM249 547q-23 -63 -50 -146t-51 -171h200q-23 90 -49.5 173.5t-49.5 143.5zM250 684q-25 0 -47 8.5t-38.5 24t-25.5 38.5t-8 53h54
q1 -10 4 -21.5t10.5 -21t19.5 -15.5t31 -6t31.5 6t19.5 15.5t10 21t4 21.5h54q1 -30 -8 -53t-25.5 -38.5t-38.5 -24t-47 -8.5z" />
    <glyph glyph-name="abreve" unicode="&#x103;" 
d="M255 59q31 0 55.5 2t40.5 5v138q-16 5 -38.5 8t-47.5 3q-23 0 -45 -3.5t-39 -12.5t-28 -23.5t-11 -36.5q0 -45 30.5 -62.5t82.5 -17.5zM247 475q52 0 87.5 -13t57.5 -36t31 -56t9 -72v-290q-29 -5 -76.5 -12t-97.5 -7q-38 0 -74 6.5t-64 23t-45 45.5t-17 74
q0 40 17.5 67.5t45 44.5t63 24.5t71.5 7.5q49 0 96 -11v23q0 21 -4.5 40.5t-17 35.5t-34 25.5t-55.5 9.5q-43 0 -75 -6t-49 -12l-10 68q17 8 56.5 14t84.5 6zM250 545q-25 0 -47 8.5t-38.5 24t-25.5 38.5t-8 53h54q1 -10 4 -21.5t10.5 -21t19.5 -15.5t31 -6t31.5 6
t19.5 15.5t10 21t4 21.5h54q1 -30 -8 -53t-25.5 -38.5t-38.5 -24t-47 -8.5z" />
    <glyph glyph-name="Aogonek" unicode="&#x104;" 
d="M490 2q-14 -8 -24.5 -17t-21.5 -20q-13 -14 -20 -24.5t-7 -23.5q0 -26 36 -26q6 0 16 1.5t20 4.5l7 -54q-23 -10 -59 -10q-51 0 -73 17t-22 49q0 29 20 54t43 44l-38 165h-238l-36 -162h-84q17 66 38 143t45.5 158t51.5 162.5t57 155.5h102q29 -74 55.5 -155t50 -162
t44 -157.5t37.5 -142.5zM249 547q-23 -63 -50 -146t-51 -171h200q-23 90 -49.5 173.5t-49.5 143.5z" />
    <glyph glyph-name="aogonek" unicode="&#x105;" 
d="M247 475q52 0 87.5 -13t57.5 -36t31 -56t9 -72v-290q-9 -6 -22 -16.5t-25 -23t-21 -26t-9 -25.5q0 -26 35 -26q6 0 16 1.5t21 4.5l6 -54q-22 -10 -59 -10q-51 0 -74.5 18t-23.5 50q0 21 13.5 42t40.5 50q-17 -2 -35.5 -3t-36.5 -1q-38 0 -74 6.5t-64 23t-45 45.5t-17 74
q0 40 17.5 67.5t45 44.5t63 24.5t71.5 7.5q49 0 96 -11v23q0 21 -4.5 40.5t-17 35.5t-34 25.5t-55.5 9.5q-43 0 -75 -6t-49 -12l-10 68q17 8 56.5 14t84.5 6zM255 59q31 0 55.5 2t40.5 5v138q-16 5 -38.5 8t-47.5 3q-23 0 -45 -3.5t-39 -12.5t-28 -23.5t-11 -36.5
q0 -45 30.5 -62.5t82.5 -17.5z" />
    <glyph glyph-name="Cacute" unicode="&#x106;" 
d="M460 26q-35 -20 -74.5 -29.5t-84.5 -9.5q-55 0 -101.5 19.5t-80.5 59t-53.5 100.5t-19.5 144q0 79 20.5 139t55.5 101t82 62t100 21q37 0 75.5 -10t75.5 -33l-24 -68q-66 38 -124 38q-41 0 -73.5 -17.5t-55.5 -50.5t-35.5 -79t-12.5 -103q0 -64 13.5 -111t37.5 -78
t57.5 -46t72.5 -15q29 0 61 7.5t66 26.5zM392 777l-126 -122l-42 37l114 138z" />
    <glyph glyph-name="cacute" unicode="&#x107;" 
d="M49 231q0 63 20 109t55 76t81.5 44.5t99.5 14.5q34 0 67.5 -4.5t71.5 -16.5l-19 -71q-33 12 -60.5 15.5t-55.5 3.5q-36 0 -68 -9.5t-55.5 -30t-37.5 -53t-14 -78.5q0 -44 13 -75.5t36.5 -52t56.5 -30.5t73 -10q32 0 61.5 3.5t64.5 15.5l12 -69q-35 -13 -71 -18.5
t-78 -5.5q-56 0 -102.5 15.5t-80 45.5t-52 75.5t-18.5 105.5zM383 640l-126 -122l-42 37l114 138z" />
    <glyph glyph-name="Ccircumflex" unicode="&#x108;" 
d="M460 26q-35 -20 -74.5 -29.5t-84.5 -9.5q-55 0 -101.5 19.5t-80.5 59t-53.5 100.5t-19.5 144q0 79 20.5 139t55.5 101t82 62t100 21q37 0 75.5 -10t75.5 -33l-24 -68q-66 38 -124 38q-41 0 -73.5 -17.5t-55.5 -50.5t-35.5 -79t-12.5 -103q0 -64 13.5 -111t37.5 -78
t57.5 -46t72.5 -15q29 0 61 7.5t66 26.5zM304 826l121 -128l-34 -39l-87 78l-87 -78l-34 39z" />
    <glyph glyph-name="ccircumflex" unicode="&#x109;" 
d="M49 231q0 63 20 109t55 76t81.5 44.5t99.5 14.5q34 0 67.5 -4.5t71.5 -16.5l-19 -71q-33 12 -60.5 15.5t-55.5 3.5q-36 0 -68 -9.5t-55.5 -30t-37.5 -53t-14 -78.5q0 -44 13 -75.5t36.5 -52t56.5 -30.5t73 -10q32 0 61.5 3.5t64.5 15.5l12 -69q-35 -13 -71 -18.5
t-78 -5.5q-56 0 -102.5 15.5t-80 45.5t-52 75.5t-18.5 105.5zM300 687l121 -128l-34 -39l-87 78l-87 -78l-34 39z" />
    <glyph glyph-name="Cdotaccent" unicode="&#x10a;" 
d="M460 26q-35 -20 -74.5 -29.5t-84.5 -9.5q-55 0 -101.5 19.5t-80.5 59t-53.5 100.5t-19.5 144q0 79 20.5 139t55.5 101t82 62t100 21q37 0 75.5 -10t75.5 -33l-24 -68q-66 38 -124 38q-41 0 -73.5 -17.5t-55.5 -50.5t-35.5 -79t-12.5 -103q0 -64 13.5 -111t37.5 -78
t57.5 -46t72.5 -15q29 0 61 7.5t66 26.5zM304 681q-25 0 -42.5 16.5t-17.5 44.5q0 27 17.5 43.5t42.5 16.5t42.5 -16.5t17.5 -43.5q0 -28 -17.5 -44.5t-42.5 -16.5z" />
    <glyph glyph-name="cdotaccent" unicode="&#x10b;" 
d="M49 231q0 63 20 109t55 76t81.5 44.5t99.5 14.5q34 0 67.5 -4.5t71.5 -16.5l-19 -71q-33 12 -60.5 15.5t-55.5 3.5q-36 0 -68 -9.5t-55.5 -30t-37.5 -53t-14 -78.5q0 -44 13 -75.5t36.5 -52t56.5 -30.5t73 -10q32 0 61.5 3.5t64.5 15.5l12 -69q-35 -13 -71 -18.5
t-78 -5.5q-56 0 -102.5 15.5t-80 45.5t-52 75.5t-18.5 105.5zM304 542q-25 0 -42.5 16.5t-17.5 44.5q0 27 17.5 43.5t42.5 16.5t42.5 -16.5t17.5 -43.5q0 -28 -17.5 -44.5t-42.5 -16.5z" />
    <glyph glyph-name="Ccaron" unicode="&#x10c;" 
d="M460 26q-35 -20 -74.5 -29.5t-84.5 -9.5q-55 0 -101.5 19.5t-80.5 59t-53.5 100.5t-19.5 144q0 79 20.5 139t55.5 101t82 62t100 21q37 0 75.5 -10t75.5 -33l-24 -68q-66 38 -124 38q-41 0 -73.5 -17.5t-55.5 -50.5t-35.5 -79t-12.5 -103q0 -64 13.5 -111t37.5 -78
t57.5 -46t72.5 -15q29 0 61 7.5t66 26.5zM183 790l34 39l87 -78l87 78l34 -39l-121 -128z" />
    <glyph glyph-name="ccaron" unicode="&#x10d;" 
d="M49 231q0 63 20 109t55 76t81.5 44.5t99.5 14.5q34 0 67.5 -4.5t71.5 -16.5l-19 -71q-33 12 -60.5 15.5t-55.5 3.5q-36 0 -68 -9.5t-55.5 -30t-37.5 -53t-14 -78.5q0 -44 13 -75.5t36.5 -52t56.5 -30.5t73 -10q32 0 61.5 3.5t64.5 15.5l12 -69q-35 -13 -71 -18.5
t-78 -5.5q-56 0 -102.5 15.5t-80 45.5t-52 75.5t-18.5 105.5zM179 651l34 39l87 -78l87 78l34 -39l-121 -128z" />
    <glyph glyph-name="Dcaron" unicode="&#x10e;" 
d="M460 310q0 -86 -21.5 -146t-59 -97.5t-89 -54.5t-111.5 -17q-62 0 -125 15v600q63 15 125 15q60 0 111.5 -17t89 -55t59 -98t21.5 -145zM136 69q25 -3 51 -3q45 0 80 13.5t59 43t37 76t13 111.5q0 126 -48.5 185t-143.5 59q-13 0 -25.5 -0.5t-22.5 -2.5v-482zM94 790
l34 39l87 -78l87 78l34 -39l-121 -128z" />
    <glyph glyph-name="dcaron" unicode="&#x10f;" 
d="M281 366q-11 13 -33 24.5t-47 11.5q-26 0 -44 -13t-29.5 -35.5t-17 -54t-5.5 -67.5q0 -81 30 -125t78 -44q25 0 42.5 3t25.5 6v294zM281 679l82 14v-680q-24 -8 -61.5 -16t-88.5 -8q-44 0 -79.5 17t-60.5 48.5t-39 76.5t-14 101q0 54 11.5 98.5t33.5 76.5t54 50t72 18
q32 0 55 -9t35 -19v232zM500 693l-24 -199h-55v199h79z" />
    <glyph glyph-name="Dcroat" unicode="&#x110;" 
d="M460 310q0 -86 -20.5 -146t-56 -97.5t-84.5 -54.5t-106 -17q-61 0 -122 15v281h-53v64h53v255q61 15 122 15q57 0 106 -17t84.5 -55t56 -98t20.5 -145zM154 69q11 -2 23 -2.5t23 -0.5q42 0 74.5 13.5t55 43t34.5 76t12 111.5q0 126 -45.5 185t-133.5 59q-25 0 -43 -3
v-196h98v-64h-98v-222z" />
    <glyph glyph-name="dcroat" unicode="&#x111;" 
d="M332 548h-177v62h177v69l82 14v-83h66v-62h-66v-535q-26 -8 -66 -16t-94 -8q-48 0 -87.5 17t-67.5 48.5t-43.5 76.5t-15.5 101q0 54 13 98.5t38 76.5t60.5 50t79.5 18q35 0 61 -9t40 -19v101zM332 366q-14 13 -38.5 24.5t-52.5 11.5q-31 0 -53 -13t-36 -35.5t-20.5 -54
t-6.5 -67.5q0 -81 36 -125t93 -44q29 0 49 3t29 6v294z" />
    <glyph glyph-name="Emacron" unicode="&#x112;" 
d="M91 0v619h347v-70h-265v-190h232v-70h-232v-219h287v-70h-369zM141 774h254v-64h-254v64z" />
    <glyph glyph-name="emacron" unicode="&#x113;" 
d="M259 475q94 0 145 -58.5t51 -177.5v-29h-332q5 -72 47.5 -109.5t119.5 -37.5q44 0 75 7t47 15l11 -70q-15 -8 -54 -17t-88 -9q-60 0 -105.5 18.5t-75.5 50.5t-45 76.5t-15 96.5q0 62 19 108t50 76t70 45t80 15zM371 277q0 59 -31 93.5t-82 34.5q-29 0 -52.5 -11
t-40.5 -29t-27 -41t-13 -47h246zM132 635h254v-64h-254v64z" />
    <glyph glyph-name="Ebreve" unicode="&#x114;" 
d="M91 0v619h347v-70h-265v-190h232v-70h-232v-219h287v-70h-369zM268 684q-25 0 -47 8.5t-38.5 24t-25.5 38.5t-8 53h54q1 -10 4 -21.5t10.5 -21t19.5 -15.5t31 -6t31.5 6t19.5 15.5t10 21t4 21.5h54q1 -30 -8 -53t-25.5 -38.5t-38.5 -24t-47 -8.5z" />
    <glyph glyph-name="ebreve" unicode="&#x115;" 
d="M259 475q94 0 145 -58.5t51 -177.5v-29h-332q5 -72 47.5 -109.5t119.5 -37.5q44 0 75 7t47 15l11 -70q-15 -8 -54 -17t-88 -9q-60 0 -105.5 18.5t-75.5 50.5t-45 76.5t-15 96.5q0 62 19 108t50 76t70 45t80 15zM371 277q0 59 -31 93.5t-82 34.5q-29 0 -52.5 -11
t-40.5 -29t-27 -41t-13 -47h246zM259 545q-25 0 -47 8.5t-38.5 24t-25.5 38.5t-8 53h54q1 -10 4 -21.5t10.5 -21t19.5 -15.5t31 -6t31.5 6t19.5 15.5t10 21t4 21.5h54q1 -30 -8 -53t-25.5 -38.5t-38.5 -24t-47 -8.5z" />
    <glyph glyph-name="Edotaccent" unicode="&#x116;" 
d="M91 0v619h347v-70h-265v-190h232v-70h-232v-219h287v-70h-369zM272 681q-25 0 -42.5 16.5t-17.5 44.5q0 27 17.5 43.5t42.5 16.5t42.5 -16.5t17.5 -43.5q0 -28 -17.5 -44.5t-42.5 -16.5z" />
    <glyph glyph-name="edotaccent" unicode="&#x117;" 
d="M259 475q94 0 145 -58.5t51 -177.5v-29h-332q5 -72 47.5 -109.5t119.5 -37.5q44 0 75 7t47 15l11 -70q-15 -8 -54 -17t-88 -9q-60 0 -105.5 18.5t-75.5 50.5t-45 76.5t-15 96.5q0 62 19 108t50 76t70 45t80 15zM371 277q0 59 -31 93.5t-82 34.5q-29 0 -52.5 -11
t-40.5 -29t-27 -41t-13 -47h246zM259 542q-25 0 -42.5 16.5t-17.5 44.5q0 27 17.5 43.5t42.5 16.5t42.5 -16.5t17.5 -43.5q0 -28 -17.5 -44.5t-42.5 -16.5z" />
    <glyph glyph-name="Eogonek" unicode="&#x118;" 
d="M460 2q-25 -14 -48 -37q-13 -14 -20 -24.5t-7 -23.5q0 -26 36 -26q6 0 16 1.5t20 4.5l6 -54q-22 -10 -58 -10q-51 0 -73 17t-22 49q0 21 10.5 40t26.5 35l15 15t12 11h-283v619h347v-70h-265v-190h232v-70h-232v-219h287v-68z" />
    <glyph glyph-name="eogonek" unicode="&#x119;" 
d="M259 475q94 0 145 -58.5t51 -177.5v-29h-332q5 -72 47.5 -109.5t119.5 -37.5q44 0 75 7t47 15l11 -70q-10 -8 -27.5 -20.5t-32.5 -29.5q-13 -14 -20.5 -24.5t-7.5 -23.5q0 -26 36 -26q6 0 16 1.5t20 4.5l6 -54q-22 -10 -58 -10q-51 0 -75 18t-24 50q0 21 11.5 39t27.5 34
q9 10 18 17q-8 -1 -16 -1.5t-16 -0.5q-60 0 -105.5 18.5t-75.5 50.5t-45 76.5t-15 96.5q0 62 19 108t50 76t70 45t80 15zM371 277q1 57 -30.5 92.5t-82.5 35.5q-29 0 -52.5 -11t-40.5 -29t-27 -41t-13 -47h246z" />
    <glyph glyph-name="Ecaron" unicode="&#x11a;" 
d="M91 0v619h347v-70h-265v-190h232v-70h-232v-219h287v-70h-369zM156 790l34 39l87 -78l87 78l34 -39l-121 -128z" />
    <glyph glyph-name="ecaron" unicode="&#x11b;" 
d="M259 475q94 0 145 -58.5t51 -177.5v-29h-332q5 -72 47.5 -109.5t119.5 -37.5q44 0 75 7t47 15l11 -70q-15 -8 -54 -17t-88 -9q-60 0 -105.5 18.5t-75.5 50.5t-45 76.5t-15 96.5q0 62 19 108t50 76t70 45t80 15zM371 277q0 59 -31 93.5t-82 34.5q-29 0 -52.5 -11
t-40.5 -29t-27 -41t-13 -47h246zM138 651l34 39l87 -78l87 78l34 -39l-121 -128z" />
    <glyph glyph-name="Gcircumflex" unicode="&#x11c;" 
d="M373 305h82v-290q-19 -7 -61 -17.5t-99 -10.5q-56 0 -102 21.5t-78.5 62.5t-50.5 101.5t-18 137.5q0 78 20 138t54.5 101t80.5 62.5t99 21.5q34 0 60 -5t44.5 -12t30.5 -14.5t18 -11.5l-27 -69q-23 18 -54.5 29.5t-66.5 11.5q-38 0 -70.5 -18t-55.5 -51t-36 -79.5
t-13 -103.5q0 -56 11.5 -102t33.5 -79t54.5 -51.5t74.5 -18.5q29 0 45 4t24 8v234zM295 826l121 -128l-34 -39l-87 78l-87 -78l-34 39z" />
    <glyph glyph-name="gcircumflex" unicode="&#x11d;" 
d="M346 43q-14 -8 -43 -17t-67 -9q-41 0 -76.5 13.5t-62 41t-42 70t-15.5 100.5q0 51 14.5 93.5t42 73.5t67.5 48.5t91 17.5q60 0 102.5 -8.5t71.5 -16.5v-414q0 -108 -54.5 -156t-164.5 -48q-45 0 -81.5 7t-64.5 17l15 73q26 -11 59.5 -18t73.5 -7q72 0 103 29t31 94v16z
M346 391q-12 4 -33 7.5t-57 3.5q-64 0 -97.5 -44t-33.5 -117q0 -40 9.5 -68.5t26 -47t37.5 -27t45 -8.5q31 0 58.5 9t44.5 21v271zM250 687l121 -128l-34 -39l-87 78l-87 -78l-34 39z" />
    <glyph glyph-name="Gbreve" unicode="&#x11e;" 
d="M373 305h82v-290q-19 -7 -61 -17.5t-99 -10.5q-56 0 -102 21.5t-78.5 62.5t-50.5 101.5t-18 137.5q0 78 20 138t54.5 101t80.5 62.5t99 21.5q34 0 60 -5t44.5 -12t30.5 -14.5t18 -11.5l-27 -69q-23 18 -54.5 29.5t-66.5 11.5q-38 0 -70.5 -18t-55.5 -51t-36 -79.5
t-13 -103.5q0 -56 11.5 -102t33.5 -79t54.5 -51.5t74.5 -18.5q29 0 45 4t24 8v234zM304 684q-25 0 -47 8.5t-38.5 24t-25.5 38.5t-8 53h54q1 -10 4 -21.5t10.5 -21t19.5 -15.5t31 -6t31.5 6t19.5 15.5t10 21t4 21.5h54q1 -30 -8 -53t-25.5 -38.5t-38.5 -24t-47 -8.5z" />
    <glyph glyph-name="gbreve" unicode="&#x11f;" 
d="M346 43q-14 -8 -43 -17t-67 -9q-41 0 -76.5 13.5t-62 41t-42 70t-15.5 100.5q0 51 14.5 93.5t42 73.5t67.5 48.5t91 17.5q60 0 102.5 -8.5t71.5 -16.5v-414q0 -108 -54.5 -156t-164.5 -48q-45 0 -81.5 7t-64.5 17l15 73q26 -11 59.5 -18t73.5 -7q72 0 103 29t31 94v16z
M346 391q-12 4 -33 7.5t-57 3.5q-64 0 -97.5 -44t-33.5 -117q0 -40 9.5 -68.5t26 -47t37.5 -27t45 -8.5q31 0 58.5 9t44.5 21v271zM250 545q-25 0 -47 8.5t-38.5 24t-25.5 38.5t-8 53h54q1 -10 4 -21.5t10.5 -21t19.5 -15.5t31 -6t31.5 6t19.5 15.5t10 21t4 21.5h54
q1 -30 -8 -53t-25.5 -38.5t-38.5 -24t-47 -8.5z" />
    <glyph glyph-name="Gdotaccent" unicode="&#x120;" 
d="M373 305h82v-290q-19 -7 -61 -17.5t-99 -10.5q-56 0 -102 21.5t-78.5 62.5t-50.5 101.5t-18 137.5q0 78 20 138t54.5 101t80.5 62.5t99 21.5q34 0 60 -5t44.5 -12t30.5 -14.5t18 -11.5l-27 -69q-23 18 -54.5 29.5t-66.5 11.5q-38 0 -70.5 -18t-55.5 -51t-36 -79.5
t-13 -103.5q0 -56 11.5 -102t33.5 -79t54.5 -51.5t74.5 -18.5q29 0 45 4t24 8v234zM295 681q-25 0 -42.5 16.5t-17.5 44.5q0 27 17.5 43.5t42.5 16.5t42.5 -16.5t17.5 -43.5q0 -28 -17.5 -44.5t-42.5 -16.5z" />
    <glyph glyph-name="gdotaccent" unicode="&#x121;" 
d="M346 43q-14 -8 -43 -17t-67 -9q-41 0 -76.5 13.5t-62 41t-42 70t-15.5 100.5q0 51 14.5 93.5t42 73.5t67.5 48.5t91 17.5q60 0 102.5 -8.5t71.5 -16.5v-414q0 -108 -54.5 -156t-164.5 -48q-45 0 -81.5 7t-64.5 17l15 73q26 -11 59.5 -18t73.5 -7q72 0 103 29t31 94v16z
M346 391q-12 4 -33 7.5t-57 3.5q-64 0 -97.5 -44t-33.5 -117q0 -40 9.5 -68.5t26 -47t37.5 -27t45 -8.5q31 0 58.5 9t44.5 21v271zM250 542q-25 0 -42.5 16.5t-17.5 44.5q0 27 17.5 43.5t42.5 16.5t42.5 -16.5t17.5 -43.5q0 -28 -17.5 -44.5t-42.5 -16.5z" />
    <glyph glyph-name="Gcommaaccent" unicode="&#x122;" 
d="M373 305h82v-290q-19 -7 -61 -17.5t-99 -10.5q-56 0 -102 21.5t-78.5 62.5t-50.5 101.5t-18 137.5q0 78 20 138t54.5 101t80.5 62.5t99 21.5q34 0 60 -5t44.5 -12t30.5 -14.5t18 -11.5l-27 -69q-23 18 -54.5 29.5t-66.5 11.5q-38 0 -70.5 -18t-55.5 -51t-36 -79.5
t-13 -103.5q0 -56 11.5 -102t33.5 -79t54.5 -51.5t74.5 -18.5q29 0 45 4t24 8v234zM256 -45h80q1 -5 1.5 -10.5t0.5 -9.5q0 -57 -30.5 -81t-76.5 -24q-20 0 -42 6v48h15q33 0 42.5 14.5t9.5 43.5v13z" />
    <glyph glyph-name="gcommaaccent" unicode="&#x123;" 
d="M346 43q-14 -8 -43 -17t-67 -9q-41 0 -76.5 13.5t-62 41t-42 70t-15.5 100.5q0 51 14.5 93.5t42 73.5t67.5 48.5t91 17.5q60 0 102.5 -8.5t71.5 -16.5v-414q0 -108 -54.5 -156t-164.5 -48q-45 0 -81.5 7t-64.5 17l15 73q26 -11 59.5 -18t73.5 -7q72 0 103 29t31 94v16z
M346 391q-12 4 -33 7.5t-57 3.5q-64 0 -97.5 -44t-33.5 -117q0 -40 9.5 -68.5t26 -47t37.5 -27t45 -8.5q31 0 58.5 9t44.5 21v271zM287 544h-79q-1 5 -1 10.5v8.5q0 32 9 55.5t23.5 39.5t32.5 25.5t36 13.5l29 -40q-11 -8 -20 -16t-16 -19t-10.5 -27t-3.5 -40v-11z" />
    <glyph glyph-name="Hcircumflex" unicode="&#x124;" 
d="M373 619h82v-619h-82v288h-246v-288h-82v619h82v-261h246v261zM250 826l121 -128l-34 -39l-87 78l-87 -78l-34 39z" />
    <glyph glyph-name="hcircumflex" unicode="&#x125;" 
d="M71 0v669l83 14v-226q20 8 45 12.5t49 4.5q53 0 88.5 -15.5t56.5 -43.5t30 -67t9 -86v-262h-82v244q0 86 -24 121.5t-86 35.5q-26 0 -50.5 -5.5t-35.5 -10.5v-385h-83zM154 830l110 -85l-26 -40l-84 55l-84 -55l-26 40z" />
    <glyph glyph-name="Hbar" unicode="&#x126;" 
d="M429 468v-468h-83v288h-192v-288h-83v468h-53v61h53v90h83v-90h192v90h83v-90h53v-61h-53zM346 468h-192v-110h192v110z" />
    <glyph glyph-name="hbar" unicode="&#x127;" 
d="M20 610h66v69l82 14v-83h162v-62h-162v-91q19 8 43.5 12.5t46.5 4.5q49 0 82.5 -15.5t53.5 -43.5t29 -67t9 -86v-262h-82v244q0 86 -22.5 121.5t-77.5 35.5q-23 0 -47.5 -5.5t-34.5 -10.5v-385h-82v548h-66v62z" />
    <glyph glyph-name="Itilde" unicode="&#x128;" 
d="M291 549v-479h120v-70h-322v70h120v479h-120v70h322v-70h-120zM388 774q-3 -11 -10.5 -25t-18.5 -26t-26 -20.5t-34 -8.5q-13 0 -30.5 7t-28.5 12q-26 14 -42 14q-13 0 -25 -13t-18 -27l-43 23q3 11 10.5 25t18.5 26t26 20.5t33 8.5q13 0 30.5 -7.5t28.5 -12.5
q26 -14 42 -14q13 0 25.5 13t18.5 27z" />
    <glyph glyph-name="itilde" unicode="&#x129;" 
d="M188 395h-134v69h216v-285q0 -69 19 -92.5t57 -23.5q29 0 53.5 7t38.5 15l12 -70q-6 -3 -17 -7.5t-25.5 -8.5t-32 -7t-36.5 -3q-44 0 -73 12t-46.5 36t-24.5 59.5t-7 82.5v216zM353 635q-3 -11 -10.5 -25t-18.5 -26t-26 -20.5t-34 -8.5q-13 0 -30.5 7t-28.5 12
q-26 14 -42 14q-13 0 -25 -13t-18 -27l-43 23q3 11 10.5 25t18.5 26t26 20.5t33 8.5q13 0 30.5 -7.5t28.5 -12.5q26 -14 42 -14q13 0 25.5 13t18.5 27z" />
    <glyph glyph-name="Imacron" unicode="&#x12a;" 
d="M291 549v-479h120v-70h-322v70h120v479h-120v70h322v-70h-120zM123 774h254v-64h-254v64z" />
    <glyph glyph-name="imacron" unicode="&#x12b;" 
d="M188 395h-134v69h216v-285q0 -69 19 -92.5t57 -23.5q29 0 53.5 7t38.5 15l12 -70q-6 -3 -17 -7.5t-25.5 -8.5t-32 -7t-36.5 -3q-44 0 -73 12t-46.5 36t-24.5 59.5t-7 82.5v216zM88 635h254v-64h-254v64z" />
    <glyph glyph-name="Ibreve" unicode="&#x12c;" 
d="M291 549v-479h120v-70h-322v70h120v479h-120v70h322v-70h-120zM250 684q-25 0 -47 8.5t-38.5 24t-25.5 38.5t-8 53h54q1 -10 4 -21.5t10.5 -21t19.5 -15.5t31 -6t31.5 6t19.5 15.5t10 21t4 21.5h54q1 -30 -8 -53t-25.5 -38.5t-38.5 -24t-47 -8.5z" />
    <glyph glyph-name="ibreve" unicode="&#x12d;" 
d="M188 395h-134v69h216v-285q0 -69 19 -92.5t57 -23.5q29 0 53.5 7t38.5 15l12 -70q-6 -3 -17 -7.5t-25.5 -8.5t-32 -7t-36.5 -3q-44 0 -73 12t-46.5 36t-24.5 59.5t-7 82.5v216zM215 545q-25 0 -47 8.5t-38.5 24t-25.5 38.5t-8 53h54q1 -10 4 -21.5t10.5 -21t19.5 -15.5
t31 -6t31.5 6t19.5 15.5t10 21t4 21.5h54q1 -30 -8 -53t-25.5 -38.5t-38.5 -24t-47 -8.5z" />
    <glyph glyph-name="Iogonek" unicode="&#x12e;" 
d="M291 549v-479h120v-70h-119q-16 -12 -39 -35q-13 -14 -21 -24.5t-8 -23.5q0 -26 36 -26q6 0 16 1.5t20 4.5l7 -54q-23 -10 -59 -10q-51 0 -74.5 18t-23.5 50q0 21 11 39.5t27 35.5q13 16 24 24h-119v70h120v479h-120v70h322v-70h-120z" />
    <glyph glyph-name="iogonek" unicode="&#x12f;" 
d="M188 395h-134v69h216v-285q0 -69 19 -92.5t57 -23.5q29 0 53.5 7t38.5 15l12 -70q-30 -21 -41.5 -31.5t-18.5 -18.5q-13 -14 -20.5 -24.5t-7.5 -23.5q0 -26 35 -26q6 0 16.5 1.5t20.5 4.5l6 -54q-22 -10 -59 -10q-51 0 -74.5 18t-23.5 50q0 21 12 39.5t28 35.5q4 3 8 7
t8 6q-44 0 -73 12t-46.5 36t-24.5 59.5t-7 82.5v216zM209 536q-26 0 -45 18t-19 49t19 49t45 18q27 0 45.5 -18t18.5 -49t-18.5 -49t-45.5 -18z" />
    <glyph glyph-name="Idotaccent" unicode="&#x130;" 
d="M291 549v-479h120v-70h-322v70h120v479h-120v70h322v-70h-120zM250 681q-25 0 -42.5 16.5t-17.5 44.5q0 27 17.5 43.5t42.5 16.5t42.5 -16.5t17.5 -43.5q0 -28 -17.5 -44.5t-42.5 -16.5z" />
    <glyph glyph-name="dotlessi" unicode="&#x131;" 
d="M188 395h-134v69h216v-285q0 -69 19 -92.5t57 -23.5q29 0 53.5 7t38.5 15l12 -70q-6 -3 -17 -7.5t-25.5 -8.5t-32 -7t-36.5 -3q-44 0 -73 12t-46.5 36t-24.5 59.5t-7 82.5v216z" />
    <glyph glyph-name="IJ" unicode="&#x132;" 
d="M124 0h-82v619h82v-619zM471 619v-448q0 -98 -43.5 -141t-118.5 -43q-35 0 -70 12.5t-62 37.5l33 67q17 -19 40.5 -32.5t57.5 -13.5q39 0 59.5 25.5t20.5 88.5v447h83z" />
    <glyph glyph-name="ij" unicode="&#x133;" 
d="M108 0v464h82v-464h-82zM234 -167q-11 0 -28 2.5t-28 7.5l10 68q9 -3 20.5 -5t21.5 -2q44 0 62.5 26.5t18.5 77.5v456h82v-455q0 -90 -40.5 -133t-118.5 -43zM352 542q-25 0 -42.5 16.5t-17.5 44.5q0 27 17.5 43.5t42.5 16.5t42.5 -16.5t17.5 -43.5q0 -28 -17.5 -44.5
t-42.5 -16.5zM149 542q-25 0 -42.5 16.5t-17.5 44.5q0 27 17.5 43.5t42.5 16.5t42.5 -16.5t17.5 -43.5q0 -28 -17.5 -44.5t-42.5 -16.5z" />
    <glyph glyph-name="Jcircumflex" unicode="&#x134;" 
d="M127 549v70h293v-420q0 -44 -9.5 -83t-33 -67.5t-63 -45t-99.5 -16.5t-101 17t-60 33l33 67q19 -14 50.5 -30t73.5 -16q64 0 95.5 34t31.5 115v342h-211zM300 826l121 -128l-34 -39l-87 78l-87 -78l-34 39z" />
    <glyph glyph-name="jcircumflex" unicode="&#x135;" 
d="M114 395v69h270v-459q0 -48 -13.5 -81.5t-36 -54.5t-52 -30t-62.5 -9q-38 0 -76.5 8t-72.5 25l25 70q25 -12 55.5 -20.5t58.5 -8.5q40 0 66 20.5t26 79.5v391h-188zM270 687l121 -128l-34 -39l-87 78l-87 -78l-34 39z" />
    <glyph glyph-name="Kcommaaccent" unicode="&#x136;" 
d="M470 619q-49 -73 -107.5 -145t-126.5 -144q32 -27 68 -63t70.5 -78.5t65 -90.5t51.5 -98h-93q-25 46 -54 90t-61.5 82t-67 69.5t-69.5 54.5v-296h-82v619h82v-276q65 67 124.5 140t104.5 136h95zM221 -45h80q1 -5 1.5 -10.5t0.5 -9.5q0 -57 -30.5 -81t-76.5 -24
q-20 0 -42 6v48h15q33 0 42.5 14.5t9.5 43.5v13z" />
    <glyph glyph-name="kcommaaccent" unicode="&#x137;" 
d="M238 255q27 -20 61 -50.5t67.5 -65.5t63.5 -71.5t48 -67.5h-98q-19 31 -47 63.5t-59.5 62.5t-63 55t-56.5 42v-223h-83v679l83 14v-423q55 48 110 95.5t99 98.5h97q-43 -51 -103.5 -105t-118.5 -104zM221 -45h80q1 -5 1.5 -10.5t0.5 -9.5q0 -57 -30.5 -81t-76.5 -24
q-20 0 -42 6v48h15q33 0 42.5 14.5t9.5 43.5v13z" />
    <glyph glyph-name="kgreenlandic" unicode="&#x138;" 
d="M238 255q27 -20 61 -50.5t67.5 -65.5t63.5 -71.5t48 -67.5h-98q-19 31 -47 63.5t-59.5 62.5t-63 55t-56.5 42v-223h-83v464h83v-194q55 48 110 95.5t99 98.5h97q-43 -51 -103.5 -105t-118.5 -104z" />
    <glyph glyph-name="Lacute" unicode="&#x139;" 
d="M460 70v-70h-369v619h82v-549h287zM276 777l-126 -122l-42 37l114 138z" />
    <glyph glyph-name="lacute" unicode="&#x13a;" 
d="M338 -11q-44 0 -73 12t-46 36t-24 59.5t-7 82.5v429h-134v70h216v-499q0 -35 4.5 -57t14 -35.5t23.5 -18.5t33 -5q29 0 54 7t39 15l12 -70q-6 -3 -17 -7.5t-26 -8.5t-32.5 -7t-36.5 -3zM325 765l-150 -54l-19 49l144 70z" />
    <glyph glyph-name="Lcommaaccent" unicode="&#x13b;" 
d="M460 70v-70h-369v619h82v-549h287zM238 -45h80q1 -5 1.5 -10.5t0.5 -9.5q0 -57 -30.5 -81t-76.5 -24q-20 0 -42 6v48h15q33 0 42.5 14.5t9.5 43.5v13z" />
    <glyph glyph-name="lcommaaccent" unicode="&#x13c;" 
d="M338 -11q-44 0 -73 12t-46 36t-24 59.5t-7 82.5v439h-134v70h216v-509q0 -35 4.5 -57t14 -35.5t23.5 -18.5t33 -5q29 0 54 7t39 15l12 -70q-6 -3 -17 -7.5t-26 -8.5t-32.5 -7t-36.5 -3zM292 -45h80q1 -5 1.5 -10.5t0.5 -9.5q0 -57 -30.5 -81t-76.5 -24q-20 0 -42 6v48h15
q33 0 42.5 14.5t9.5 43.5v13z" />
    <glyph glyph-name="Lcaron" unicode="&#x13d;" 
d="M460 70v-70h-369v619h82v-549h287zM333 620l-24 -199h-55v199h79z" />
    <glyph glyph-name="lcaron" unicode="&#x13e;" 
d="M338 -11q-44 0 -73 12t-46 36t-24 59.5t-7 82.5v439h-134v70h216v-509q0 -35 4.5 -57t14 -35.5t23.5 -18.5t33 -5q29 0 54 7t39 15l12 -70q-6 -3 -17 -7.5t-26 -8.5t-32.5 -7t-36.5 -3zM420 693l-24 -199h-55v199h79z" />
    <glyph glyph-name="Ldot" unicode="&#x13f;" 
d="M460 70v-70h-369v619h82v-549h287zM363 264q-25 0 -42.5 16.5t-17.5 44.5q0 27 17.5 43.5t42.5 16.5t42.5 -16.5t17.5 -43.5q0 -28 -17.5 -44.5t-42.5 -16.5z" />
    <glyph glyph-name="ldot" unicode="&#x140;" 
d="M338 -11q-44 0 -73 12t-46 36t-24 59.5t-7 82.5v439h-134v70h216v-509q0 -35 4.5 -57t14 -35.5t23.5 -18.5t33 -5q29 0 54 7t39 15l12 -70q-6 -3 -17 -7.5t-26 -8.5t-32.5 -7t-36.5 -3zM479 264q-25 0 -42.5 16.5t-17.5 44.5q0 27 17.5 43.5t42.5 16.5t42.5 -16.5
t17.5 -43.5q0 -28 -17.5 -44.5t-42.5 -16.5z" />
    <glyph glyph-name="Lslash" unicode="&#x141;" 
d="M460 70v-70h-347v256l-66 -34l-29 59l95 49v289h83v-246l107 55l28 -59l-135 -70v-229h264z" />
    <glyph glyph-name="lslash" unicode="&#x142;" 
d="M338 -11q-44 0 -73 12t-46 36t-24 59.5t-7 82.5v126l-66 -34l-28 55l94 48v244h-134v70h216v-271l78 40l28 -55l-106 -55v-168q0 -35 4.5 -57t14 -35.5t23.5 -18.5t33 -5q29 0 54 7t39 15l12 -70q-6 -3 -17 -7.5t-26 -8.5t-32.5 -7t-36.5 -3z" />
    <glyph glyph-name="Nacute" unicode="&#x143;" 
d="M361 0q-34 83 -64 150.5t-57.5 126.5t-54.5 111.5t-55 105.5v-494h-75v619h84q41 -75 71.5 -131t56 -108.5t49.5 -108t54 -128.5v476h75v-619h-84zM347 777l-126 -122l-42 37l114 138z" />
    <glyph glyph-name="nacute" unicode="&#x144;" 
d="M71 451q45 11 89.5 17t83.5 6q93 0 140.5 -48t47.5 -154v-272h-82v257q0 45 -8 73t-22.5 43.5t-35 21.5t-44.5 6q-20 0 -42.5 -2.5t-43.5 -6.5v-392h-83v451zM347 640l-126 -122l-42 37l114 138z" />
    <glyph glyph-name="Ncommaaccent" unicode="&#x145;" 
d="M361 0q-34 83 -64 150.5t-57.5 126.5t-54.5 111.5t-55 105.5v-494h-75v619h84q41 -75 71.5 -131t56 -108.5t49.5 -108t54 -128.5v476h75v-619h-84zM230 -45h80q1 -5 1.5 -10.5t0.5 -9.5q0 -57 -30.5 -81t-76.5 -24q-20 0 -42 6v48h15q33 0 42.5 14.5t9.5 43.5v13z" />
    <glyph glyph-name="ncommaaccent" unicode="&#x146;" 
d="M71 451q45 11 89.5 17t83.5 6q93 0 140.5 -48t47.5 -154v-272h-82v257q0 45 -8 73t-22.5 43.5t-35 21.5t-44.5 6q-20 0 -42.5 -2.5t-43.5 -6.5v-392h-83v451zM221 -45h80q1 -5 1.5 -10.5t0.5 -9.5q0 -57 -30.5 -81t-76.5 -24q-20 0 -42 6v48h15q33 0 42.5 14.5t9.5 43.5
v13z" />
    <glyph glyph-name="Ncaron" unicode="&#x147;" 
d="M361 0q-34 83 -64 150.5t-57.5 126.5t-54.5 111.5t-55 105.5v-494h-75v619h84q41 -75 71.5 -131t56 -108.5t49.5 -108t54 -128.5v476h75v-619h-84zM129 790l34 39l87 -78l87 78l34 -39l-121 -128z" />
    <glyph glyph-name="ncaron" unicode="&#x148;" 
d="M71 451q45 11 89.5 17t83.5 6q93 0 140.5 -48t47.5 -154v-272h-82v257q0 45 -8 73t-22.5 43.5t-35 21.5t-44.5 6q-20 0 -42.5 -2.5t-43.5 -6.5v-392h-83v451zM129 651l34 39l87 -78l87 78l34 -39l-121 -128z" />
    <glyph glyph-name="napostrophe" unicode="&#x149;" 
d="M71 451q45 11 89.5 17t83.5 6q93 0 140.5 -48t47.5 -154v-272h-82v257q0 45 -8 73t-22.5 43.5t-35 21.5t-44.5 6q-20 0 -42.5 -2.5t-43.5 -6.5v-392h-83v451zM123 693v-17t-1 -15q-3 -46 -18.5 -83.5t-36.5 -72.5l-56 21q17 35 24.5 66.5t7.5 66.5q0 9 -0.5 19t-1.5 15
h82z" />
    <glyph glyph-name="Eng" unicode="&#x14a;" 
d="M370 21q-20 44 -47.5 101.5t-59.5 120.5t-66.5 127.5t-66.5 123.5v-494h-75v619h84q28 -49 60 -108t63.5 -119.5t59.5 -118t48 -104.5v450h75v-619q0 -37 -4 -68t-16.5 -53t-37 -34t-64.5 -12q-13 0 -29 2.5t-26 4.5l8 65q8 -2 19.5 -3t18.5 -1q33 0 44.5 21.5t11.5 62.5
v36z" />
    <glyph glyph-name="eng" unicode="&#x14b;" 
d="M71 451q45 11 89.5 17t83.5 6q93 0 140.5 -48t47.5 -154v-272q0 -41 -5.5 -72.5t-20.5 -52.5t-40.5 -31.5t-65.5 -10.5q-13 0 -29 2.5t-26 4.5l8 65q8 -2 19 -3t19 -1q33 0 46 21.5t13 62.5v272q0 45 -8 73t-22.5 43.5t-35 21.5t-44.5 6q-20 0 -42.5 -2.5t-43.5 -6.5
v-392h-83v451z" />
    <glyph glyph-name="Omacron" unicode="&#x14c;" 
d="M29 310q0 83 16 144t45 100.5t69.5 59t90.5 19.5q49 0 90 -19.5t70 -59t45.5 -100.5t16.5 -144t-16.5 -144t-45.5 -101t-70 -59t-90 -19q-50 0 -90.5 19t-69.5 59t-45 101t-16 144zM113 310q0 -122 33 -187t102 -65q70 0 105 65t35 187t-35 187t-105 65q-69 0 -102 -65
t-33 -187zM123 774h254v-64h-254v64z" />
    <glyph glyph-name="omacron" unicode="&#x14d;" 
d="M460 232q0 -55 -15.5 -99.5t-43.5 -76.5t-67 -49.5t-85 -17.5q-45 0 -83.5 17.5t-66.5 49.5t-43.5 76.5t-15.5 99.5t15.5 100t43.5 76.5t66.5 49t83.5 17.5q46 0 85 -17.5t67 -49t43.5 -76.5t15.5 -100zM375 232q0 79 -34 124.5t-92 45.5q-57 0 -90.5 -45.5t-33.5 -124.5
q0 -78 33.5 -123.5t90.5 -45.5q58 0 92 45.5t34 123.5zM123 635h254v-64h-254v64z" />
    <glyph glyph-name="Obreve" unicode="&#x14e;" 
d="M29 310q0 83 16 144t45 100.5t69.5 59t90.5 19.5q49 0 90 -19.5t70 -59t45.5 -100.5t16.5 -144t-16.5 -144t-45.5 -101t-70 -59t-90 -19q-50 0 -90.5 19t-69.5 59t-45 101t-16 144zM113 310q0 -122 33 -187t102 -65q70 0 105 65t35 187t-35 187t-105 65q-69 0 -102 -65
t-33 -187zM250 684q-25 0 -47 8.5t-38.5 24t-25.5 38.5t-8 53h54q1 -10 4 -21.5t10.5 -21t19.5 -15.5t31 -6t31.5 6t19.5 15.5t10 21t4 21.5h54q1 -30 -8 -53t-25.5 -38.5t-38.5 -24t-47 -8.5z" />
    <glyph glyph-name="obreve" unicode="&#x14f;" 
d="M460 232q0 -55 -15.5 -99.5t-43.5 -76.5t-67 -49.5t-85 -17.5q-45 0 -83.5 17.5t-66.5 49.5t-43.5 76.5t-15.5 99.5t15.5 100t43.5 76.5t66.5 49t83.5 17.5q46 0 85 -17.5t67 -49t43.5 -76.5t15.5 -100zM375 232q0 79 -34 124.5t-92 45.5q-57 0 -90.5 -45.5t-33.5 -124.5
q0 -78 33.5 -123.5t90.5 -45.5q58 0 92 45.5t34 123.5zM250 545q-25 0 -47 8.5t-38.5 24t-25.5 38.5t-8 53h54q1 -10 4 -21.5t10.5 -21t19.5 -15.5t31 -6t31.5 6t19.5 15.5t10 21t4 21.5h54q1 -30 -8 -53t-25.5 -38.5t-38.5 -24t-47 -8.5z" />
    <glyph glyph-name="Ohungarumlaut" unicode="&#x150;" 
d="M29 310q0 83 16 144t45 100.5t69.5 59t90.5 19.5q49 0 90 -19.5t70 -59t45.5 -100.5t16.5 -144t-16.5 -144t-45.5 -101t-70 -59t-90 -19q-50 0 -90.5 19t-69.5 59t-45 101t-16 144zM113 310q0 -122 33 -187t102 -65q70 0 105 65t35 187t-35 187t-105 65q-69 0 -102 -65
t-33 -187zM289 780l-110 -125l-43 32l103 143zM436 780l-110 -125l-43 32l103 143z" />
    <glyph glyph-name="ohungarumlaut" unicode="&#x151;" 
d="M460 232q0 -55 -15.5 -99.5t-43.5 -76.5t-67 -49.5t-85 -17.5q-45 0 -83.5 17.5t-66.5 49.5t-43.5 76.5t-15.5 99.5t15.5 100t43.5 76.5t66.5 49t83.5 17.5q46 0 85 -17.5t67 -49t43.5 -76.5t15.5 -100zM375 232q0 79 -34 124.5t-92 45.5q-57 0 -90.5 -45.5t-33.5 -124.5
q0 -78 33.5 -123.5t90.5 -45.5q58 0 92 45.5t34 123.5zM289 643l-110 -125l-43 32l103 143zM436 643l-110 -125l-43 32l103 143z" />
    <glyph glyph-name="OE" unicode="&#x152;" 
d="M220 554q-27 0 -48.5 -18t-35.5 -51t-21.5 -79.5t-7.5 -104.5q0 -116 28.5 -176t84.5 -60q20 0 30 3t13 4v475q-13 5 -23.5 6t-19.5 1zM220 -6q-89 0 -141 73.5t-52 233.5t52 242t142 82q11 0 26 -2t29 -4h193v-70h-128v-190h105v-70h-105v-219h141v-70h-206
q-29 -6 -56 -6z" />
    <glyph glyph-name="oe" unicode="&#x153;" 
d="M465 15q-20 -14 -43 -20t-45 -6q-35 0 -65 19.5t-50 70.5q-17 -46 -40 -68t-65 -22q-33 0 -56.5 21t-39 55.5t-23 78.5t-7.5 90q0 45 7.5 88.5t22.5 77.5t39 54.5t57 20.5q37 0 64 -21t41 -69q18 47 42 68.5t53 21.5q121 0 121 -236v-13t-1 -16h-176q0 -28 5.5 -54.5
t16 -47t27 -33t38.5 -12.5q13 0 28 4t38 18zM169 62q15 0 25 14t16.5 37.5t9 53.5t2.5 62t-3 63.5t-10 56t-18.5 40t-27.5 15.5q-15 0 -26 -14.5t-17.5 -37.5t-9.5 -53.5t-3 -61.5q0 -33 3.5 -64t11 -56t19 -40t28.5 -15zM403 277q0 59 -13 93.5t-33 34.5q-25 0 -39.5 -35.5
t-14.5 -92.5h100z" />
    <glyph glyph-name="Racute" unicode="&#x154;" 
d="M431 430q0 -57 -30 -100.5t-81 -67.5q15 -24 33.5 -54.5t37.5 -65t37.5 -71t34.5 -71.5h-88q-30 72 -65.5 138t-68.5 107q-6 -1 -17.5 -1h-15.5h-70v-244h-83v610q15 4 34.5 7t40 4.5t40.5 2.5t36 1q112 0 168.5 -49t56.5 -146zM213 554q-23 0 -44.5 -0.5t-30.5 -2.5
v-239h53q36 0 64.5 5t49 18.5t31.5 37t11 61.5q0 36 -11 59t-29 36.5t-42.5 19t-51.5 5.5zM338 777l-126 -122l-42 37l114 138z" />
    <glyph glyph-name="racute" unicode="&#x155;" 
d="M107 0v439q102 35 206 35q32 0 61 -2.5t64 -10.5l-15 -73q-32 9 -56.5 11.5t-53.5 2.5q-61 0 -124 -17v-385h-82zM383 640l-126 -122l-42 37l114 138z" />
    <glyph glyph-name="Rcommaaccent" unicode="&#x156;" 
d="M431 430q0 -57 -30 -100.5t-81 -67.5q15 -24 33.5 -54.5t37.5 -65t37.5 -71t34.5 -71.5h-88q-30 72 -65.5 138t-68.5 107q-6 -1 -17.5 -1h-15.5h-70v-244h-83v610q15 4 34.5 7t40 4.5t40.5 2.5t36 1q112 0 168.5 -49t56.5 -146zM213 554q-23 0 -44.5 -0.5t-30.5 -2.5
v-239h53q36 0 64.5 5t49 18.5t31.5 37t11 61.5q0 36 -11 59t-29 36.5t-42.5 19t-51.5 5.5zM203 -45h80q1 -5 1.5 -10.5t0.5 -9.5q0 -57 -30.5 -81t-76.5 -24q-20 0 -42 6v48h15q33 0 42.5 14.5t9.5 43.5v13z" />
    <glyph glyph-name="rcommaaccent" unicode="&#x157;" 
d="M107 0v439q102 35 206 35q32 0 61 -2.5t64 -10.5l-15 -73q-32 9 -56.5 11.5t-53.5 2.5q-61 0 -124 -17v-385h-82zM109 -45h80q1 -5 1.5 -10.5t0.5 -9.5q0 -57 -30.5 -81t-76.5 -24q-20 0 -42 6v48h15q33 0 42.5 14.5t9.5 43.5v13z" />
    <glyph glyph-name="Rcaron" unicode="&#x158;" 
d="M431 430q0 -57 -30 -100.5t-81 -67.5q15 -24 33.5 -54.5t37.5 -65t37.5 -71t34.5 -71.5h-88q-30 72 -65.5 138t-68.5 107q-6 -1 -17.5 -1h-15.5h-70v-244h-83v610q15 4 34.5 7t40 4.5t40.5 2.5t36 1q112 0 168.5 -49t56.5 -146zM213 554q-23 0 -44.5 -0.5t-30.5 -2.5
v-239h53q36 0 64.5 5t49 18.5t31.5 37t11 61.5q0 36 -11 59t-29 36.5t-42.5 19t-51.5 5.5zM103 790l34 39l87 -78l87 78l34 -39l-121 -128z" />
    <glyph glyph-name="rcaron" unicode="&#x159;" 
d="M107 0v439q102 35 206 35q32 0 61 -2.5t64 -10.5l-15 -73q-32 9 -56.5 11.5t-53.5 2.5q-61 0 -124 -17v-385h-82zM165 651l34 39l87 -78l87 78l34 -39l-121 -128z" />
    <glyph glyph-name="Sacute" unicode="&#x15a;" 
d="M234 58q63 0 96 24t33 72q0 29 -12 49.5t-32 36t-45 27t-51 21.5q-30 12 -57.5 27t-49 35t-34 47t-12.5 64q0 81 51 126.5t142 45.5q25 0 49.5 -3.5t45.5 -8.5t37.5 -12t26.5 -14l-26 -69q-20 12 -55 24t-78 12q-45 0 -78 -22.5t-33 -67.5q0 -26 9.5 -44t26 -31.5
t38.5 -24.5t48 -22q38 -16 69.5 -32t54 -38t35 -52t12.5 -73q0 -81 -54.5 -124.5t-156.5 -43.5q-33 0 -62 4.5t-51.5 11.5t-39.5 14t-26 13l25 68q20 -11 59 -25.5t95 -14.5zM356 777l-126 -122l-42 37l114 138z" />
    <glyph glyph-name="sacute" unicode="&#x15b;" 
d="M351 116q0 25 -20.5 41t-51 28t-66.5 23.5t-66.5 28.5t-51 42t-20.5 65q0 56 45.5 93.5t142.5 37.5q38 0 78.5 -5.5t69.5 -14.5l-15 -74q-8 4 -22 8.5t-32 8t-38.5 5.5t-39.5 2q-108 0 -108 -59q0 -21 20.5 -35.5t51.5 -26.5t67 -24.5t67 -30.5t51.5 -43.5t20.5 -64.5
q0 -63 -49 -97.5t-155 -34.5q-48 0 -88 8t-76 24l16 75q35 -16 73.5 -26.5t82.5 -10.5q113 0 113 57zM347 640l-126 -122l-42 37l114 138z" />
    <glyph glyph-name="Scircumflex" unicode="&#x15c;" 
d="M234 58q63 0 96 24t33 72q0 29 -12 49.5t-32 36t-45 27t-51 21.5q-30 12 -57.5 27t-49 35t-34 47t-12.5 64q0 81 51 126.5t142 45.5q25 0 49.5 -3.5t45.5 -8.5t37.5 -12t26.5 -14l-26 -69q-20 12 -55 24t-78 12q-45 0 -78 -22.5t-33 -67.5q0 -26 9.5 -44t26 -31.5
t38.5 -24.5t48 -22q38 -16 69.5 -32t54 -38t35 -52t12.5 -73q0 -81 -54.5 -124.5t-156.5 -43.5q-33 0 -62 4.5t-51.5 11.5t-39.5 14t-26 13l25 68q20 -11 59 -25.5t95 -14.5zM259 826l121 -128l-34 -39l-87 78l-87 -78l-34 39z" />
    <glyph glyph-name="scircumflex" unicode="&#x15d;" 
d="M351 116q0 25 -20.5 41t-51 28t-66.5 23.5t-66.5 28.5t-51 42t-20.5 65q0 56 45.5 93.5t142.5 37.5q38 0 78.5 -5.5t69.5 -14.5l-15 -74q-8 4 -22 8.5t-32 8t-38.5 5.5t-39.5 2q-108 0 -108 -59q0 -21 20.5 -35.5t51.5 -26.5t67 -24.5t67 -30.5t51.5 -43.5t20.5 -64.5
q0 -63 -49 -97.5t-155 -34.5q-48 0 -88 8t-76 24l16 75q35 -16 73.5 -26.5t82.5 -10.5q113 0 113 57zM259 687l121 -128l-34 -39l-87 78l-87 -78l-34 39z" />
    <glyph glyph-name="Scedilla" unicode="&#x15e;" 
d="M263 -33q26 -12 37.5 -27t11.5 -44q0 -10 -4.5 -21.5t-15 -21t-28 -16t-43.5 -6.5q-23 0 -43 3.5t-31 8.5l10 51q11 -4 23 -6.5t27 -2.5q32 0 32 20t-37 31l-7 2q4 10 9.5 23.5t11.5 25.5q-60 3 -102 17.5t-59 25.5l25 68q20 -11 59 -25.5t95 -14.5q63 0 96 24t33 72
q0 29 -12 49.5t-32 36t-45 27t-51 21.5q-30 12 -57.5 27t-49 35t-34 47t-12.5 64q0 81 51 126.5t142 45.5q25 0 49.5 -3.5t45.5 -8.5t37.5 -12t26.5 -14l-26 -69q-20 12 -55 24t-78 12q-45 0 -78 -22.5t-33 -67.5q0 -26 9.5 -44t26 -31.5t38.5 -24.5t48 -22q38 -16 69.5 -32
t54 -38t35 -52t12.5 -73q0 -72 -44 -115t-127 -51z" />
    <glyph glyph-name="scedilla" unicode="&#x15f;" 
d="M263 -33q26 -12 37.5 -27t11.5 -44q0 -10 -4.5 -21.5t-15 -21t-28 -16t-43.5 -6.5q-23 0 -43 3.5t-31 8.5l10 51q11 -4 23 -6.5t27 -2.5q32 0 32 20t-37 31l-7 2q4 11 10 24.5t12 26.5q-86 3 -151 32l16 75q35 -16 73.5 -26.5t82.5 -10.5q113 0 113 57q0 25 -20.5 41
t-51 28t-66.5 23.5t-66.5 28.5t-51 42t-20.5 65q0 56 45.5 93.5t142.5 37.5q38 0 78.5 -5.5t69.5 -14.5l-15 -74q-8 4 -22 8.5t-32 8t-38.5 5.5t-39.5 2q-108 0 -108 -59q0 -21 20.5 -35.5t51.5 -26.5t67 -24.5t67 -30.5t51.5 -43.5t20.5 -64.5q0 -57 -38.5 -90t-120.5 -40z
" />
    <glyph glyph-name="Scaron" unicode="&#x160;" 
d="M234 58q63 0 96 24t33 72q0 29 -12 49.5t-32 36t-45 27t-51 21.5q-30 12 -57.5 27t-49 35t-34 47t-12.5 64q0 81 51 126.5t142 45.5q25 0 49.5 -3.5t45.5 -8.5t37.5 -12t26.5 -14l-26 -69q-20 12 -55 24t-78 12q-45 0 -78 -22.5t-33 -67.5q0 -26 9.5 -44t26 -31.5
t38.5 -24.5t48 -22q38 -16 69.5 -32t54 -38t35 -52t12.5 -73q0 -81 -54.5 -124.5t-156.5 -43.5q-33 0 -62 4.5t-51.5 11.5t-39.5 14t-26 13l25 68q20 -11 59 -25.5t95 -14.5zM147 790l34 39l87 -78l87 78l34 -39l-121 -128z" />
    <glyph glyph-name="scaron" unicode="&#x161;" 
d="M351 116q0 25 -20.5 41t-51 28t-66.5 23.5t-66.5 28.5t-51 42t-20.5 65q0 56 45.5 93.5t142.5 37.5q38 0 78.5 -5.5t69.5 -14.5l-15 -74q-8 4 -22 8.5t-32 8t-38.5 5.5t-39.5 2q-108 0 -108 -59q0 -21 20.5 -35.5t51.5 -26.5t67 -24.5t67 -30.5t51.5 -43.5t20.5 -64.5
q0 -63 -49 -97.5t-155 -34.5q-48 0 -88 8t-76 24l16 75q35 -16 73.5 -26.5t82.5 -10.5q113 0 113 57zM139 651l34 39l87 -78l87 78l34 -39l-121 -128z" />
    <glyph glyph-name="uni0162" unicode="&#x162;" 
d="M263 -33q26 -12 37.5 -27t11.5 -44q0 -10 -4.5 -21.5t-15 -21t-28 -16t-43.5 -6.5q-23 0 -43 3.5t-31 8.5l10 51q11 -4 23 -6.5t27 -2.5q32 0 32 20t-37 31l-7 2q5 13 12.5 30.5t14.5 31.5h-13v549h-170v70h422v-70h-170v-549h-11z" />
    <glyph glyph-name="uni0163" unicode="&#x163;" 
d="M326 -33q26 -12 37.5 -27t11.5 -44q0 -10 -4.5 -21.5t-15 -21t-28 -16t-43.5 -6.5q-23 0 -43 3.5t-31 8.5l10 51q11 -4 23 -6.5t27 -2.5q32 0 32 20t-37 31l-7 2q4 11 10.5 26t13.5 28q-37 5 -60.5 19.5t-37 38t-18.5 56t-5 73.5v216h-98v69h98v130l82 14v-144h196v-69
h-196v-216q0 -35 5 -57t16.5 -35.5t29.5 -18.5t44 -5q36 0 58 6t42 16l12 -70q-13 -6 -42 -15t-71 -11z" />
    <glyph glyph-name="Tcaron" unicode="&#x164;" 
d="M461 619v-70h-170v-549h-82v549h-170v70h422zM129 790l34 39l87 -78l87 78l34 -39l-121 -128z" />
    <glyph glyph-name="tcaron" unicode="&#x165;" 
d="M243 464h196v-69h-196v-216q0 -35 5 -57t16.5 -35.5t29.5 -18.5t44 -5q36 0 58 6t42 16l12 -70q-14 -6 -44.5 -16t-75.5 -10q-52 0 -85 12t-51.5 36t-25.5 59.5t-7 82.5v216h-98v69h98v130l82 14v-144zM393 693l-24 -173h-55v173h79z" />
    <glyph glyph-name="Tbar" unicode="&#x166;" 
d="M461 619v-70h-170v-200h118v-64h-118v-285h-82v285h-119v64h119v200h-170v70h422z" />
    <glyph glyph-name="tbar" unicode="&#x167;" 
d="M243 464h196v-69h-196v-122h196v-62h-196v-32q0 -35 5 -57t16.5 -35.5t29.5 -18.5t44 -5q36 0 58 6t42 16l12 -70q-14 -6 -44.5 -16t-75.5 -10q-52 0 -85 12t-51.5 36t-25.5 59.5t-7 82.5v32h-98v62h98v122h-98v69h98v130l82 14v-144z" />
    <glyph glyph-name="Utilde" unicode="&#x168;" 
d="M250 -13q-55 0 -93.5 16t-62.5 45t-35 71t-11 94v406h82v-397q0 -47 8.5 -78.5t24 -50.5t37.5 -27t50 -8t50 8t37.5 27t24 50.5t8.5 78.5v397h82v-406q0 -52 -11 -94t-35 -71t-62.5 -45t-93.5 -16zM388 774q-3 -11 -10.5 -25t-18.5 -26t-26 -20.5t-34 -8.5q-13 0 -30.5 7
t-28.5 12q-26 14 -42 14q-13 0 -25 -13t-18 -27l-43 23q3 11 10.5 25t18.5 26t26 20.5t33 8.5q13 0 30.5 -7.5t28.5 -12.5q26 -14 42 -14q13 0 25.5 13t18.5 27z" />
    <glyph glyph-name="utilde" unicode="&#x169;" 
d="M429 13q-27 -7 -71.5 -15t-104.5 -8q-53 0 -88 15.5t-57 44t-31 67.5t-9 86v261h82v-243q0 -86 25.5 -122t85.5 -36q13 0 26.5 1t25.5 2.5t21 3t12 2.5v392h83v-451zM388 635q-3 -11 -10.5 -25t-18.5 -26t-26 -20.5t-34 -8.5q-13 0 -30.5 7t-28.5 12q-26 14 -42 14
q-13 0 -25 -13t-18 -27l-43 23q3 11 10.5 25t18.5 26t26 20.5t33 8.5q13 0 30.5 -7.5t28.5 -12.5q26 -14 42 -14q13 0 25.5 13t18.5 27z" />
    <glyph glyph-name="Umacron" unicode="&#x16a;" 
d="M250 -13q-55 0 -93.5 16t-62.5 45t-35 71t-11 94v406h82v-397q0 -47 8.5 -78.5t24 -50.5t37.5 -27t50 -8t50 8t37.5 27t24 50.5t8.5 78.5v397h82v-406q0 -52 -11 -94t-35 -71t-62.5 -45t-93.5 -16zM123 774h254v-64h-254v64z" />
    <glyph glyph-name="umacron" unicode="&#x16b;" 
d="M429 13q-27 -7 -71.5 -15t-104.5 -8q-53 0 -88 15.5t-57 44t-31 67.5t-9 86v261h82v-243q0 -86 25.5 -122t85.5 -36q13 0 26.5 1t25.5 2.5t21 3t12 2.5v392h83v-451zM123 635h254v-64h-254v64z" />
    <glyph glyph-name="Ubreve" unicode="&#x16c;" 
d="M250 -13q-55 0 -93.5 16t-62.5 45t-35 71t-11 94v406h82v-397q0 -47 8.5 -78.5t24 -50.5t37.5 -27t50 -8t50 8t37.5 27t24 50.5t8.5 78.5v397h82v-406q0 -52 -11 -94t-35 -71t-62.5 -45t-93.5 -16zM250 684q-25 0 -47 8.5t-38.5 24t-25.5 38.5t-8 53h54q1 -10 4 -21.5
t10.5 -21t19.5 -15.5t31 -6t31.5 6t19.5 15.5t10 21t4 21.5h54q1 -30 -8 -53t-25.5 -38.5t-38.5 -24t-47 -8.5z" />
    <glyph glyph-name="ubreve" unicode="&#x16d;" 
d="M429 13q-27 -7 -71.5 -15t-104.5 -8q-53 0 -88 15.5t-57 44t-31 67.5t-9 86v261h82v-243q0 -86 25.5 -122t85.5 -36q13 0 26.5 1t25.5 2.5t21 3t12 2.5v392h83v-451zM250 545q-25 0 -47 8.5t-38.5 24t-25.5 38.5t-8 53h54q1 -10 4 -21.5t10.5 -21t19.5 -15.5t31 -6
t31.5 6t19.5 15.5t10 21t4 21.5h54q1 -30 -8 -53t-25.5 -38.5t-38.5 -24t-47 -8.5z" />
    <glyph glyph-name="Uring" unicode="&#x16e;" 
d="M250 -13q-55 0 -93.5 16t-62.5 45t-35 71t-11 94v406h82v-397q0 -47 8.5 -78.5t24 -50.5t37.5 -27t50 -8t50 8t37.5 27t24 50.5t8.5 78.5v397h82v-406q0 -52 -11 -94t-35 -71t-62.5 -45t-93.5 -16zM342 739q0 -43 -27.5 -67.5t-64.5 -24.5t-64.5 24.5t-27.5 67.5
q0 42 27.5 66.5t64.5 24.5t64.5 -24.5t27.5 -66.5zM297 739q0 23 -13.5 36t-33.5 13t-33.5 -13t-13.5 -36q0 -24 13.5 -37t33.5 -13t33.5 13t13.5 37z" />
    <glyph glyph-name="uring" unicode="&#x16f;" 
d="M429 13q-27 -7 -71.5 -15t-104.5 -8q-53 0 -88 15.5t-57 44t-31 67.5t-9 86v261h82v-243q0 -86 25.5 -122t85.5 -36q13 0 26.5 1t25.5 2.5t21 3t12 2.5v392h83v-451zM342 605q0 -43 -27.5 -67.5t-64.5 -24.5t-64.5 24.5t-27.5 67.5q0 42 27.5 66.5t64.5 24.5t64.5 -24.5
t27.5 -66.5zM297 605q0 23 -13.5 36t-33.5 13t-33.5 -13t-13.5 -36q0 -24 13.5 -37t33.5 -13t33.5 13t13.5 37z" />
    <glyph glyph-name="Uhungarumlaut" unicode="&#x170;" 
d="M250 -13q-55 0 -93.5 16t-62.5 45t-35 71t-11 94v406h82v-397q0 -47 8.5 -78.5t24 -50.5t37.5 -27t50 -8t50 8t37.5 27t24 50.5t8.5 78.5v397h82v-406q0 -52 -11 -94t-35 -71t-62.5 -45t-93.5 -16zM280 780l-110 -125l-43 32l103 143zM427 780l-110 -125l-43 32l103 143z
" />
    <glyph glyph-name="uhungarumlaut" unicode="&#x171;" 
d="M429 13q-27 -7 -71.5 -15t-104.5 -8q-53 0 -88 15.5t-57 44t-31 67.5t-9 86v261h82v-243q0 -86 25.5 -122t85.5 -36q13 0 26.5 1t25.5 2.5t21 3t12 2.5v392h83v-451zM280 643l-110 -125l-43 32l103 143zM427 643l-110 -125l-43 32l103 143z" />
    <glyph glyph-name="Uogonek" unicode="&#x172;" 
d="M240 -24q-55 0 -91.5 17.5t-59 49t-32 75t-9.5 95.5v406h82v-397q0 -47 8.5 -78.5t24 -50.5t37.5 -27t50 -8t50 8t37.5 27t24 50.5t8.5 78.5v397h82v-406q0 -69 -18.5 -119t-61.5 -77q-11 -7 -30 -21t-33 -28t-21.5 -26t-7.5 -25q0 -26 36 -26q6 0 16 1.5t21 4.5l6 -54
q-22 -10 -59 -10q-51 0 -74.5 18t-23.5 50q0 21 7 36t31 39z" />
    <glyph glyph-name="uogonek" unicode="&#x173;" 
d="M429 13q-6 -6 -19 -17t-26.5 -24.5t-23.5 -28t-10 -26.5q0 -26 36 -26q6 0 16 1.5t20 4.5l7 -54q-23 -10 -59 -10q-51 0 -75 18t-24 50q0 21 12 39.5t28 34.5q12 13 24 21q-23 -2 -44.5 -4t-37.5 -2q-53 0 -88 15.5t-57 44t-31 67.5t-9 86v261h82v-243q0 -86 25.5 -122
t85.5 -36q13 0 26.5 1t25.5 2.5t21 3t12 2.5v392h83v-451z" />
    <glyph glyph-name="Wcircumflex" unicode="&#x174;" 
d="M153 0h-77q-9 61 -15.5 134.5t-12 153.5t-9.5 164t-7 167h80l11 -517l90 282h72l92 -282l11 517h80q-3 -84 -7.5 -168t-10.5 -163.5t-13 -152.5t-15 -135h-76l-97 308zM250 826l121 -128l-34 -39l-87 78l-87 -78l-34 39z" />
    <glyph glyph-name="wcircumflex" unicode="&#x175;" 
d="M343 0q-15 34 -26 62t-21.5 56t-21 58.5t-24.5 69.5q-14 -39 -25 -69.5t-21.5 -58.5t-22 -56t-26.5 -62h-62q-28 123 -46.5 243.5t-27.5 220.5h78q3 -39 6.5 -76.5t8.5 -78.5t11.5 -89t14.5 -108q16 40 27 70t20 57t17.5 55t18.5 63h62l18 -63t17 -55l19 -57t25 -69
q9 55 16 102t12 88.5t9 80.5t7 80h75q-5 -50 -12 -107t-17 -117t-22 -121.5t-25 -118.5h-62zM248 687l121 -128l-34 -39l-87 78l-87 -78l-34 39z" />
    <glyph glyph-name="Ycircumflex" unicode="&#x176;" 
d="M210 0v230q-61 100 -110.5 195t-86.5 194h92q29 -84 66.5 -160.5t80.5 -157.5q46 85 81.5 161.5t64.5 156.5h90q-38 -98 -87 -191t-109 -196v-232h-82zM250 826l121 -128l-34 -39l-87 78l-87 -78l-34 39z" />
    <glyph glyph-name="ycircumflex" unicode="&#x177;" 
d="M51 -87q9 -5 25.5 -8t30.5 -3q49 0 76.5 21.5t50.5 70.5q-56 106 -105 227.5t-81 242.5h90q10 -40 23.5 -86.5t30.5 -95.5t36.5 -98.5t41.5 -94.5q16 46 30 91t26 90.5t24 93t25 100.5h86q-32 -130 -71.5 -252t-84.5 -226q-17 -40 -36.5 -69t-42.5 -48t-52 -28t-66 -9
q-19 0 -41.5 5t-30.5 9zM250 687l121 -128l-34 -39l-87 78l-87 -78l-34 39z" />
    <glyph glyph-name="Ydieresis" unicode="&#x178;" 
d="M210 0v230q-61 100 -110.5 195t-86.5 194h92q29 -84 66.5 -160.5t80.5 -157.5q46 85 81.5 161.5t64.5 156.5h90q-38 -98 -87 -191t-109 -196v-232h-82zM167 689q-20 0 -36 15t-16 38t16 37.5t36 14.5q21 0 36.5 -14.5t15.5 -37.5t-15.5 -38t-36.5 -15zM337 689
q-21 0 -36.5 15t-15.5 38t15.5 37.5t36.5 14.5t36.5 -14.5t15.5 -37.5t-15.5 -38t-36.5 -15z" />
    <glyph glyph-name="Zacute" unicode="&#x179;" 
d="M447 555q-32 -44 -71.5 -104.5t-80.5 -126.5t-79.5 -132.5t-67.5 -121.5h307v-70h-401v54q31 63 68.5 129.5t76.5 130.5t78 124t75 111h-283v70h378v-64zM347 777l-126 -122l-42 37l114 138z" />
    <glyph glyph-name="zacute" unicode="&#x17a;" 
d="M420 402q-18 -21 -49 -58.5t-66.5 -83t-70.5 -95.5t-62 -95h255v-70h-354v55q21 40 52.5 87.5t65.5 94t66.5 88.5t56.5 70h-228v69h334v-62zM347 640l-126 -122l-42 37l114 138z" />
    <glyph glyph-name="Zdotaccent" unicode="&#x17b;" 
d="M447 555q-32 -44 -71.5 -104.5t-80.5 -126.5t-79.5 -132.5t-67.5 -121.5h307v-70h-401v54q31 63 68.5 129.5t76.5 130.5t78 124t75 111h-283v70h378v-64zM250 681q-25 0 -42.5 16.5t-17.5 44.5q0 27 17.5 43.5t42.5 16.5t42.5 -16.5t17.5 -43.5q0 -28 -17.5 -44.5
t-42.5 -16.5z" />
    <glyph glyph-name="zdotaccent" unicode="&#x17c;" 
d="M420 402q-18 -21 -49 -58.5t-66.5 -83t-70.5 -95.5t-62 -95h255v-70h-354v55q21 40 52.5 87.5t65.5 94t66.5 88.5t56.5 70h-228v69h334v-62zM250 542q-25 0 -42.5 16.5t-17.5 44.5q0 27 17.5 43.5t42.5 16.5t42.5 -16.5t17.5 -43.5q0 -28 -17.5 -44.5t-42.5 -16.5z" />
    <glyph glyph-name="Zcaron" unicode="&#x17d;" 
d="M447 555q-32 -44 -71.5 -104.5t-80.5 -126.5t-79.5 -132.5t-67.5 -121.5h307v-70h-401v54q31 63 68.5 129.5t76.5 130.5t78 124t75 111h-283v70h378v-64zM129 790l34 39l87 -78l87 78l34 -39l-121 -128z" />
    <glyph glyph-name="zcaron" unicode="&#x17e;" 
d="M420 402q-18 -21 -49 -58.5t-66.5 -83t-70.5 -95.5t-62 -95h255v-70h-354v55q21 40 52.5 87.5t65.5 94t66.5 88.5t56.5 70h-228v69h334v-62zM129 651l34 39l87 -78l87 78l34 -39l-121 -128z" />
    <glyph glyph-name="longs" unicode="&#x17f;" 
d="M161 0v506q0 54 15 89.5t39.5 57.5t57 31t68.5 9t72.5 -8t68.5 -19l-15 -71q-22 11 -55 19t-67 8q-21 0 -39.5 -5.5t-32.5 -19t-22 -36t-8 -56.5v-505h-82z" />
    <glyph glyph-name="uni0180" unicode="&#x180;" 
d="M168 610h162v-62h-162v-101q15 9 42 18.5t61 9.5q45 0 80 -18t59 -50t37 -76.5t13 -98.5q0 -56 -15 -101t-43 -76.5t-67 -48.5t-87 -17q-54 0 -95 8t-67 16v535h-66v62h66v69l82 14v-83zM168 72q18 -5 36 -7.5t34 -2.5q64 0 100.5 42.5t36.5 127.5q0 36 -6.5 67.5t-20 54
t-35.5 35.5t-52 13q-28 0 -53.5 -11.5t-39.5 -24.5v-294z" />
    <glyph glyph-name="uni0181" unicode="&#x181;" 
d="M287 -5q-14 0 -30.5 1t-34 2.5t-34 4.5t-29.5 7v536q-38 -5 -54.5 -21t-16.5 -45q0 -16 4 -33l-67 -8q-2 6 -4.5 18.5t-2.5 25.5q0 50 22 78.5t58 42.5t81 17.5t92 3.5h15q36 0 66.5 -8t53 -27t35.5 -50t13 -77q0 -44 -22.5 -81t-60.5 -51q51 -14 81 -52t30 -98
q0 -93 -45.5 -139.5t-149.5 -46.5zM241 289v-221q11 -2 23.5 -3t23.5 -1q22 0 42.5 5t36 18t24.5 35.5t9 57.5q0 32 -10.5 53t-28 33.5t-40 17.5t-46.5 5h-34zM241 357h24q18 0 37 4t34 15.5t25 30.5t10 49q0 54 -23 76.5t-67 22.5q-9 0 -19 -0.5t-21 -2.5v-195z" />
    <glyph glyph-name="uni0182" unicode="&#x182;" 
d="M136 549v-166h66q59 0 105.5 -10t78.5 -32.5t48.5 -59.5t16.5 -90q0 -99 -63.5 -147.5t-182.5 -48.5q-35 0 -76.5 3t-74.5 12v609h342v-70h-260zM209 64q34 0 63 6.5t50.5 21t34 38.5t12.5 60q0 37 -12 61.5t-34.5 38.5t-54 20t-70.5 6h-62v-248q26 -3 40.5 -3.5
t32.5 -0.5z" />
    <glyph glyph-name="uni0183" unicode="&#x183;" 
d="M154 619v-172q15 9 43.5 18.5t63.5 9.5q47 0 84 -18t62.5 -50t39 -76.5t13.5 -98.5q0 -56 -16 -101t-45 -76.5t-70 -48.5t-91 -17q-55 0 -98 8t-69 16v676h339v-70h-256zM154 72q19 -5 38 -7.5t36 -2.5q69 0 108 42.5t39 127.5q0 36 -7 67.5t-22 54t-38.5 35.5t-56.5 13
q-29 0 -56 -11.5t-41 -24.5v-294z" />
    <glyph glyph-name="uni0184" unicode="&#x184;" 
d="M11 632q32 19 69 35t76 26v-246q16 9 43 18.5t62 9.5q47 0 84 -18t62.5 -50t39 -76.5t13.5 -98.5q0 -56 -16 -101t-45 -76.5t-70 -48.5t-91 -17q-55 0 -96.5 8t-67.5 16v550zM156 72q37 -10 72 -10q69 0 108 42.5t39 127.5q0 36 -7 67.5t-22 54t-38.5 35.5t-56.5 13
q-29 0 -55 -11.5t-40 -24.5v-294z" />
    <glyph glyph-name="uni0185" unicode="&#x185;" 
d="M369 194q0 40 -12.5 66t-33.5 41.5t-49.5 22t-60.5 6.5h-29.5t-29.5 -2v-260q19 -3 38.5 -3.5t35.5 -0.5q26 0 51 6.5t45 21.5t32.5 40t12.5 62zM154 394q11 2 29 2h32q236 0 236 -202q0 -100 -60.5 -149.5t-169.5 -49.5q-34 0 -75.5 3t-74.5 12v486l-62 67
q32 19 67.5 35t77.5 27v-231z" />
    <glyph glyph-name="uni0186" unicode="&#x186;" 
d="M63 94q35 -19 66 -26.5t60 -7.5q83 0 132 61t49 189q0 120 -44.5 185t-132.5 65q-29 0 -61 -6.5t-67 -26.5l-21 65q15 10 35.5 18t42.5 13t44 7.5t40 2.5q53 0 98.5 -19t78.5 -58.5t52 -100.5t19 -145q0 -83 -20 -144t-54.5 -100.5t-81 -59t-99.5 -19.5q-45 0 -83.5 9.5
t-73.5 29.5z" />
    <glyph glyph-name="uni0187" unicode="&#x187;" 
d="M388 530q-28 16 -51.5 23t-46.5 7q-36 0 -65.5 -18.5t-50.5 -51.5t-32.5 -79t-11.5 -101q0 -64 12 -111t33 -78t50 -46t64 -15q26 0 55 7.5t59 26.5l21 -68q-32 -20 -67.5 -29.5t-76.5 -9.5q-50 0 -93 19.5t-74.5 59t-49 100.5t-17.5 144q0 76 19.5 136t52 101.5t75 63.5
t87.5 22q36 0 65 -11q13 49 36 64.5t65 15.5q10 0 23.5 -3t21.5 -8l-13 -61q-5 3 -14 5t-14 2q-15 0 -24.5 -9.5t-16.5 -25t-12 -34.5t-9 -38z" />
    <glyph glyph-name="uni0188" unicode="&#x188;" 
d="M386 384q-5 1 -16 4.5t-24.5 6.5t-29 5.5t-30.5 2.5q-73 0 -112.5 -43.5t-39.5 -128.5q0 -38 9 -69t28.5 -53t49.5 -34t73 -12q33 0 60.5 5.5t43.5 13.5l12 -69q-7 -5 -20.5 -9t-31 -7.5t-37.5 -5.5t-38 -2q-58 0 -101.5 18t-73 50t-44.5 76.5t-15 97.5t16 98t46 77.5
t72 51t95 18.5q14 0 28 -1.5t28 -3.5q10 52 35 71.5t70 19.5q11 0 24.5 -3t22.5 -8l-14 -60q-7 3 -15 4.5t-14 1.5q-18 0 -28 -10t-15.5 -25.5t-8 -36t-5.5 -41.5z" />
    <glyph glyph-name="uni0189" unicode="&#x189;" 
d="M460 310q0 -86 -20.5 -146t-56 -97.5t-84.5 -54.5t-106 -17q-61 0 -122 15v281h-53v64h53v255q61 15 122 15q57 0 106 -17t84.5 -55t56 -98t20.5 -145zM154 69q11 -2 23 -2.5t23 -0.5q42 0 74.5 13.5t55 43t34.5 76t12 111.5q0 126 -45.5 185t-133.5 59q-25 0 -43 -3
v-196h98v-64h-98v-222z" />
    <glyph glyph-name="uni018A" unicode="&#x18a;" 
d="M264 625q47 0 87 -17t69.5 -55t46.5 -98t17 -145q0 -86 -17 -146t-46.5 -97.5t-69.5 -54.5t-87 -17q-26 0 -54.5 4.5t-50.5 10.5v536q-38 -5 -54.5 -21t-16.5 -45q0 -16 4 -33l-67 -8q-2 6 -4.5 18.5t-2.5 25.5q0 53 25.5 81.5t63 42t80 16t77.5 2.5zM241 69
q8 -2 16 -2.5t14 -0.5q31 0 55 13.5t40.5 43t25 76t8.5 111.5q0 126 -33 185t-98 59q-8 0 -16 -1t-12 -2v-482z" />
    <glyph glyph-name="uni018B" unicode="&#x18b;" 
d="M104 549v70h343v-609q-34 -9 -75.5 -12t-76.5 -3q-119 0 -182.5 48.5t-63.5 147.5q0 53 16.5 90t48.5 59.5t78.5 32.5t105.5 10h66v166h-260zM291 64q18 0 32.5 1t40.5 3v248h-62q-39 0 -70.5 -6t-54 -20t-34.5 -38.5t-12 -61.5q0 -36 12.5 -60t34 -38.5t50.5 -21
t63 -6.5z" />
    <glyph glyph-name="uni018C" unicode="&#x18c;" 
d="M346 619h-254v70h337v-676q-27 -8 -69 -16t-98 -8q-50 0 -91 17t-70 48.5t-45 76.5t-16 101q0 54 13.5 98.5t39.5 76.5t62.5 50t83.5 18q37 0 65 -9t42 -19v172zM346 366q-14 13 -41 24.5t-56 11.5q-33 0 -56.5 -13t-38.5 -35.5t-22 -54t-7 -67.5q0 -81 38 -125t99 -44
q31 0 52.5 3t31.5 6v294z" />
    <glyph glyph-name="uni018D" unicode="&#x18d;" 
d="M460 263q0 -32 -8 -63.5t-25.5 -60t-45.5 -53t-68 -40.5q31 -19 51.5 -44t20.5 -63q0 -53 -45 -78.5t-123 -25.5q-44 0 -83.5 8t-56.5 14l15 68q9 -5 43 -14.5t78 -9.5q12 0 28 1t29.5 4.5t23 10t9.5 17.5q0 24 -22.5 43.5t-63.5 45.5q-35 23 -67 45.5t-57 50.5
t-39.5 64.5t-14.5 86.5q0 37 11.5 73.5t36.5 66t65 47.5t98 18q55 0 94.5 -17t65 -45.5t38 -67.5t12.5 -82zM125 265q0 -36 10 -63.5t26.5 -48.5t38 -37t44.5 -29q38 12 63 31t40 42t21 49t6 52q0 28 -6.5 53.5t-21 45t-38.5 31t-59 11.5q-32 0 -55.5 -10.5t-38.5 -29.5
t-22.5 -44t-7.5 -53z" />
    <glyph glyph-name="uni018E" unicode="&#x18e;" 
d="M40 0v70h287v219h-232v70h232v190h-264v70h346v-619h-369z" />
    <glyph glyph-name="uni018F" unicode="&#x18f;" 
d="M388 330q-12 233 -184 233q-19 0 -36.5 -4t-33 -10t-27.5 -12t-19 -10l-21 65q5 5 19 12t34 13.5t44 11t49 4.5q66 0 114.5 -24t81 -67t48 -101.5t15.5 -127.5q0 -82 -18 -143t-49.5 -101.5t-74 -61t-91.5 -20.5q-102 0 -158 77t-56 232q0 8 1 18.5t2 15.5h360zM108 261
q-1 -100 35.5 -152.5t97.5 -52.5q34 0 60.5 18.5t44.5 48t28 66t12 72.5h-278z" />
    <glyph glyph-name="uni0190" unicode="&#x190;" 
d="M364 292h-42q-41 0 -77.5 -5t-63.5 -18t-43 -36.5t-16 -59.5q0 -62 43.5 -88.5t114.5 -26.5q57 0 99 14.5t64 25.5l25 -66q-11 -5 -29 -12.5t-42 -14.5t-53.5 -12t-63.5 -5q-54 0 -98.5 10t-76 32t-48.5 56.5t-17 84.5q0 36 11 63t30 47t44 33t52 20q-54 17 -81.5 55
t-27.5 81q0 41 15 71.5t42 50t64.5 29t81.5 9.5q28 0 54.5 -3t49.5 -8t41 -12t30 -14l-27 -65q-20 11 -60 21.5t-88 10.5q-54 0 -87.5 -25.5t-33.5 -66.5q0 -32 17 -52.5t43.5 -32.5t58.5 -16.5t62 -4.5h33v-70z" />
    <glyph glyph-name="uni0191" unicode="&#x191;" 
d="M182 0q0 -39 -5.5 -70t-20 -52.5t-39 -33t-63.5 -11.5q-13 0 -27 1.5t-24 3.5l8 66q9 -2 17.5 -2.5t16.5 -0.5q32 0 43.5 21.5t11.5 62.5v634h351v-70h-269v-193h237v-69h-237v-287z" />
    <glyph glyph-name="florin" unicode="&#x192;" 
d="M63 395v69h98v42q0 54 15 89.5t39.5 57.5t57 31t68.5 9t72.5 -8t68.5 -19l-15 -71q-22 11 -55 19t-67 8q-21 0 -39.5 -5.5t-32.5 -19t-22 -36t-8 -56.5v-41h187v-69h-187v-392q0 -48 -13.5 -81t-36 -53.5t-52.5 -29.5t-62 -9q-28 0 -43 3t-29 6l18 71q21 -8 44 -8
q39 0 65.5 21.5t26.5 80.5v391h-98z" />
    <glyph glyph-name="uni0193" unicode="&#x193;" 
d="M388 530q-26 16 -50 23t-46 7q-41 0 -71 -20.5t-50.5 -55t-30.5 -80t-10 -94.5q0 -56 10 -102t31 -79t54 -51.5t79 -18.5q29 0 45 4t24 8v234h82v-290q-19 -7 -61 -17.5t-99 -10.5q-120 0 -184.5 84t-64.5 239q0 81 20.5 141.5t54 101t76.5 60.5t87 20q16 0 31.5 -2.5
t29.5 -8.5q13 49 36 64.5t65 15.5q10 0 23.5 -3t21.5 -8l-13 -61q-5 3 -14 5t-14 2q-15 0 -24.5 -9.5t-16.5 -25t-12 -34.5t-9 -38z" />
    <glyph glyph-name="uni0194" unicode="&#x194;" 
d="M488 619q-12 -31 -33 -83t-46.5 -115t-55 -132t-59.5 -135l55 -108q11 -22 19 -46t8 -41q0 -20 -6 -41.5t-20.5 -39.5t-38.5 -30t-61 -12t-61 12t-38.5 30t-20.5 39.5t-6 41.5q0 17 6.5 38t20.5 49l56 109q-55 114 -103.5 232.5t-90.5 231.5h86q16 -45 32 -87.5t34 -89
t39 -100t48 -119.5q21 54 44 114t44 114.5t37.5 99t25.5 68.5h85zM249 85l-34 -64q-8 -16 -13 -30t-5 -28q0 -24 13.5 -41.5t39.5 -17.5t39.5 17.5t13.5 41.5q0 14 -5 28.5t-13 29.5z" />
    <glyph glyph-name="uni0195" unicode="&#x195;" 
d="M283 187q0 -39 3.5 -63t10 -37t16 -17.5t21.5 -4.5t21 4t15.5 17t9.5 37t3 63v278h79v-290q0 -39 -5.5 -73t-20 -58.5t-39.5 -38.5t-65 -14t-65 14t-39 39t-19 59t-5 73v138q0 28 -4.5 45.5t-11 27t-15 12.5t-16.5 3q-11 0 -23 -5t-20 -10v-386h-78v679l78 14v-238
q11 9 27.5 14t31.5 5q20 0 39.5 -7t35.5 -24t25.5 -45.5t9.5 -71.5v-139z" />
    <glyph glyph-name="uni0196" unicode="&#x196;" 
d="M188 549h-120v70h339v-70h-137v-384q0 -61 21.5 -83t70.5 -22q26 0 46.5 7t31.5 13l16 -69q-12 -9 -43.5 -16.5t-63.5 -7.5q-46 0 -77 10.5t-49.5 32.5t-26.5 56.5t-8 82.5v380z" />
    <glyph glyph-name="uni0197" unicode="&#x197;" 
d="M291 549v-194h91v-65h-91v-220h120v-70h-322v70h120v220h-92v65h92v194h-120v70h322v-70h-120z" />
    <glyph glyph-name="uni0198" unicode="&#x198;" 
d="M304 557q53 74 111 74q23 0 47.5 -10.5t44.5 -32.5l-36 -57q-14 14 -27 20.5t-23 6.5q-19 0 -36.5 -21.5t-46.5 -61.5l-105 -142q32 -26 68.5 -62.5t71.5 -80t66 -92t52 -98.5h-93q-25 46 -54 90t-61.5 82t-67 69.5t-69.5 54.5v-296h-82v619h82v-276z" />
    <glyph glyph-name="uni0199" unicode="&#x199;" 
d="M238 255q27 -20 61 -50.5t67.5 -65.5t63.5 -71.5t48 -67.5h-98q-19 31 -47 63.5t-59.5 62.5t-63 55t-56.5 42v-223h-83v526q0 41 5.5 72.5t20.5 52.5t40.5 31.5t66.5 10.5q13 0 29 -2.5t26 -4.5l-8 -65q-8 2 -19.5 3t-18.5 1q-33 0 -46 -21.5t-13 -62.5v-271
q55 48 110 95.5t99 98.5h97q-43 -51 -103.5 -105t-118.5 -104z" />
    <glyph glyph-name="uni019A" unicode="&#x19a;" 
d="M338 -11q-44 0 -73 12t-46 36t-24 59.5t-7 82.5v149h-134v62h134v228h-134v70h216v-298h132v-62h-132v-149q0 -35 4.5 -57t14 -35.5t23.5 -18.5t33 -5q29 0 54 7t39 15l12 -70q-6 -3 -17 -7.5t-26 -8.5t-32.5 -7t-36.5 -3z" />
    <glyph glyph-name="uni019B" unicode="&#x19b;" 
d="M375 0q-22 91 -52 190t-65 190q-26 -47 -48.5 -98.5t-41.5 -102t-33.5 -97t-23.5 -82.5h-82q13 50 33.5 109t46 121t54 124t58.5 117l-19 46l-94 -32l-20 56l89 31q-14 26 -30.5 39.5t-41.5 13.5q-13 0 -21.5 -1.5t-13.5 -3.5l-12 66q5 2 21 4.5t38 2.5q52 0 83 -26
t52 -69l111 38l21 -56l-108 -37q31 -73 59 -146t52.5 -142.5t45 -134t35.5 -120.5h-93z" />
    <glyph glyph-name="uni019C" unicode="&#x19c;" 
d="M455 11q-54 -24 -99 -24q-25 0 -45.5 7t-37.5 19q-20 -14 -38.5 -20t-47.5 -6q-27 0 -53 8.5t-45.5 29.5t-31.5 57t-12 92v445h75v-439q0 -59 15 -91.5t51 -32.5q14 0 24 3.5t20 11.5q-17 43 -17 103v210h75v-204q0 -21 2 -43t8.5 -40t19 -29.5t33.5 -11.5q5 0 13.5 1
t15.5 3v559h75v-608z" />
    <glyph glyph-name="uni019D" unicode="&#x19d;" 
d="M55 619h84q31 -57 63.5 -115.5t62.5 -116t57 -113t48 -104.5v449h75v-619h-75q-15 46 -41.5 106t-59.5 125t-69 132.5t-70 130.5v-494q0 -39 -5.5 -70t-20 -52.5t-39 -33t-63.5 -11.5q-13 0 -27 1.5t-24 3.5l15 66q10 -2 18 -2.5t16 -0.5q33 0 44 21.5t11 62.5v634z" />
    <glyph glyph-name="uni019E" unicode="&#x19e;" 
d="M71 451q45 11 89.5 17t83.5 6q93 0 140.5 -48t47.5 -154v-437h-82v426q0 45 -8 73t-22.5 43.5t-35 21.5t-44.5 6q-20 0 -42.5 -2.5t-43.5 -6.5v-396h-83v451z" />
    <glyph glyph-name="uni019F" unicode="&#x19f;" 
d="M29 310q0 83 16 144t45 100.5t69.5 59t90.5 19.5q49 0 90 -19.5t70 -59t45.5 -100.5t16.5 -144t-16.5 -144t-45.5 -101t-70 -59t-90 -19q-50 0 -90.5 19t-69.5 59t-45 101t-16 144zM248 58q66 0 100 57t39 165h-274q5 -108 37.5 -165t97.5 -57zM248 562q-64 0 -97 -56
t-38 -162h274q-5 106 -39.5 162t-99.5 56z" />
    <glyph glyph-name="Ohorn" unicode="&#x1a0;" 
d="M29 310q0 83 16 144t45 100.5t69.5 59t90.5 19.5q80 0 133 -49q20 23 25 45.5t5 51.5q0 9 -0.5 19t-1.5 15h82q1 -10 1 -18.5v-13.5q0 -43 -18 -81t-52 -70q23 -39 35.5 -94.5t12.5 -127.5q0 -83 -16.5 -144t-45.5 -101t-70 -59t-90 -19q-50 0 -90.5 19t-69.5 59t-45 101
t-16 144zM113 310q0 -122 33 -187t102 -65q70 0 105 65t35 187t-35 187t-105 65q-69 0 -102 -65t-33 -187z" />
    <glyph glyph-name="ohorn" unicode="&#x1a1;" 
d="M460 232q0 -55 -15.5 -99.5t-43.5 -76.5t-67 -49.5t-85 -17.5q-45 0 -83.5 17.5t-66.5 49.5t-43.5 76.5t-15.5 99.5t15.5 100t43.5 76.5t66.5 49t83.5 17.5q72 0 126 -42q16 22 19.5 43.5t3.5 50.5q0 8 -0.5 18.5t-1.5 15.5h79q1 -11 1 -19v-13q0 -42 -14 -77t-44 -66
q42 -62 42 -154zM375 232q0 79 -34 124.5t-92 45.5q-57 0 -90.5 -45.5t-33.5 -124.5q0 -78 33.5 -123.5t90.5 -45.5q58 0 92 45.5t34 123.5z" />
    <glyph glyph-name="uni01A2" unicode="&#x1a2;" 
d="M45 310q0 86 9.5 147.5t28 100.5t45 57t60.5 18q48 0 81 -34q38 33 86 33q55 0 86 -41t31 -136v-455h-78v439q0 56 -10 90t-41 34q-20 0 -39 -22q15 -39 23 -96t8 -135q0 -87 -10 -148t-29 -100t-46.5 -57t-61.5 -18q-35 0 -61.5 18t-44.5 57t-27.5 100t-9.5 148z
M123 310q0 -55 4 -101.5t12 -80.5t20.5 -53t29.5 -19t29.5 19t21 53t12.5 80.5t4 101.5q0 57 -4 104t-12.5 80t-21 51t-29.5 18t-29.5 -18t-20.5 -51t-12 -80t-4 -104z" />
    <glyph glyph-name="uni01A3" unicode="&#x1a3;" 
d="M27 232q0 71 12 118t31 74.5t43.5 39t50.5 11.5q21 0 42 -7.5t38 -24.5q14 11 36 21t48 10q39 0 62.5 -13.5t36 -39.5t16.5 -63t4 -84v-439h-79v421q0 41 -2 68.5t-7 44.5t-15 24.5t-25 7.5q-20 0 -37 -20q11 -27 16.5 -64t5.5 -85q0 -71 -12 -118t-31.5 -74.5t-44 -39
t-50.5 -11.5t-51 11.5t-44.5 39.5t-31.5 74.5t-12 117.5zM105 232q0 -84 13.5 -128.5t46.5 -44.5q34 0 47 44.5t13 128.5q0 85 -13 129t-47 44q-33 0 -46.5 -44t-13.5 -129z" />
    <glyph glyph-name="uni01A4" unicode="&#x1a4;" 
d="M286 625q48 0 82.5 -14t57 -39.5t33 -60.5t10.5 -78q0 -97 -45.5 -149.5t-136.5 -52.5h-46v-231h-82v546q-38 -5 -54.5 -21t-16.5 -45q0 -16 4 -33l-67 -8q-2 6 -4.5 18.5t-2.5 25.5q0 52 24 81t62 42.5t86 16t96 2.5zM301 554q-18 0 -35 -0.5t-25 -2.5v-250h42
q52 0 77 30t25 99q0 124 -84 124z" />
    <glyph glyph-name="uni01A5" unicode="&#x1a5;" 
d="M460 231q0 -53 -13.5 -97.5t-39 -76.5t-62.5 -50t-84 -18q-37 0 -65 9t-42 20v-183h-83v691q0 41 5.5 72.5t20.5 52.5t40.5 31.5t66.5 10.5q13 0 29 -2.5t26 -4.5l-8 -65q-8 2 -19.5 3t-18.5 1q-33 0 -46 -21.5t-13 -62.5v-85q46 18 92 18t85.5 -17t68 -48.5t44.5 -76.5
t16 -101zM375 231q0 81 -38 125.5t-99 44.5q-29 0 -51 -6l-33 -9v-288q14 -13 41 -24t56 -11q33 0 56.5 13t38.5 35.5t22 53t7 66.5z" />
    <glyph glyph-name="uni01A6" unicode="&#x1a6;" 
d="M431 430q0 -57 -30 -101t-81 -67q21 -37 44 -81t45.5 -91t43.5 -95t38 -92h-93q-15 43 -34 89t-40 90.5t-42.5 86t-42.5 76.5q-6 -1 -16.5 -1h-14.5h-70v-244h-83v693h83v-71q37 3 68 3q112 0 168.5 -49t56.5 -146zM213 554q-23 0 -44.5 -0.5t-30.5 -2.5v-239h53
q36 0 64.5 5t49 18.5t31.5 37t11 61.5q0 36 -11 59t-29 36.5t-42.5 19t-51.5 5.5z" />
    <glyph glyph-name="uni01A7" unicode="&#x1a7;" 
d="M267 58q56 0 95 14.5t59 25.5l25 -68q-9 -6 -26 -13t-39.5 -14t-51.5 -11.5t-62 -4.5q-102 0 -157 43.5t-55 124.5q0 43 12.5 73t35.5 52t54.5 38t69.5 32q26 11 48 22t38.5 24.5t26 31.5t9.5 44q0 45 -33 67.5t-78 22.5q-43 0 -78 -12t-55 -24l-26 69q10 7 26.5 14
t37.5 12t45 8.5t50 3.5q91 0 142 -45.5t51 -126.5q0 -37 -12.5 -64t-34 -47t-49 -35t-57.5 -27q-26 -10 -51 -21.5t-45 -27t-32 -36t-12 -49.5q0 -48 33 -72t96 -24z" />
    <glyph glyph-name="uni01A8" unicode="&#x1a8;" 
d="M148 116q0 -57 114 -57q43 0 81.5 10.5t73.5 26.5l16 -75q-36 -16 -76 -24t-88 -8q-106 0 -155 34.5t-49 97.5q0 39 20.5 64.5t51.5 43.5t67 30.5t67 24.5t51.5 26.5t20.5 35.5q0 59 -108 59q-20 0 -40 -2t-38 -5.5t-32 -8t-22 -8.5l-15 74q29 9 69.5 14.5t79.5 5.5
q96 0 141.5 -37.5t45.5 -93.5q0 -40 -20.5 -65t-51 -42t-66.5 -28.5t-66.5 -23.5t-51 -28t-20.5 -41z" />
    <glyph glyph-name="uni01A9" unicode="&#x1a9;" 
d="M325 322q-49 -64 -102 -128t-95 -124h319v-70h-407v65q34 55 87 121t107 135q-52 69 -101.5 133.5t-79.5 109.5v55h393v-70h-292q13 -19 32 -45t42 -56t48 -62.5t49 -63.5z" />
    <glyph glyph-name="uni01AA" unicode="&#x1aa;" 
d="M308 22q0 -33 7.5 -55t20 -35.5t29.5 -19t37 -5.5h39v-71q-8 -1 -20 -1h-17q-50 0 -84 13t-55 38t-30 61.5t-9 84.5v440q-30 -18 -68 -18q-30 0 -52 10.5t-36 27t-20.5 38t-6.5 42.5q0 16 6 37t20.5 40t39 31.5t62.5 12.5q75 0 106 -43t31 -119v-509zM226 555
q0 35 -15.5 54.5t-45.5 19.5q-29 0 -43.5 -18.5t-14.5 -38.5t13 -39.5t45 -19.5q20 0 34 7.5t27 21.5v13z" />
    <glyph glyph-name="uni01AB" unicode="&#x1ab;" 
d="M322 -6q-49 0 -80.5 11.5t-49.5 34.5t-24.5 57.5t-6.5 81.5v216h-98v69h98v130l82 14v-144h187v-69h-187v-216q0 -35 5 -57t16.5 -35.5t29.5 -18.5t44 -5q19 0 37 1.5t33 3t26 3.5t15 3q1 -6 2 -15.5t2 -20t1.5 -21t0.5 -17.5q0 -39 -4.5 -69.5t-17.5 -52.5t-37.5 -33.5
t-63.5 -11.5q-13 0 -28.5 2.5t-25.5 4.5l7 61q5 -2 17.5 -3.5t19.5 -1.5q35 0 46.5 22.5t11.5 62.5v7t-1 9q-24 -3 -57 -3z" />
    <glyph glyph-name="uni01AC" unicode="&#x1ac;" 
d="M461 619v-70h-152v-549h-82v549h-66q-34 0 -53.5 -18.5t-19.5 -50.5q0 -16 4 -33l-67 -8q-2 6 -4.5 18.5t-2.5 25.5q0 40 14.5 66.5t38.5 42t55 21.5t64 6h271z" />
    <glyph glyph-name="uni01AD" unicode="&#x1ad;" 
d="M243 464h187v-69h-187v-216q0 -35 5 -57t16.5 -35.5t29.5 -18.5t44 -5q36 0 58 6t42 16l12 -70q-14 -6 -43 -16t-77 -10q-52 0 -85 12t-51.5 36t-25.5 59.5t-7 82.5v216h-98v69h98v42q0 89 42.5 138t145.5 49q42 0 70.5 -5t40.5 -10l-15 -72q-12 5 -34.5 10.5t-55.5 5.5
q-65 0 -88.5 -30.5t-23.5 -81.5v-46z" />
    <glyph glyph-name="uni01AE" unicode="&#x1ae;" 
d="M291 -15q0 -41 11.5 -62.5t43.5 -21.5q8 0 16.5 0.5t17.5 2.5l8 -66q-22 -5 -50 -5q-39 0 -64 11.5t-39.5 33t-20 52.5t-5.5 70v549h-170v70h422v-70h-170v-564z" />
    <glyph glyph-name="Uhorn" unicode="&#x1af;" 
d="M223 -13q-50 0 -83.5 15.5t-54 44t-29 68.5t-8.5 89v415h82v-406q0 -44 5.5 -73.5t17 -47.5t29 -26t41.5 -8t41.5 8t29 26t17 47.5t5.5 73.5v406h64q13 0 23 15.5t10 46.5q0 9 -0.5 19t-1.5 15h82q1 -10 1 -18.5v-13.5q0 -20 -4.5 -40.5t-16 -37.5t-30 -29.5t-45.5 -16.5
v-355q0 -49 -8.5 -89t-29 -68.5t-54 -44t-83.5 -15.5z" />
    <glyph glyph-name="uhorn" unicode="&#x1b0;" 
d="M382 13q-23 -7 -62.5 -15t-90.5 -8q-46 0 -77 15.5t-49.5 44t-26.5 67.5t-8 86v261h82v-243q0 -86 19.5 -122t67.5 -36q20 0 39 3.5t24 5.5v392h57q23 0 30.5 16t7.5 47q0 8 -0.5 18.5t-1.5 15.5h82q1 -11 1 -19v-13q0 -21 -4.5 -41.5t-15 -37.5t-29 -29t-45.5 -16v-392z
" />
    <glyph glyph-name="uni01B1" unicode="&#x1b1;" 
d="M482 549h-109q48 -61 71 -135.5t23 -148.5q0 -56 -13.5 -106.5t-41 -88.5t-68.5 -61t-95 -23t-95 23t-68.5 61t-41 88.5t-13.5 106.5q0 74 23.5 148.5t70.5 135.5h-107v70h197v-60q-24 -26 -43 -60t-31.5 -72.5t-19.5 -79.5t-7 -81q0 -42 8 -80t24.5 -66.5t42 -45.5
t60.5 -17t60.5 17t42 45.5t24.5 66.5t8 80q0 40 -7 81t-19.5 79.5t-31.5 72.5t-43 60v60h199v-70z" />
    <glyph glyph-name="uni01B2" unicode="&#x1b2;" 
d="M457 318q0 -90 -17 -153t-46.5 -102.5t-70 -57.5t-87.5 -18q-91 0 -141 52.5t-50 175.5v404h82v-384q0 -92 23 -134.5t86 -42.5q29 0 54.5 12t44 41t29.5 78t11 123q0 119 -28.5 179.5t-100.5 60.5q-12 0 -19.5 -0.5t-13.5 -1.5l-2 69q5 2 21.5 2.5t29.5 0.5
q55 0 92.5 -23t60 -63.5t32.5 -96t10 -121.5z" />
    <glyph glyph-name="uni01B3" unicode="&#x1b3;" 
d="M210 0v230q-59 99 -110 194.5t-87 194.5h92q10 -35 26.5 -74t36 -80t40 -81.5t40.5 -76.5l90 223q11 29 22.5 48t24.5 30t27.5 15.5t31.5 4.5q27 0 49.5 -12t40.5 -31l-37 -57q-26 27 -50 27q-13 0 -25 -12.5t-26 -47.5l-104 -261v-234h-82z" />
    <glyph glyph-name="uni01B4" unicode="&#x1b4;" 
d="M437 406q-22 0 -32.5 -13.5t-16.5 -40.5q-25 -106 -51.5 -196t-59.5 -170q-17 -40 -35 -69t-40 -48t-49 -28t-62 -9q-19 0 -41.5 5t-30.5 9l15 67q10 -5 25.5 -8t30.5 -3q44 0 69.5 21.5t45.5 70.5q-53 107 -98.5 227t-75.5 243h90q9 -40 21 -86.5t27.5 -95.5t34 -98.5
t38.5 -95.5q22 70 38 137t34 146q11 50 34.5 77.5t74.5 27.5q17 0 32.5 -3.5t32.5 -9.5l-14 -65q-12 8 -37 8z" />
    <glyph glyph-name="uni01B5" unicode="&#x1b5;" 
d="M447 555q-27 -39 -61.5 -91t-70.5 -109h119v-64h-159q-36 -59 -68.5 -115.5t-58.5 -105.5h307v-70h-401v54q29 57 62.5 117.5t68.5 119.5h-97v64h136q33 54 65.5 102.5t62.5 91.5h-283v70h378v-64z" />
    <glyph glyph-name="uni01B6" unicode="&#x1b6;" 
d="M420 402q-18 -20 -46 -53t-60 -75h98v-59h-142q-27 -37 -52.5 -74t-45.5 -71h255v-70h-354v55q19 35 46 76.5t57 83.5h-77v59h120q27 35 51.5 66.5t43.5 54.5h-228v69h334v-62z" />
    <glyph glyph-name="uni01B7" unicode="&#x1b7;" 
d="M166 349q22 22 46.5 49.5t48 55t44 52.5t34.5 43h-286v70h396v-49q-14 -20 -35 -46t-45.5 -54.5t-51 -58t-51.5 -56.5q93 -7 145 -54t52 -127q0 -41 -15 -75.5t-46 -59.5t-78 -38.5t-111 -13.5q-35 0 -65 5t-54 12t-42 14.5t-28 12.5l26 68q20 -11 63 -26t99 -15
q81 0 125 32t44 89q0 118 -198 118h-17v52z" />
    <glyph glyph-name="uni01B8" unicode="&#x1b8;" 
d="M338 297h-17q-34 0 -65 -5.5t-55 -20t-38 -38t-14 -59.5q0 -61 40.5 -88.5t106.5 -27.5q21 0 42.5 3t40 8t33.5 11t24 11l26 -68q-9 -5 -26 -11.5t-39 -12t-48.5 -9t-53.5 -3.5q-51 0 -93 11t-72 33.5t-46.5 57.5t-16.5 83q0 45 14.5 77t38.5 54t55.5 34.5t65.5 17.5
q-22 27 -45 56t-45 57t-40 53.5t-30 45.5v52h361v-70h-256q12 -18 30 -43t39 -52.5t42.5 -55t40.5 -49.5v-52z" />
    <glyph glyph-name="uni01B9" unicode="&#x1b9;" 
d="M340 142h-15q-34 0 -67 -4.5t-58.5 -17t-41 -34.5t-15.5 -57q0 -58 40.5 -91.5t112.5 -33.5q43 0 79.5 8t56.5 18l18 -68q-22 -11 -63.5 -19t-90.5 -8q-53 0 -96 12t-73.5 36t-47 60.5t-16.5 84.5q0 44 14.5 74.5t39.5 51t58 32t71 16.5q-22 25 -45.5 54t-45.5 58
t-41 55.5t-31 46.5v48h347v-69h-244q11 -18 29.5 -43t39.5 -52t43 -54.5t42 -49.5v-54z" />
    <glyph glyph-name="uni01BA" unicode="&#x1ba;" 
d="M49 -102q0 29 10 48t27.5 31t40 19t47.5 13q32 8 61.5 14.5t52.5 17t36.5 27.5t13.5 46q0 40 -39 61.5t-135 23.5v56q46 40 83 77t59 63h-244v69h345v-51q-57 -74 -154 -160q43 -6 75 -16.5t53 -27.5t31.5 -42t10.5 -60q0 -43 -16.5 -69.5t-45.5 -44t-67.5 -27.5
t-83.5 -20q-12 -3 -27.5 -6.5t-29 -10.5t-22.5 -17.5t-9 -27.5q0 -14 3 -24t5 -15l-65 -14q-5 11 -10.5 26.5t-5.5 40.5z" />
    <glyph glyph-name="uni01BB" unicode="&#x1bb;" 
d="M93 322h169q32 32 53.5 64t21.5 72q0 54 -30 78t-72 24q-30 0 -52.5 -7t-39 -17t-28 -19.5t-17.5 -15.5l-41 59q13 13 29.5 26t38 23.5t49 17t61.5 6.5q92 0 139 -43t47 -126q0 -38 -14.5 -72.5t-43.5 -69.5h77v-64h-137l-50 -52q-38 -38 -64.5 -72.5t-28.5 -63.5h285
v-70h-375q-4 41 5 76.5t27 67t42.5 59.5t51.5 55h-103v64z" />
    <glyph glyph-name="uni01BC" unicode="&#x1bc;" 
d="M186 380q128 -3 192 -57.5t64 -146.5q0 -50 -18.5 -85.5t-49 -58.5t-71 -34t-83.5 -11q-39 0 -79 8t-75 24l15 70q25 -14 60 -22.5t72 -8.5q28 0 54.5 6t47 19.5t33 35t12.5 52.5q0 34 -14 60.5t-44 44.5t-78 27.5t-117 9.5q7 68 11.5 123.5t8.5 112.5h-87v70h377v-70
h-217q-1 -12 -3 -35t-4 -48t-4 -48.5t-3 -37.5z" />
    <glyph glyph-name="uni01BD" unicode="&#x1bd;" 
d="M436 140q0 -67 -52 -109t-152 -42q-25 0 -50.5 3t-47.5 7.5t-38 8.5t-22 7l15 70q5 -3 19 -7t33.5 -8.5t42.5 -7.5t46 -3q57 0 90 19t33 62q0 47 -45.5 66t-148.5 19h-45q6 51 10.5 90.5t6.5 82.5h-73v66h359v-66h-214l-10 -109h19q48 0 89 -8t71 -26t47 -46.5t17 -68.5z
" />
    <glyph glyph-name="uni01BE" unicode="&#x1be;" 
d="M242 464h188v-69h-188v-31q0 -37 16.5 -57.5t40.5 -33t53 -21.5t53 -24t40.5 -39.5t16.5 -67.5q0 -63 -49 -97.5t-155 -34.5q-48 0 -88 8t-76 24l16 75q35 -16 73.5 -26.5t81.5 -10.5q115 0 115 57q0 27 -16.5 42t-40.5 25t-53 20t-53 28t-40.5 48.5t-16.5 82.5v33h-98
v69h98v130l82 14v-144z" />
    <glyph glyph-name="uni01BF" unicode="&#x1bf;" 
d="M377 268q0 62 -34.5 97.5t-97.5 35.5q-38 0 -58 -5t-33 -10v-356q39 15 79 33t72 45t52 65.5t20 94.5zM462 266q0 -71 -24.5 -121.5t-66.5 -87t-98 -62t-119 -45.5v-115h-83v603q29 11 72.5 23.5t102.5 12.5q101 0 158.5 -55.5t57.5 -152.5z" />
    <glyph glyph-name="uni01C0" unicode="&#x1c0;" 
d="M212 699h77v-864h-77v864z" />
    <glyph glyph-name="uni01C1" unicode="&#x1c1;" 
d="M121 699h77v-864h-77v864zM303 699h77v-864h-77v864z" />
    <glyph glyph-name="uni01C2" unicode="&#x1c2;" 
d="M211 699h77v-310h176v-66h-176v-105h176v-66h-176v-317h-77v317h-176v66h176v105h-176v66h176v310z" />
    <glyph glyph-name="uni01C3" unicode="&#x1c3;" 
d="M293 451q0 -37 -1 -68t-3.5 -59t-5.5 -55.5t-6 -57.5h-57q-3 30 -6 57.5t-5.5 55.5t-3.5 59t-1 68v168h89v-168zM248 -12q-27 0 -47 18.5t-20 49.5t20 49.5t47 18.5q28 0 47.5 -18.5t19.5 -49.5t-19.5 -49.5t-47.5 -18.5z" />
    <glyph glyph-name="uni01C4" unicode="&#x1c4;" 
d="M269 784l29 33l86 -78l86 78l29 -33l-115 -121zM479 555q-13 -44 -29 -104.5t-33 -126.5t-32.5 -132.5t-27.5 -121.5h122v-70h-194v54q17 73 31 134t27.5 118.5t28.5 116t34 126.5h-99v70h172v-64zM105 625q45 0 76.5 -22t51.5 -63t29 -99.5t9 -131.5q0 -51 -5.5 -106
t-23.5 -101.5t-51 -76.5t-88 -30q-17 0 -37.5 2t-38.5 7v611q23 6 41.5 8t36.5 2zM98 67q5 -1 9 -1h9q83 0 83 243q0 125 -21 185t-64 60h-7.5t-8.5 -1v-486z" />
    <glyph glyph-name="uni01C5" unicode="&#x1c5;" 
d="M413 524l-97 89l30 36l67 -54l66 54l30 -36zM482 402q-9 -24 -22.5 -62t-28.5 -83t-29 -93.5t-24 -93.5h104v-70h-172v55q10 40 24 87.5t28.5 94t29 88.5t25.5 70h-98v69h163v-62zM105 625q45 0 76.5 -22t51.5 -63t29 -99.5t9 -131.5q0 -51 -5.5 -106t-23.5 -101.5
t-51 -76.5t-88 -30q-17 0 -37.5 2t-38.5 7v611q23 6 41.5 8t36.5 2zM98 67q5 -1 9 -1h9q83 0 83 243q0 125 -21 185t-64 60h-7.5t-8.5 -1v-486z" />
    <glyph glyph-name="uni01C6" unicode="&#x1c6;" 
d="M413 524l-97 89l30 36l67 -54l66 54l30 -36zM188 376q-7 13 -21 21.5t-29 8.5q-13 0 -24 -8t-19.5 -28t-13 -53.5t-4.5 -84.5q0 -97 20.5 -140t48.5 -43t42 7v320zM188 679l72 14v-680q-17 -8 -46 -16t-68 -8q-36 0 -62.5 17.5t-44 50t-26 77t-8.5 98.5q0 70 10.5 116.5
t27.5 74.5t39 40t45 12q20 0 36.5 -9t24.5 -19v232zM491 402q-9 -24 -22.5 -62t-28.5 -83t-29 -93.5t-24 -93.5h104v-70h-172v55q10 40 24 87.5t28.5 94t29 88.5t25.5 70h-98v69h163v-62z" />
    <glyph glyph-name="uni01C7" unicode="&#x1c7;" 
d="M293 69q36 -1 56 6.5t29.5 23t11 38.5t1.5 54v428h82v-465q0 -75 -34 -114.5t-124 -39.5h-22v69zM252 70v-70h-216v619h82v-549h134z" />
    <glyph glyph-name="uni01C8" unicode="&#x1c8;" 
d="M296 70v-70h-242v619h82v-549h160zM414 543q-23 0 -40 16t-17 44q0 27 17 43.5t40 16.5q25 0 41.5 -16.5t16.5 -43.5q0 -28 -16.5 -44t-41.5 -16zM296 -167q-11 0 -28 2.5t-28 7.5l11 68q9 -3 20.5 -5t21.5 -2q43 0 61.5 26.5t18.5 77.5v456h82v-455q0 -90 -40.5 -133
t-118.5 -43z" />
    <glyph glyph-name="uni01C9" unicode="&#x1c9;" 
d="M221 -9q-67 2 -94.5 33t-27.5 97v558l82 14v-558q0 -21 2.5 -34t8.5 -21t16 -12t25 -7zM361 543q-23 0 -40 16t-17 44q0 27 17 43.5t40 16.5q24 0 40.5 -16.5t16.5 -43.5q0 -28 -16.5 -44t-40.5 -16zM243 -167q-11 0 -28 2.5t-28 7.5l10 68q9 -3 20.5 -5t21.5 -2
q43 0 62 26.5t19 77.5v456h82v-455q0 -90 -40.5 -133t-118.5 -43z" />
    <glyph glyph-name="uni01CA" unicode="&#x1ca;" 
d="M317 69q31 0 48 7.5t25.5 22.5t10 38t1.5 54v428h71v-465q0 -75 -35 -114.5t-121 -39.5v69zM98 251v-251h-62v619h66l119 -436l-9 183v253h62v-619h-66l-119 436z" />
    <glyph glyph-name="uni01CB" unicode="&#x1cb;" 
d="M419 543q-23 0 -40 16t-17 44q0 27 17 43.5t40 16.5q24 0 40.5 -16.5t16.5 -43.5q0 -28 -16.5 -44t-40.5 -16zM305 -167q-11 0 -28 2.5t-28 7.5l11 68q19 -7 42 -7q43 0 62.5 26.5t19.5 77.5v456h71v-455q0 -90 -36 -133t-114 -43zM98 251v-251h-62v619h66l119 -436
l-9 183v253h62v-619h-66l-119 436z" />
    <glyph glyph-name="uni01CC" unicode="&#x1cc;" 
d="M36 451q32 11 63.5 17t59.5 6q32 0 56 -6.5t40.5 -25t25 -53t8.5 -90.5v-299h-75v286q0 39 -5 61.5t-13 34.5t-18.5 15.5t-22.5 3.5q-8 0 -21.5 -2.5t-22.5 -6.5v-392h-75v451zM414 543q-23 0 -40 16t-17 44q0 27 17 43.5t40 16.5q25 0 41.5 -16.5t16.5 -43.5
q0 -28 -16.5 -44t-41.5 -16zM296 -167q-11 0 -28 2.5t-28 7.5l11 68q9 -3 23 -5t24 -2q43 0 62.5 26.5t19.5 77.5v456h75v-455q0 -90 -40.5 -133t-118.5 -43z" />
    <glyph glyph-name="uni01CD" unicode="&#x1cd;" 
d="M404 0l-37 162h-238l-36 -162h-84q17 66 38 143t45.5 158t51.5 162.5t57 155.5h102q29 -74 55.5 -155.5t50 -162.5t44.5 -158t38 -143h-87zM249 547q-23 -63 -50 -146t-51 -171h200q-23 90 -49.5 173.5t-49.5 143.5zM129 790l34 39l87 -78l87 78l34 -39l-121 -128z" />
    <glyph glyph-name="uni01CE" unicode="&#x1ce;" 
d="M255 59q31 0 55.5 2t40.5 5v138q-16 5 -38.5 8t-47.5 3q-23 0 -45 -3.5t-39 -12.5t-28 -23.5t-11 -36.5q0 -45 30.5 -62.5t82.5 -17.5zM247 475q52 0 87.5 -13t57.5 -36t31 -56t9 -72v-290q-29 -5 -76.5 -12t-97.5 -7q-38 0 -74 6.5t-64 23t-45 45.5t-17 74
q0 40 17.5 67.5t45 44.5t63 24.5t71.5 7.5q49 0 96 -11v23q0 21 -4.5 40.5t-17 35.5t-34 25.5t-55.5 9.5q-43 0 -75 -6t-49 -12l-10 68q17 8 56.5 14t84.5 6zM129 651l34 39l87 -78l87 78l34 -39l-121 -128z" />
    <glyph glyph-name="uni01CF" unicode="&#x1cf;" 
d="M291 549v-479h120v-70h-322v70h120v479h-120v70h322v-70h-120zM129 790l34 39l87 -78l87 78l34 -39l-121 -128z" />
    <glyph glyph-name="uni01D0" unicode="&#x1d0;" 
d="M188 395h-134v69h216v-285q0 -69 19 -92.5t57 -23.5q29 0 53.5 7t38.5 15l12 -70q-6 -3 -17 -7.5t-25.5 -8.5t-32 -7t-36.5 -3q-44 0 -73 12t-46.5 36t-24.5 59.5t-7 82.5v216zM94 651l34 39l87 -78l87 78l34 -39l-121 -128z" />
    <glyph glyph-name="uni01D1" unicode="&#x1d1;" 
d="M29 310q0 83 16 144t45 100.5t69.5 59t90.5 19.5q49 0 90 -19.5t70 -59t45.5 -100.5t16.5 -144t-16.5 -144t-45.5 -101t-70 -59t-90 -19q-50 0 -90.5 19t-69.5 59t-45 101t-16 144zM113 310q0 -122 33 -187t102 -65q70 0 105 65t35 187t-35 187t-105 65q-69 0 -102 -65
t-33 -187zM129 790l34 39l87 -78l87 78l34 -39l-121 -128z" />
    <glyph glyph-name="uni01D2" unicode="&#x1d2;" 
d="M460 232q0 -55 -15.5 -99.5t-43.5 -76.5t-67 -49.5t-85 -17.5q-45 0 -83.5 17.5t-66.5 49.5t-43.5 76.5t-15.5 99.5t15.5 100t43.5 76.5t66.5 49t83.5 17.5q46 0 85 -17.5t67 -49t43.5 -76.5t15.5 -100zM375 232q0 79 -34 124.5t-92 45.5q-57 0 -90.5 -45.5t-33.5 -124.5
q0 -78 33.5 -123.5t90.5 -45.5q58 0 92 45.5t34 123.5zM129 651l34 39l87 -78l87 78l34 -39l-121 -128z" />
    <glyph glyph-name="uni01D3" unicode="&#x1d3;" 
d="M250 -13q-55 0 -93.5 16t-62.5 45t-35 71t-11 94v406h82v-397q0 -47 8.5 -78.5t24 -50.5t37.5 -27t50 -8t50 8t37.5 27t24 50.5t8.5 78.5v397h82v-406q0 -52 -11 -94t-35 -71t-62.5 -45t-93.5 -16zM129 790l34 39l87 -78l87 78l34 -39l-121 -128z" />
    <glyph glyph-name="uni01D4" unicode="&#x1d4;" 
d="M429 13q-27 -7 -71.5 -15t-104.5 -8q-53 0 -88 15.5t-57 44t-31 67.5t-9 86v261h82v-243q0 -86 25.5 -122t85.5 -36q13 0 26.5 1t25.5 2.5t21 3t12 2.5v392h83v-451zM129 651l34 39l87 -78l87 78l34 -39l-121 -128z" />
    <glyph glyph-name="uni01D5" unicode="&#x1d5;" 
d="M160 647q-21 0 -34.5 13.5t-13.5 35.5q0 23 13.5 36t34.5 13t34.5 -13t13.5 -36q0 -22 -13.5 -35.5t-34.5 -13.5zM340 647q-20 0 -34 13.5t-14 35.5q0 23 14 36t34 13t34 -13t14 -36q0 -22 -14 -35.5t-34 -13.5zM137 829h226v-57h-226v57zM250 -13q-55 0 -93.5 16
t-62.5 45t-35 71t-11 94v386h82v-377q0 -47 8.5 -78.5t24 -50.5t37.5 -27t50 -8t50 8t37.5 27t24 50.5t8.5 78.5v377h82v-386q0 -52 -11 -94t-35 -71t-62.5 -45t-93.5 -16z" />
    <glyph glyph-name="uni01D6" unicode="&#x1d6;" 
d="M429 13q-27 -7 -71.5 -15t-104.5 -8q-53 0 -88 15.5t-57 44t-31 67.5t-9 86v261h82v-243q0 -86 25.5 -122t85.5 -36q13 0 26.5 1t25.5 2.5t21 3t12 2.5v392h83v-451zM160 524q-21 0 -34.5 13.5t-13.5 35.5q0 23 13.5 36t34.5 13t34.5 -13t13.5 -36q0 -22 -13.5 -35.5
t-34.5 -13.5zM340 524q-20 0 -34 13.5t-14 35.5q0 23 14 36t34 13t34 -13t14 -36q0 -22 -14 -35.5t-34 -13.5zM137 716h226v-57h-226v57z" />
    <glyph glyph-name="uni01D7" unicode="&#x1d7;" 
d="M250 -13q-55 0 -93.5 16t-62.5 45t-35 71t-11 94v406h82v-397q0 -47 8.5 -78.5t24 -50.5t37.5 -27t50 -8t50 8t37.5 27t24 50.5t8.5 78.5v397h82v-406q0 -52 -11 -94t-35 -71t-62.5 -45t-93.5 -16zM330 784l-86 -95l-40 34l72 107zM371 657q-20 0 -34 13.5t-14 35.5
q0 23 14 36t34 13q21 0 35 -13t14 -36q0 -22 -14 -35.5t-35 -13.5zM129 657q-20 0 -34.5 13.5t-14.5 35.5q0 23 14.5 36t34.5 13t34 -13t14 -36q0 -22 -14 -35.5t-34 -13.5z" />
    <glyph glyph-name="uni01D8" unicode="&#x1d8;" 
d="M429 13q-27 -7 -71.5 -15t-104.5 -8q-53 0 -88 15.5t-57 44t-31 67.5t-9 86v261h82v-243q0 -86 25.5 -122t85.5 -36q13 0 26.5 1t25.5 2.5t21 3t12 2.5v392h83v-451zM155 524q-20 0 -34 13.5t-14 35.5q0 23 14 36t34 13q21 0 35 -13t14 -36q0 -22 -14 -35.5t-35 -13.5z
M345 524q-21 0 -35 13.5t-14 35.5q0 23 14 36t35 13q20 0 34 -13t14 -36q0 -22 -14 -35.5t-34 -13.5zM297 763l54 -47l-99 -113l-40 34z" />
    <glyph glyph-name="uni01D9" unicode="&#x1d9;" 
d="M250 -13q-55 0 -93.5 16t-62.5 45t-35 71t-11 94v406h82v-397q0 -47 8.5 -78.5t24 -50.5t37.5 -27t50 -8t50 8t37.5 27t24 50.5t8.5 78.5v397h82v-406q0 -52 -11 -94t-35 -71t-62.5 -45t-93.5 -16zM129 657q-20 0 -34.5 13.5t-14.5 35.5q0 23 14.5 36t34.5 13t34 -13
t14 -36q0 -22 -14 -35.5t-34 -13.5zM371 657q-20 0 -34 13.5t-14 35.5q0 23 14 36t34 13q21 0 35 -13t14 -36q0 -22 -14 -35.5t-35 -13.5zM166 790l26 40l57 -35l57 35l26 -40l-83 -66z" />
    <glyph glyph-name="uni01DA" unicode="&#x1da;" 
d="M429 13q-27 -7 -71.5 -15t-104.5 -8q-53 0 -88 15.5t-57 44t-31 67.5t-9 86v261h82v-243q0 -86 25.5 -122t85.5 -36q13 0 26.5 1t25.5 2.5t21 3t12 2.5v392h83v-451zM155 524q-20 0 -34 13.5t-14 35.5q0 23 14 36t34 13q21 0 35 -13t14 -36q0 -22 -14 -35.5t-35 -13.5z
M345 524q-21 0 -35 13.5t-14 35.5q0 23 14 36t35 13q20 0 34 -13t14 -36q0 -22 -14 -35.5t-34 -13.5zM139 702l26 40l84 -54l84 54l26 -40l-110 -85z" />
    <glyph glyph-name="uni01DB" unicode="&#x1db;" 
d="M250 -13q-55 0 -93.5 16t-62.5 45t-35 71t-11 94v406h82v-397q0 -47 8.5 -78.5t24 -50.5t37.5 -27t50 -8t50 8t37.5 27t24 50.5t8.5 78.5v397h82v-406q0 -52 -11 -94t-35 -71t-62.5 -45t-93.5 -16zM226 830l70 -107l-40 -34l-84 95zM129 657q-21 0 -35 13.5t-14 35.5
q0 23 14 36t35 13q20 0 34 -13t14 -36q0 -22 -14 -35.5t-34 -13.5zM371 657q-20 0 -34 13.5t-14 35.5q0 23 14 36t34 13t34.5 -13t14.5 -36q0 -22 -14.5 -35.5t-34.5 -13.5z" />
    <glyph glyph-name="uni01DC" unicode="&#x1dc;" 
d="M429 13q-27 -7 -71.5 -15t-104.5 -8q-53 0 -88 15.5t-57 44t-31 67.5t-9 86v261h82v-243q0 -86 25.5 -122t85.5 -36q13 0 26.5 1t25.5 2.5t21 3t12 2.5v392h83v-451zM155 524q-20 0 -34 13.5t-14 35.5q0 23 14 36t34 13q21 0 35 -13t14 -36q0 -22 -14 -35.5t-35 -13.5z
M345 524q-21 0 -35 13.5t-14 35.5q0 23 14 36t35 13q20 0 34 -13t14 -36q0 -22 -14 -35.5t-34 -13.5zM203 763l85 -126l-40 -34l-99 113z" />
    <glyph glyph-name="uni01DD" unicode="&#x1dd;" 
d="M241 -11q-94 0 -145 58.5t-51 177.5v14t1 16h327q-5 72 -45 109.5t-118 37.5q-44 0 -75 -7.5t-47 -14.5l-11 69q15 8 54 17t88 9q60 0 105.5 -18.5t75.5 -50.5t45 -76.5t15 -96.5q0 -62 -19 -107.5t-50 -76t-70.5 -45.5t-79.5 -15zM131 188q-1 -57 29.5 -93t81.5 -36
q29 0 51.5 11t39 29t26 41.5t12.5 47.5h-240z" />
    <glyph glyph-name="uni01DE" unicode="&#x1de;" 
d="M160 647q-21 0 -34.5 13.5t-13.5 35.5q0 23 13.5 36t34.5 13t34.5 -13t13.5 -36q0 -22 -13.5 -35.5t-34.5 -13.5zM340 647q-20 0 -34 13.5t-14 35.5q0 23 14 36t34 13t34 -13t14 -36q0 -22 -14 -35.5t-34 -13.5zM137 829h226v-57h-226v57zM404 0l-42 162h-229l-40 -162
h-84q17 66 38 140t45.5 151t51.5 155.5t57 152.5h102q29 -74 55.5 -152.5t50 -155.5t44.5 -151t38 -140h-87zM249 527q-23 -63 -48 -136t-49 -161h191q-23 90 -47 163.5t-47 133.5z" />
    <glyph glyph-name="uni01DF" unicode="&#x1df;" 
d="M255 59q31 0 55.5 2t40.5 5v138q-16 5 -38.5 8t-47.5 3q-23 0 -45 -3.5t-39 -12.5t-28 -23.5t-11 -36.5q0 -45 30.5 -62.5t82.5 -17.5zM247 475q52 0 87.5 -13t57.5 -36t31 -56t9 -72v-290q-29 -5 -76.5 -12t-97.5 -7q-38 0 -74 6.5t-64 23t-45 45.5t-17 74
q0 40 17.5 67.5t45 44.5t63 24.5t71.5 7.5q49 0 96 -11v23q0 21 -4.5 40.5t-17 35.5t-34 25.5t-55.5 9.5q-43 0 -75 -6t-49 -12l-10 68q17 8 56.5 14t84.5 6zM160 524q-21 0 -34.5 13.5t-13.5 35.5q0 23 13.5 36t34.5 13t34.5 -13t13.5 -36q0 -22 -13.5 -35.5t-34.5 -13.5z
M340 524q-20 0 -34 13.5t-14 35.5q0 23 14 36t34 13t34 -13t14 -36q0 -22 -14 -35.5t-34 -13.5zM137 716h226v-57h-226v57z" />
    <glyph glyph-name="uni01E0" unicode="&#x1e0;" 
d="M404 0l-42 162h-229l-40 -162h-84q17 66 38 140t45.5 151t51.5 155.5t57 152.5h102q29 -74 55.5 -152.5t50 -155.5t44.5 -151t38 -140h-87zM249 527q-23 -63 -48 -136t-49 -161h191q-23 90 -47 163.5t-47 133.5zM250 647q-21 0 -35 13.5t-14 36.5t14 36.5t35 13.5
t35 -13.5t14 -36.5t-14 -36.5t-35 -13.5zM137 829h226v-57h-226v57z" />
    <glyph glyph-name="uni01E1" unicode="&#x1e1;" 
d="M255 59q31 0 55.5 2t40.5 5v138q-16 5 -38.5 8t-47.5 3q-23 0 -45 -3.5t-39 -12.5t-28 -23.5t-11 -36.5q0 -45 30.5 -62.5t82.5 -17.5zM247 475q52 0 87.5 -13t57.5 -36t31 -56t9 -72v-290q-29 -5 -76.5 -12t-97.5 -7q-38 0 -74 6.5t-64 23t-45 45.5t-17 74
q0 40 17.5 67.5t45 44.5t63 24.5t71.5 7.5q49 0 96 -11v23q0 21 -4.5 40.5t-17 35.5t-34 25.5t-55.5 9.5q-43 0 -75 -6t-49 -12l-10 68q17 8 56.5 14t84.5 6zM250 524q-21 0 -35 13.5t-14 36.5t14 36.5t35 13.5t35 -13.5t14 -36.5t-14 -36.5t-35 -13.5zM137 716h226v-57
h-226v57z" />
    <glyph glyph-name="uni01E2" unicode="&#x1e2;" 
d="M263 0v162h-118l-37 -162h-81q45 174 91 326.5t101 292.5h250v-70h-128v-190h105v-70h-105v-219h141v-70h-219zM263 566q-28 -88 -53.5 -175t-46.5 -161h100v336zM212 774h254v-64h-254v64z" />
    <glyph glyph-name="uni01E3" unicode="&#x1e3;" 
d="M150 475q44 0 72 -17t43 -47q16 30 37 47t47 17q129 0 129 -236v-13.5t-1 -15.5h-185q0 -72 26 -109.5t67 -37.5q32 0 69 22l11 -70q-4 -4 -13.5 -8.5t-21.5 -8.5t-26 -6.5t-27 -2.5q-33 0 -58.5 11.5t-44.5 31.5q-27 -23 -55 -33t-57 -10q-33 0 -57.5 12.5t-41 32.5
t-24.5 45.5t-8 52.5q0 31 8.5 58.5t25.5 48t41.5 32t57.5 11.5q12 0 26.5 -2.5t26.5 -8.5v23q0 47 -18 79t-56 32q-22 0 -43 -6t-29 -12l-9 68q9 8 35.5 14t52.5 6zM172 215q-33 0 -49.5 -21t-16.5 -57q0 -30 15.5 -54t47.5 -24q17 0 36.5 8t33.5 21q-11 25 -17 54.5
t-8 61.5q-20 11 -42 11zM403 277q0 37 -4.5 61.5t-12 39.5t-16.5 21t-17 6q-23 0 -41 -29t-18 -99h109zM132 635h254v-64h-254v64z" />
    <glyph glyph-name="uni01E4" unicode="&#x1e4;" 
d="M347 174h-71v65h71v86h83v-86h44v-65h-44v-159q-19 -7 -59 -17.5t-92 -10.5q-53 0 -95.5 21.5t-73.5 62.5t-47.5 101.5t-16.5 137.5q0 78 19 138t51 101t75.5 62.5t92.5 21.5q32 0 56 -5t41 -12t28 -14.5t17 -11.5l-27 -69q-21 18 -50 29.5t-61 11.5q-35 0 -64 -18
t-50 -51t-32.5 -79.5t-11.5 -103.5q0 -56 10.5 -102t30.5 -79t49.5 -51.5t67.5 -18.5q25 0 38.5 4t20.5 8v103z" />
    <glyph glyph-name="uni01E5" unicode="&#x1e5;" 
d="M329 43q-13 -8 -40 -17t-62 -9q-39 0 -73 13.5t-59.5 41t-40 70t-14.5 100.5q0 51 13.5 93.5t40 73.5t64.5 48.5t88 17.5q57 0 97 -8.5t68 -16.5v-175h71v-61h-71v-178q0 -108 -52 -156t-158 -48q-42 0 -76.5 7t-60.5 17l15 73q25 -11 56 -18t68 -7q67 0 96.5 29t29.5 94
v16zM329 214h-90v61h90v116q-12 4 -31 7.5t-51 3.5q-60 0 -91 -44t-31 -117q0 -40 9 -68.5t24 -47t34.5 -27t41.5 -8.5q28 0 53.5 9t41.5 21v94z" />
    <glyph glyph-name="Gcaron" unicode="&#x1e6;" 
d="M373 305h82v-290q-19 -7 -61 -17.5t-99 -10.5q-56 0 -102 21.5t-78.5 62.5t-50.5 101.5t-18 137.5q0 78 20 138t54.5 101t80.5 62.5t99 21.5q34 0 60 -5t44.5 -12t30.5 -14.5t18 -11.5l-27 -69q-23 18 -54.5 29.5t-66.5 11.5q-38 0 -70.5 -18t-55.5 -51t-36 -79.5
t-13 -103.5q0 -56 11.5 -102t33.5 -79t54.5 -51.5t74.5 -18.5q29 0 45 4t24 8v234zM183 790l34 39l87 -78l87 78l34 -39l-121 -128z" />
    <glyph glyph-name="gcaron" unicode="&#x1e7;" 
d="M346 43q-14 -8 -43 -17t-67 -9q-41 0 -76.5 13.5t-62 41t-42 70t-15.5 100.5q0 51 14.5 93.5t42 73.5t67.5 48.5t91 17.5q60 0 102.5 -8.5t71.5 -16.5v-414q0 -108 -54.5 -156t-164.5 -48q-45 0 -81.5 7t-64.5 17l15 73q26 -11 59.5 -18t73.5 -7q72 0 103 29t31 94v16z
M346 391q-12 4 -33 7.5t-57 3.5q-64 0 -97.5 -44t-33.5 -117q0 -40 9.5 -68.5t26 -47t37.5 -27t45 -8.5q31 0 58.5 9t44.5 21v271zM147 651l34 39l87 -78l87 78l34 -39l-121 -128z" />
    <glyph glyph-name="uni01E8" unicode="&#x1e8;" 
d="M470 619q-49 -73 -107.5 -145t-126.5 -144q32 -27 68 -63t70.5 -78.5t65 -90.5t51.5 -98h-93q-25 46 -54 90t-61.5 82t-67 69.5t-69.5 54.5v-296h-82v619h82v-276q65 67 124.5 140t104.5 136h95zM129 790l34 39l87 -78l87 78l34 -39l-121 -128z" />
    <glyph glyph-name="uni01E9" unicode="&#x1e9;" 
d="M238 255q27 -20 61 -50.5t67.5 -65.5t63.5 -71.5t48 -67.5h-98q-19 31 -47 63.5t-59.5 62.5t-63 55t-56.5 42v-223h-83v649l83 14v-393q55 48 110 95.5t99 98.5h97q-43 -51 -103.5 -105t-118.5 -104zM43 790l26 40l84 -54l84 54l26 -40l-110 -85z" />
    <glyph glyph-name="uni01EA" unicode="&#x1ea;" 
d="M292 -167q-51 0 -74.5 18t-23.5 50q0 23 16.5 46t33.5 40q-48 1 -88 21t-68 60t-43.5 100t-15.5 142q0 83 16 144t45.5 100.5t70 59t90.5 19.5q49 0 89.5 -19.5t70 -59t45.5 -100.5t16 -144q0 -110 -27.5 -180t-74.5 -106q-9 -7 -25.5 -19t-32.5 -27t-28 -31t-12 -30
q0 -26 36 -26q6 0 16 1.5t21 4.5l6 -54q-22 -10 -59 -10zM113 310q0 -122 33.5 -187t102.5 -65q70 0 104.5 65t34.5 187t-34.5 187t-104.5 65q-69 0 -102.5 -65t-33.5 -187z" />
    <glyph glyph-name="uni01EB" unicode="&#x1eb;" 
d="M278 -167q-51 0 -75 18t-24 50q0 21 11.5 39.5t27.5 35.5q8 8 16 14q-42 3 -77.5 22t-61.5 50.5t-40.5 74.5t-14.5 95q0 55 15.5 100t43.5 76.5t66.5 49t83.5 17.5q46 0 85 -17.5t67 -49t43.5 -76.5t15.5 -100q0 -72 -26 -125.5t-71 -84.5q-23 -14 -41.5 -26t-36.5 -31
q-13 -14 -20 -24.5t-7 -23.5q0 -26 36 -26q6 0 16 1.5t20 4.5l7 -54q-23 -10 -59 -10zM375 232q0 79 -34 124.5t-92 45.5q-57 0 -90.5 -45.5t-33.5 -124.5q0 -78 33.5 -123.5t90.5 -45.5q58 0 92 45.5t34 123.5z" />
    <glyph glyph-name="uni01EC" unicode="&#x1ec;" 
d="M292 -167q-51 0 -74.5 18t-23.5 50q0 23 16.5 46t33.5 40q-48 1 -88 21t-68 60t-43.5 100t-15.5 142q0 83 16 144t45.5 100.5t70 59t90.5 19.5q49 0 89.5 -19.5t70 -59t45.5 -100.5t16 -144q0 -110 -27.5 -180t-74.5 -106q-9 -7 -25.5 -19t-32.5 -27t-28 -31t-12 -30
q0 -26 36 -26q6 0 16 1.5t21 4.5l6 -54q-22 -10 -59 -10zM113 310q0 -122 33.5 -187t102.5 -65q70 0 104.5 65t34.5 187t-34.5 187t-104.5 65q-69 0 -102.5 -65t-33.5 -187zM123 774h254v-64h-254v64z" />
    <glyph glyph-name="uni01ED" unicode="&#x1ed;" 
d="M278 -167q-51 0 -75 18t-24 50q0 21 11.5 39.5t27.5 35.5q8 8 16 14q-42 3 -77.5 22t-61.5 50.5t-40.5 74.5t-14.5 95q0 55 15.5 100t43.5 76.5t66.5 49t83.5 17.5q46 0 85 -17.5t67 -49t43.5 -76.5t15.5 -100q0 -72 -26 -125.5t-71 -84.5q-23 -14 -41.5 -26t-36.5 -31
q-13 -14 -20 -24.5t-7 -23.5q0 -26 36 -26q6 0 16 1.5t20 4.5l7 -54q-23 -10 -59 -10zM375 232q0 79 -34 124.5t-92 45.5q-57 0 -90.5 -45.5t-33.5 -124.5q0 -78 33.5 -123.5t90.5 -45.5q58 0 92 45.5t34 123.5zM123 635h254v-64h-254v64z" />
    <glyph glyph-name="uni01EE" unicode="&#x1ee;" 
d="M166 349q22 22 46.5 49.5t48 55t44 52.5t34.5 43h-286v70h396v-49q-14 -20 -35 -46t-45.5 -54.5t-51 -58t-51.5 -56.5q93 -7 145 -54t52 -127q0 -41 -15 -75.5t-46 -59.5t-78 -38.5t-111 -13.5q-35 0 -65 5t-54 12t-42 14.5t-28 12.5l26 68q20 -11 63 -26t99 -15
q81 0 125 32t44 89q0 118 -198 118h-17v52zM129 790l34 39l87 -78l87 78l34 -39l-121 -128z" />
    <glyph glyph-name="uni01EF" unicode="&#x1ef;" 
d="M154 196q19 22 41 49.5t43 54.5t39.5 52t30.5 43h-244v69h347v-48q-12 -20 -30.5 -46.5t-40.5 -55.5t-45.5 -58t-45.5 -54q38 -5 71 -16.5t58 -32t39 -51t14 -74.5q0 -48 -16.5 -84.5t-47.5 -60.5t-74 -36t-95 -12q-49 0 -90.5 8t-63.5 19l18 70q20 -10 56.5 -18t78.5 -8
q73 0 111 32.5t38 90.5q0 35 -15 57t-40 34.5t-56.5 17t-65.5 4.5h-15v54zM129 651l34 39l87 -78l87 78l34 -39l-121 -128z" />
    <glyph glyph-name="uni01F0" unicode="&#x1f0;" 
d="M114 395v69h270v-459q0 -48 -13.5 -81.5t-36 -54.5t-52 -30t-62.5 -9q-38 0 -76.5 8t-72.5 25l25 70q25 -12 55.5 -20.5t58.5 -8.5q40 0 66 20.5t26 79.5v391h-188zM165 651l34 39l87 -78l87 78l34 -39l-121 -128z" />
    <glyph glyph-name="uni01F1" unicode="&#x1f1;" 
d="M479 555q-13 -44 -29 -104.5t-33 -126.5t-32.5 -132.5t-27.5 -121.5h122v-70h-194v54q17 73 31 134t27.5 118.5t28.5 116t34 126.5h-99v70h172v-64zM105 625q45 0 76.5 -22t51.5 -63t29 -99.5t9 -131.5q0 -51 -5.5 -106t-23.5 -101.5t-51 -76.5t-88 -30q-17 0 -37.5 2
t-38.5 7v611q23 6 41.5 8t36.5 2zM98 67q5 -1 9 -1h9q83 0 83 243q0 125 -21 185t-64 60h-7.5t-8.5 -1v-486z" />
    <glyph glyph-name="uni01F2" unicode="&#x1f2;" 
d="M482 402q-9 -24 -22.5 -62t-28.5 -83t-29 -93.5t-24 -93.5h104v-70h-172v55q10 40 24 87.5t28.5 94t29 88.5t25.5 70h-98v69h163v-62zM105 625q45 0 76.5 -22t51.5 -63t29 -99.5t9 -131.5q0 -51 -5.5 -106t-23.5 -101.5t-51 -76.5t-88 -30q-17 0 -37.5 2t-38.5 7v611
q23 6 41.5 8t36.5 2zM98 67q5 -1 9 -1h9q83 0 83 243q0 125 -21 185t-64 60h-7.5t-8.5 -1v-486z" />
    <glyph glyph-name="uni01F3" unicode="&#x1f3;" 
d="M188 376q-7 13 -21 21.5t-29 8.5q-13 0 -24 -8t-19.5 -28t-13 -53.5t-4.5 -84.5q0 -97 20.5 -140t48.5 -43t42 7v320zM188 679l72 14v-680q-17 -8 -46 -16t-68 -8q-36 0 -62.5 17.5t-44 50t-26 77t-8.5 98.5q0 70 10.5 116.5t27.5 74.5t39 40t45 12q20 0 36.5 -9
t24.5 -19v232zM491 402q-9 -24 -22.5 -62t-28.5 -83t-29 -93.5t-24 -93.5h104v-70h-172v55q10 40 24 87.5t28.5 94t29 88.5t25.5 70h-98v69h163v-62z" />
    <glyph glyph-name="uni01F4" unicode="&#x1f4;" 
d="M373 305h82v-290q-19 -7 -61 -17.5t-99 -10.5q-56 0 -102 21.5t-78.5 62.5t-50.5 101.5t-18 137.5q0 78 20 138t54.5 101t80.5 62.5t99 21.5q34 0 60 -5t44.5 -12t30.5 -14.5t18 -11.5l-27 -69q-23 18 -54.5 29.5t-66.5 11.5q-38 0 -70.5 -18t-55.5 -51t-36 -79.5
t-13 -103.5q0 -56 11.5 -102t33.5 -79t54.5 -51.5t74.5 -18.5q29 0 45 4t24 8v234zM394 777l-126 -122l-42 37l114 138z" />
    <glyph glyph-name="uni01F5" unicode="&#x1f5;" 
d="M346 43q-14 -8 -43 -17t-67 -9q-41 0 -76.5 13.5t-62 41t-42 70t-15.5 100.5q0 51 14.5 93.5t42 73.5t67.5 48.5t91 17.5q60 0 102.5 -8.5t71.5 -16.5v-414q0 -108 -54.5 -156t-164.5 -48q-45 0 -81.5 7t-64.5 17l15 73q26 -11 59.5 -18t73.5 -7q72 0 103 29t31 94v16z
M346 391q-12 4 -33 7.5t-57 3.5q-64 0 -97.5 -44t-33.5 -117q0 -40 9.5 -68.5t26 -47t37.5 -27t45 -8.5q31 0 58.5 9t44.5 21v271zM379 640l-126 -122l-42 37l114 138z" />
    <glyph glyph-name="uni01F6" unicode="&#x1f6;" 
d="M216 619h79v-423q0 -43 2.5 -70.5t8 -43t14 -21t20.5 -5.5t21 5.5t15 21t9 43t3 70.5v268h78v-268q0 -50 -5.5 -88.5t-19.5 -65.5t-38.5 -41t-62.5 -14t-62 14t-38 41t-19 65.5t-5 88.5v92h-102v-288h-78v619h78v-261h102v261z" />
    <glyph glyph-name="uni01F7" unicode="&#x1f7;" 
d="M155 -165h-82v749q29 13 74 27t97 14q106 0 161.5 -58t55.5 -171q0 -78 -23.5 -138.5t-65 -108t-97.5 -83.5t-120 -65v-166zM155 79q45 25 85.5 52.5t71 64.5t48 86t17.5 117q0 73 -36.5 114t-95.5 41q-33 0 -55.5 -6.5t-34.5 -11.5v-457z" />
    <glyph glyph-name="uni01F8" unicode="&#x1f8;" 
d="M361 0q-34 83 -64 150.5t-57.5 126.5t-54.5 111.5t-55 105.5v-494h-75v619h84q41 -75 71.5 -131t56 -108.5t49.5 -108t54 -128.5v476h75v-619h-84zM216 830l114 -138l-42 -37l-125 122z" />
    <glyph glyph-name="uni01F9" unicode="&#x1f9;" 
d="M71 451q45 11 89.5 17t83.5 6q93 0 140.5 -48t47.5 -154v-272h-82v257q0 45 -8 73t-22.5 43.5t-35 21.5t-44.5 6q-20 0 -42.5 -2.5t-43.5 -6.5v-392h-83v451zM203 693l114 -138l-42 -37l-125 122z" />
    <glyph glyph-name="Aringacute" unicode="&#x1fa;" 
d="M334 622q0 -35 -23 -58q24 -57 48.5 -129t48.5 -148t45 -150.5t38 -136.5h-87l-37 162h-238l-36 -162h-84q16 62 37.5 137t46 151t49.5 147t49 127q-11 11 -17 26t-6 34q0 38 24 60t59 22q33 0 58 -22t25 -60zM249 537q-23 -63 -48 -137.5t-53 -169.5h200
q-26 94 -51 170.5t-48 136.5zM294 622q0 21 -12.5 32.5t-30.5 11.5t-30.5 -11.5t-12.5 -32.5t12.5 -33t30.5 -12t30.5 12t12.5 33zM335 765l-140 -44l-19 49l134 60z" />
    <glyph glyph-name="aringacute" unicode="&#x1fb;" 
d="M255 59q31 0 55.5 2t40.5 5v138q-16 5 -38.5 8t-47.5 3q-23 0 -45 -3.5t-39 -12.5t-28 -23.5t-11 -36.5q0 -45 30.5 -62.5t82.5 -17.5zM247 475q52 0 87.5 -13t57.5 -36t31 -56t9 -72v-290q-29 -5 -76.5 -12t-97.5 -7q-38 0 -74 6.5t-64 23t-45 45.5t-17 74
q0 40 17.5 67.5t45 44.5t63 24.5t71.5 7.5q49 0 96 -11v23q0 21 -4.5 40.5t-17 35.5t-34 25.5t-55.5 9.5q-43 0 -75 -6t-49 -12l-10 68q17 8 56.5 14t84.5 6zM333 747l-141 -53l-19 49l135 70zM333 596q0 -38 -25 -60.5t-58 -22.5q-35 0 -59 22.5t-24 60.5t24 60t59 22
q33 0 58 -22t25 -60zM293 596q0 20 -12.5 31.5t-30.5 11.5t-30.5 -11.5t-12.5 -31.5q0 -21 12.5 -33t30.5 -12t30.5 12t12.5 33z" />
    <glyph glyph-name="AEacute" unicode="&#x1fc;" 
d="M263 0v162h-118l-37 -162h-81q45 174 91 326.5t101 292.5h250v-70h-128v-190h105v-70h-105v-219h141v-70h-219zM263 566q-28 -88 -53.5 -175t-46.5 -161h100v336zM439 777l-126 -122l-42 37l114 138z" />
    <glyph glyph-name="aeacute" unicode="&#x1fd;" 
d="M150 475q44 0 72 -17t43 -47q16 30 37 47t47 17q129 0 129 -236v-13.5t-1 -15.5h-185q0 -72 26 -109.5t67 -37.5q32 0 69 22l11 -70q-4 -4 -13.5 -8.5t-21.5 -8.5t-26 -6.5t-27 -2.5q-33 0 -58.5 11.5t-44.5 31.5q-27 -23 -55 -33t-57 -10q-33 0 -57.5 12.5t-41 32.5
t-24.5 45.5t-8 52.5q0 31 8.5 58.5t25.5 48t41.5 32t57.5 11.5q12 0 26.5 -2.5t26.5 -8.5v23q0 47 -18 79t-56 32q-22 0 -43 -6t-29 -12l-9 68q9 8 35.5 14t52.5 6zM172 215q-33 0 -49.5 -21t-16.5 -57q0 -30 15.5 -54t47.5 -24q17 0 36.5 8t33.5 21q-11 25 -17 54.5
t-8 61.5q-20 11 -42 11zM403 277q0 37 -4.5 61.5t-12 39.5t-16.5 21t-17 6q-23 0 -41 -29t-18 -99h109zM372 640l-126 -122l-42 37l114 138z" />
    <glyph glyph-name="Oslashacute" unicode="&#x1fe;" 
d="M29 310q0 83 16 144t45 100.5t69.5 59t90.5 19.5q56 0 103 -27l21 45l62 -31l-30 -61q31 -41 48.5 -102.5t17.5 -146.5q0 -83 -16.5 -144t-45.5 -101t-70 -59t-90 -19q-62 0 -108 28l-23 -48l-61 31l32 66q-30 40 -45.5 100.5t-15.5 145.5zM388 310q0 50 -5.5 92
t-17.5 73l-191 -394q15 -13 34.5 -18t39.5 -5q70 0 105 65t35 187zM113 310q0 -48 3 -89.5t14 -72.5l190 392q-15 12 -33 17t-39 5q-69 0 -102 -65t-33 -187zM359 777l-126 -122l-42 37l114 138z" />
    <glyph glyph-name="oslashacute" unicode="&#x1ff;" 
d="M45 4l45 62q-23 32 -36.5 73.5t-13.5 92.5q0 55 15.5 100t43.5 76.5t66.5 49t83.5 17.5q69 0 117 -36l42 57l47 -36l-46 -63q24 -31 37.5 -72.5t13.5 -92.5q0 -55 -15.5 -99.5t-43.5 -76.5t-67 -49.5t-85 -17.5q-33 0 -62 9.5t-54 26.5l-42 -57zM375 232q0 28 -3.5 53
t-12.5 45l-181 -245q14 -12 32 -17t39 -5q58 0 92 45.5t34 123.5zM125 232q0 -31 3.5 -54t12.5 -43l180 244q-14 12 -32.5 17.5t-39.5 5.5q-57 0 -90.5 -45.5t-33.5 -124.5zM361 640l-126 -122l-42 37l114 138z" />
    <glyph glyph-name="uni0200" unicode="&#x200;" 
d="M404 0l-37 162h-238l-36 -162h-84q17 66 38 143t45.5 158t51.5 162.5t57 155.5h102q29 -74 55.5 -155.5t50 -162.5t44.5 -158t38 -143h-87zM249 547q-23 -63 -50 -146t-51 -171h200q-23 90 -49.5 173.5t-49.5 143.5zM297 830l103 -143l-43 -32l-110 125zM150 830
l103 -143l-43 -32l-110 125z" />
    <glyph glyph-name="uni0201" unicode="&#x201;" 
d="M255 59q31 0 55.5 2t40.5 5v138q-16 5 -38.5 8t-47.5 3q-23 0 -45 -3.5t-39 -12.5t-28 -23.5t-11 -36.5q0 -45 30.5 -62.5t82.5 -17.5zM247 475q52 0 87.5 -13t57.5 -36t31 -56t9 -72v-290q-29 -5 -76.5 -12t-97.5 -7q-38 0 -74 6.5t-64 23t-45 45.5t-17 74
q0 40 17.5 67.5t45 44.5t63 24.5t71.5 7.5q49 0 96 -11v23q0 21 -4.5 40.5t-17 35.5t-34 25.5t-55.5 9.5q-43 0 -75 -6t-49 -12l-10 68q17 8 56.5 14t84.5 6zM297 693l103 -143l-43 -32l-110 125zM150 693l103 -143l-43 -32l-110 125z" />
    <glyph glyph-name="uni0202" unicode="&#x202;" 
d="M404 0l-37 162h-238l-36 -162h-84q17 66 38 143t45.5 158t51.5 162.5t57 155.5h102q29 -74 55.5 -155.5t50 -162.5t44.5 -158t38 -143h-87zM249 547q-23 -63 -50 -146t-51 -171h200q-23 90 -49.5 173.5t-49.5 143.5zM250 808q25 0 47 -8.5t38.5 -24.5t25.5 -39t8 -52h-54
q-1 10 -4 21.5t-10 21t-19.5 15.5t-31.5 6t-31 -6t-19.5 -15.5t-10.5 -21t-4 -21.5h-54q-1 29 8 52t25.5 39t38.5 24.5t47 8.5z" />
    <glyph glyph-name="uni0203" unicode="&#x203;" 
d="M255 59q31 0 55.5 2t40.5 5v138q-16 5 -38.5 8t-47.5 3q-23 0 -45 -3.5t-39 -12.5t-28 -23.5t-11 -36.5q0 -45 30.5 -62.5t82.5 -17.5zM247 475q52 0 87.5 -13t57.5 -36t31 -56t9 -72v-290q-29 -5 -76.5 -12t-97.5 -7q-38 0 -74 6.5t-64 23t-45 45.5t-17 74
q0 40 17.5 67.5t45 44.5t63 24.5t71.5 7.5q49 0 96 -11v23q0 21 -4.5 40.5t-17 35.5t-34 25.5t-55.5 9.5q-43 0 -75 -6t-49 -12l-10 68q17 8 56.5 14t84.5 6zM250 669q25 0 47 -8.5t38.5 -24.5t25.5 -39t8 -52h-54q-1 10 -4 21.5t-10 21t-19.5 15.5t-31.5 6t-31 -6
t-19.5 -15.5t-10.5 -21t-4 -21.5h-54q-1 29 8 52t25.5 39t38.5 24.5t47 8.5z" />
    <glyph glyph-name="uni0204" unicode="&#x204;" 
d="M91 0v619h347v-70h-265v-190h232v-70h-232v-219h287v-70h-369zM297 830l103 -143l-43 -32l-110 125zM150 830l103 -143l-43 -32l-110 125z" />
    <glyph glyph-name="uni0205" unicode="&#x205;" 
d="M259 475q94 0 145 -58.5t51 -177.5v-29h-332q5 -72 47.5 -109.5t119.5 -37.5q44 0 75 7t47 15l11 -70q-15 -8 -54 -17t-88 -9q-60 0 -105.5 18.5t-75.5 50.5t-45 76.5t-15 96.5q0 62 19 108t50 76t70 45t80 15zM371 277q0 59 -31 93.5t-82 34.5q-29 0 -52.5 -11
t-40.5 -29t-27 -41t-13 -47h246zM297 693l103 -143l-43 -32l-110 125zM150 693l103 -143l-43 -32l-110 125z" />
    <glyph glyph-name="uni0206" unicode="&#x206;" 
d="M91 0v619h347v-70h-265v-190h232v-70h-232v-219h287v-70h-369zM277 808q25 0 47 -8.5t38.5 -24.5t25.5 -39t8 -52h-54q-1 10 -4 21.5t-10 21t-19.5 15.5t-31.5 6t-31 -6t-19.5 -15.5t-10.5 -21t-4 -21.5h-54q-1 29 8 52t25.5 39t38.5 24.5t47 8.5z" />
    <glyph glyph-name="uni0207" unicode="&#x207;" 
d="M259 475q94 0 145 -58.5t51 -177.5v-29h-332q5 -72 47.5 -109.5t119.5 -37.5q44 0 75 7t47 15l11 -70q-15 -8 -54 -17t-88 -9q-60 0 -105.5 18.5t-75.5 50.5t-45 76.5t-15 96.5q0 62 19 108t50 76t70 45t80 15zM371 277q0 59 -31 93.5t-82 34.5q-29 0 -52.5 -11
t-40.5 -29t-27 -41t-13 -47h246zM268 669q25 0 47 -8.5t38.5 -24.5t25.5 -39t8 -52h-54q-1 10 -4 21.5t-10 21t-19.5 15.5t-31.5 6t-31 -6t-19.5 -15.5t-10.5 -21t-4 -21.5h-54q-1 29 8 52t25.5 39t38.5 24.5t47 8.5z" />
    <glyph glyph-name="uni0208" unicode="&#x208;" 
d="M291 549v-479h120v-70h-322v70h120v479h-120v70h322v-70h-120zM280 830l103 -143l-43 -32l-110 125zM133 830l103 -143l-43 -32l-110 125z" />
    <glyph glyph-name="uni0209" unicode="&#x209;" 
d="M188 395h-134v69h216v-285q0 -69 19 -92.5t57 -23.5q29 0 53.5 7t38.5 15l12 -70q-6 -3 -17 -7.5t-25.5 -8.5t-32 -7t-36.5 -3q-44 0 -73 12t-46.5 36t-24.5 59.5t-7 82.5v216zM244 693l103 -143l-43 -32l-110 125zM97 693l103 -143l-43 -32l-110 125z" />
    <glyph glyph-name="uni020A" unicode="&#x20a;" 
d="M291 549v-479h120v-70h-322v70h120v479h-120v70h322v-70h-120zM250 808q25 0 47 -8.5t38.5 -24.5t25.5 -39t8 -52h-54q-1 10 -4 21.5t-10 21t-19.5 15.5t-31.5 6t-31 -6t-19.5 -15.5t-10.5 -21t-4 -21.5h-54q-1 29 8 52t25.5 39t38.5 24.5t47 8.5z" />
    <glyph glyph-name="uni020B" unicode="&#x20b;" 
d="M188 395h-134v69h216v-285q0 -69 19 -92.5t57 -23.5q29 0 53.5 7t38.5 15l12 -70q-6 -3 -17 -7.5t-25.5 -8.5t-32 -7t-36.5 -3q-44 0 -73 12t-46.5 36t-24.5 59.5t-7 82.5v216zM215 669q25 0 47 -8.5t38.5 -24.5t25.5 -39t8 -52h-54q-1 10 -4 21.5t-10 21t-19.5 15.5
t-31.5 6t-31 -6t-19.5 -15.5t-10.5 -21t-4 -21.5h-54q-1 29 8 52t25.5 39t38.5 24.5t47 8.5z" />
    <glyph glyph-name="uni020C" unicode="&#x20c;" 
d="M29 310q0 83 16 144t45 100.5t69.5 59t90.5 19.5q49 0 90 -19.5t70 -59t45.5 -100.5t16.5 -144t-16.5 -144t-45.5 -101t-70 -59t-90 -19q-50 0 -90.5 19t-69.5 59t-45 101t-16 144zM113 310q0 -122 33 -187t102 -65q70 0 105 65t35 187t-35 187t-105 65q-69 0 -102 -65
t-33 -187zM280 830l103 -143l-43 -32l-110 125zM133 830l103 -143l-43 -32l-110 125z" />
    <glyph glyph-name="uni020D" unicode="&#x20d;" 
d="M460 232q0 -55 -15.5 -99.5t-43.5 -76.5t-67 -49.5t-85 -17.5q-45 0 -83.5 17.5t-66.5 49.5t-43.5 76.5t-15.5 99.5t15.5 100t43.5 76.5t66.5 49t83.5 17.5q46 0 85 -17.5t67 -49t43.5 -76.5t15.5 -100zM375 232q0 79 -34 124.5t-92 45.5q-57 0 -90.5 -45.5t-33.5 -124.5
q0 -78 33.5 -123.5t90.5 -45.5q58 0 92 45.5t34 123.5zM280 693l103 -143l-43 -32l-110 125zM133 693l103 -143l-43 -32l-110 125z" />
    <glyph glyph-name="uni020E" unicode="&#x20e;" 
d="M29 310q0 83 16 144t45 100.5t69.5 59t90.5 19.5q49 0 90 -19.5t70 -59t45.5 -100.5t16.5 -144t-16.5 -144t-45.5 -101t-70 -59t-90 -19q-50 0 -90.5 19t-69.5 59t-45 101t-16 144zM113 310q0 -122 33 -187t102 -65q70 0 105 65t35 187t-35 187t-105 65q-69 0 -102 -65
t-33 -187zM250 808q25 0 47 -8.5t38.5 -24.5t25.5 -39t8 -52h-54q-1 10 -4 21.5t-10 21t-19.5 15.5t-31.5 6t-31 -6t-19.5 -15.5t-10.5 -21t-4 -21.5h-54q-1 29 8 52t25.5 39t38.5 24.5t47 8.5z" />
    <glyph glyph-name="uni020F" unicode="&#x20f;" 
d="M460 232q0 -55 -15.5 -99.5t-43.5 -76.5t-67 -49.5t-85 -17.5q-45 0 -83.5 17.5t-66.5 49.5t-43.5 76.5t-15.5 99.5t15.5 100t43.5 76.5t66.5 49t83.5 17.5q46 0 85 -17.5t67 -49t43.5 -76.5t15.5 -100zM375 232q0 79 -34 124.5t-92 45.5q-57 0 -90.5 -45.5t-33.5 -124.5
q0 -78 33.5 -123.5t90.5 -45.5q58 0 92 45.5t34 123.5zM250 669q25 0 47 -8.5t38.5 -24.5t25.5 -39t8 -52h-54q-1 10 -4 21.5t-10 21t-19.5 15.5t-31.5 6t-31 -6t-19.5 -15.5t-10.5 -21t-4 -21.5h-54q-1 29 8 52t25.5 39t38.5 24.5t47 8.5z" />
    <glyph glyph-name="uni0210" unicode="&#x210;" 
d="M431 430q0 -57 -30 -100.5t-81 -67.5q15 -24 33.5 -54.5t37.5 -65t37.5 -71t34.5 -71.5h-88q-30 72 -65.5 138t-68.5 107q-6 -1 -17.5 -1h-15.5h-70v-244h-83v610q15 4 34.5 7t40 4.5t40.5 2.5t36 1q112 0 168.5 -49t56.5 -146zM213 554q-23 0 -44.5 -0.5t-30.5 -2.5
v-239h53q36 0 64.5 5t49 18.5t31.5 37t11 61.5q0 36 -11 59t-29 36.5t-42.5 19t-51.5 5.5zM271 830l103 -143l-43 -32l-110 125zM124 830l103 -143l-43 -32l-110 125z" />
    <glyph glyph-name="uni0211" unicode="&#x211;" 
d="M107 0v439q102 35 206 35q32 0 61 -2.5t64 -10.5l-15 -73q-32 9 -56.5 11.5t-53.5 2.5q-61 0 -124 -17v-385h-82zM280 693l103 -143l-43 -32l-110 125zM133 693l103 -143l-43 -32l-110 125z" />
    <glyph glyph-name="uni0212" unicode="&#x212;" 
d="M431 430q0 -57 -30 -100.5t-81 -67.5q15 -24 33.5 -54.5t37.5 -65t37.5 -71t34.5 -71.5h-88q-30 72 -65.5 138t-68.5 107q-6 -1 -17.5 -1h-15.5h-70v-244h-83v610q15 4 34.5 7t40 4.5t40.5 2.5t36 1q112 0 168.5 -49t56.5 -146zM213 554q-23 0 -44.5 -0.5t-30.5 -2.5
v-239h53q36 0 64.5 5t49 18.5t31.5 37t11 61.5q0 36 -11 59t-29 36.5t-42.5 19t-51.5 5.5zM224 808q25 0 47 -8.5t38.5 -24.5t25.5 -39t8 -52h-54q-1 10 -4 21.5t-10 21t-19.5 15.5t-31.5 6t-31 -6t-19.5 -15.5t-10.5 -21t-4 -21.5h-54q-1 29 8 52t25.5 39t38.5 24.5t47 8.5
z" />
    <glyph glyph-name="uni0213" unicode="&#x213;" 
d="M107 0v439q102 35 206 35q32 0 61 -2.5t64 -10.5l-15 -73q-32 9 -56.5 11.5t-53.5 2.5q-61 0 -124 -17v-385h-82zM277 669q25 0 47 -8.5t38.5 -24.5t25.5 -39t8 -52h-54q-1 10 -4 21.5t-10 21t-19.5 15.5t-31.5 6t-31 -6t-19.5 -15.5t-10.5 -21t-4 -21.5h-54q-1 29 8 52
t25.5 39t38.5 24.5t47 8.5z" />
    <glyph glyph-name="uni0214" unicode="&#x214;" 
d="M250 -13q-55 0 -93.5 16t-62.5 45t-35 71t-11 94v406h82v-397q0 -47 8.5 -78.5t24 -50.5t37.5 -27t50 -8t50 8t37.5 27t24 50.5t8.5 78.5v397h82v-406q0 -52 -11 -94t-35 -71t-62.5 -45t-93.5 -16zM289 830l103 -143l-43 -32l-110 125zM142 830l103 -143l-43 -32
l-110 125z" />
    <glyph glyph-name="uni0215" unicode="&#x215;" 
d="M429 13q-27 -7 -71.5 -15t-104.5 -8q-53 0 -88 15.5t-57 44t-31 67.5t-9 86v261h82v-243q0 -86 25.5 -122t85.5 -36q13 0 26.5 1t25.5 2.5t21 3t12 2.5v392h83v-451zM280 693l103 -143l-43 -32l-110 125zM133 693l103 -143l-43 -32l-110 125z" />
    <glyph glyph-name="uni0216" unicode="&#x216;" 
d="M250 -13q-55 0 -93.5 16t-62.5 45t-35 71t-11 94v406h82v-397q0 -47 8.5 -78.5t24 -50.5t37.5 -27t50 -8t50 8t37.5 27t24 50.5t8.5 78.5v397h82v-406q0 -52 -11 -94t-35 -71t-62.5 -45t-93.5 -16zM250 808q25 0 47 -8.5t38.5 -24.5t25.5 -39t8 -52h-54q-1 10 -4 21.5
t-10 21t-19.5 15.5t-31.5 6t-31 -6t-19.5 -15.5t-10.5 -21t-4 -21.5h-54q-1 29 8 52t25.5 39t38.5 24.5t47 8.5z" />
    <glyph glyph-name="uni0217" unicode="&#x217;" 
d="M429 13q-27 -7 -71.5 -15t-104.5 -8q-53 0 -88 15.5t-57 44t-31 67.5t-9 86v261h82v-243q0 -86 25.5 -122t85.5 -36q13 0 26.5 1t25.5 2.5t21 3t12 2.5v392h83v-451zM250 669q25 0 47 -8.5t38.5 -24.5t25.5 -39t8 -52h-54q-1 10 -4 21.5t-10 21t-19.5 15.5t-31.5 6
t-31 -6t-19.5 -15.5t-10.5 -21t-4 -21.5h-54q-1 29 8 52t25.5 39t38.5 24.5t47 8.5z" />
    <glyph glyph-name="Scommaaccent" unicode="&#x218;" 
d="M234 58q63 0 96 24t33 72q0 29 -12 49.5t-32 36t-45 27t-51 21.5q-30 12 -57.5 27t-49 35t-34 47t-12.5 64q0 81 51 126.5t142 45.5q25 0 49.5 -3.5t45.5 -8.5t37.5 -12t26.5 -14l-26 -69q-20 12 -55 24t-78 12q-45 0 -78 -22.5t-33 -67.5q0 -26 9.5 -44t26 -31.5
t38.5 -24.5t48 -22q38 -16 69.5 -32t54 -38t35 -52t12.5 -73q0 -81 -54.5 -124.5t-156.5 -43.5q-33 0 -62 4.5t-51.5 11.5t-39.5 14t-26 13l25 68q20 -11 59 -25.5t95 -14.5zM203 -45h80q1 -5 1.5 -10.5t0.5 -9.5q0 -57 -30.5 -81t-76.5 -24q-20 0 -42 6v48h15
q33 0 42.5 14.5t9.5 43.5v13z" />
    <glyph glyph-name="scommaaccent" unicode="&#x219;" 
d="M351 116q0 25 -20.5 41t-51 28t-66.5 23.5t-66.5 28.5t-51 42t-20.5 65q0 56 45.5 93.5t142.5 37.5q38 0 78.5 -5.5t69.5 -14.5l-15 -74q-8 4 -22 8.5t-32 8t-38.5 5.5t-39.5 2q-108 0 -108 -59q0 -21 20.5 -35.5t51.5 -26.5t67 -24.5t67 -30.5t51.5 -43.5t20.5 -64.5
q0 -63 -49 -97.5t-155 -34.5q-48 0 -88 8t-76 24l16 75q35 -16 73.5 -26.5t82.5 -10.5q113 0 113 57zM203 -45h80q1 -5 1.5 -10.5t0.5 -9.5q0 -57 -30.5 -81t-76.5 -24q-20 0 -42 6v48h15q33 0 42.5 14.5t9.5 43.5v13z" />
    <glyph glyph-name="uni021A" unicode="&#x21a;" 
d="M461 619v-70h-170v-549h-82v549h-170v70h422zM210 -45h80q1 -5 1.5 -10.5t0.5 -9.5q0 -57 -30.5 -81t-76.5 -24q-20 0 -42 6v48h15q33 0 42.5 14.5t9.5 43.5v13z" />
    <glyph glyph-name="uni021B" unicode="&#x21b;" 
d="M243 464h196v-69h-196v-216q0 -35 5 -57t16.5 -35.5t29.5 -18.5t44 -5q36 0 58 6t42 16l12 -70q-14 -6 -44.5 -16t-75.5 -10q-52 0 -85 12t-51.5 36t-25.5 59.5t-7 82.5v216h-98v69h98v130l82 14v-144zM274 -45h80q1 -5 1.5 -10.5t0.5 -9.5q0 -57 -30.5 -81t-76.5 -24
q-20 0 -42 6v48h15q33 0 42.5 14.5t9.5 43.5v13z" />
    <glyph glyph-name="uni021C" unicode="&#x21c;" 
d="M87 -90q61 0 115.5 7.5t95 27t64 52.5t23.5 84q0 45 -21 74t-54 46t-73.5 24t-79.5 7h-34v68h27q46 0 85 8.5t67 25t43.5 42t15.5 59.5q0 59 -36.5 92.5t-113.5 33.5q-53 0 -93.5 -11.5t-60.5 -22.5l-27 68q23 14 72.5 25.5t109.5 11.5q50 0 92.5 -11t73 -35t48 -61
t17.5 -89q0 -49 -30.5 -94t-87.5 -69q68 -20 106 -71t38 -115q0 -72 -31.5 -120t-84.5 -77.5t-121.5 -42t-142.5 -12.5h-26.5t-26.5 2l5 75q8 -1 20.5 -1.5t25.5 -0.5z" />
    <glyph glyph-name="uni021D" unicode="&#x21d;" 
d="M209 476q43 0 80.5 -9t65 -28t43 -49t15.5 -73q0 -41 -27.5 -76.5t-71.5 -53.5q58 -13 88.5 -52t30.5 -87q0 -62 -33.5 -103t-87 -65.5t-119.5 -34.5t-130 -10l-6 69q25 1 56.5 3.5t64 8t63.5 15t55 25t38.5 37.5t14.5 52q0 33 -21 53t-51.5 30.5t-64 13.5t-58.5 3h-11
v69q36 0 69.5 5t59.5 17t41.5 31.5t15.5 48.5q0 43 -31.5 66.5t-88.5 23.5q-23 0 -45 -3t-40.5 -7t-32 -8.5t-19.5 -7.5l-15 72q8 3 24 7t37 7.5t44.5 6.5t46.5 3z" />
    <glyph glyph-name="uni021E" unicode="&#x21e;" 
d="M373 619h82v-619h-82v288h-246v-288h-82v619h82v-261h246v261zM129 790l34 39l87 -78l87 78l34 -39l-121 -128z" />
    <glyph glyph-name="uni021F" unicode="&#x21f;" 
d="M71 0v649l83 14v-206q20 8 45 12.5t49 4.5q53 0 88.5 -15.5t56.5 -43.5t30 -67t9 -86v-262h-82v244q0 86 -24 121.5t-86 35.5q-26 0 -50.5 -5.5t-35.5 -10.5v-385h-83zM44 790l26 40l84 -54l84 54l26 -40l-110 -85z" />
    <glyph glyph-name="uni0220" unicode="&#x220;" 
d="M455 -165h-82v528q0 102 -31.5 150t-103.5 48q-29 0 -61 -4.5t-50 -9.5v-547h-82v603q33 11 86.5 20t116.5 9q59 0 99 -18.5t64 -51t34 -78t10 -99.5v-550z" />
    <glyph glyph-name="uni0221" unicode="&#x221;" 
d="M240 368q-10 13 -28 24.5t-40 11.5q-18 0 -30 -13t-20 -36.5t-11.5 -55t-3.5 -67.5q0 -81 21.5 -125t58.5 -44q20 0 32.5 5t20.5 9v291zM241 9q-12 -8 -26.5 -12.5t-28.5 -4.5q-76 0 -118.5 63.5t-42.5 176.5q0 54 8.5 98.5t26 76.5t43 50t59.5 18q26 0 46.5 -10.5
t31.5 -20.5v235l82 14v-629q17 13 34 19.5t38 6.5q24 0 43.5 -10.5t33.5 -27.5t21.5 -40.5t7.5 -48.5q0 -22 -7 -45t-21.5 -41.5t-37.5 -30t-54 -11.5q-47 0 -76.5 20.5t-45.5 57.5l-67 -81l-43 38l94 112q-1 9 -1 14v13zM381 28q-19 0 -32 -10t-27 -26v-22q0 -32 16 -52
t42 -20t39 19.5t13 45.5q0 27 -12.5 46t-38.5 19z" />
    <glyph glyph-name="uni0222" unicode="&#x222;" 
d="M423 481q0 -22 -4.5 -43t-13.5 -40t-23 -33.5t-33 -23.5q23 -9 44 -22.5t36.5 -32.5t25 -44.5t9.5 -57.5q0 -41 -12 -75t-38 -59.5t-66 -39.5t-97 -14t-98 14t-67 39t-38 59.5t-12 75.5q0 32 9 57.5t24.5 44.5t36.5 32.5t44 22.5q-38 18 -55.5 57.5t-17.5 82.5t3.5 73
t11.5 65h82q-5 -32 -9.5 -62.5t-4.5 -62.5q0 -60 21.5 -91.5t68.5 -31.5t68.5 31.5t21.5 91.5q0 32 -4.5 62.5t-9.5 62.5h82q8 -35 11.5 -65t3.5 -73zM250 299q-27 0 -51 -6.5t-42 -20.5t-28.5 -35.5t-10.5 -52.5q0 -63 37.5 -90t94.5 -27q27 0 51 6.5t42 20.5t28.5 36
t10.5 54q0 31 -10.5 52.5t-28.5 35.5t-42 20.5t-51 6.5z" />
    <glyph glyph-name="uni0223" unicode="&#x223;" 
d="M386 210q0 69 -37 109t-98 40t-98.5 -40t-37.5 -109t37.5 -109t98.5 -40t98 40t37 109zM438 546q0 -51 -21.5 -90.5t-56.5 -54.5q45 -22 76.5 -72t31.5 -119q0 -52 -16 -93t-45 -69.5t-69 -43.5t-87 -15q-48 0 -88 15.5t-69 44t-45 69.5t-16 92q0 69 31.5 119t76.5 72
q-35 15 -56.5 54.5t-21.5 90.5q0 38 4.5 73.5t9.5 73.5h80q-5 -32 -8 -63t-3 -63q0 -72 26.5 -104.5t78.5 -32.5q51 0 77.5 32.5t26.5 104.5q0 32 -3 63t-8 63h80q5 -38 9.5 -73.5t4.5 -73.5z" />
    <glyph glyph-name="uni0224" unicode="&#x224;" 
d="M447 555q-32 -44 -71.5 -104.5t-80.5 -126.5t-79.5 -132.5t-67.5 -121.5h307v-70q0 -41 -5.5 -72.5t-19.5 -52.5t-40 -31.5t-66 -10.5q-13 0 -29 2.5t-26 4.5l8 65q8 -2 19 -3t19 -1q33 0 46.5 21.5t13.5 62.5v15h-321v54q31 63 68.5 129.5t76.5 130.5t78 124t75 111
h-283v70h378v-64z" />
    <glyph glyph-name="uni0225" unicode="&#x225;" 
d="M420 402q-18 -21 -49 -58.5t-66.5 -83t-70.5 -95.5t-62 -95h255v-70q0 -39 -4.5 -69.5t-17.5 -52.5t-37 -33.5t-63 -11.5q-13 0 -29 2.5t-26 4.5l7 61q5 -2 17.5 -3.5t20.5 -1.5q34 0 45.5 22.5t11.5 62.5v19h-279v55q21 40 52.5 87.5t65.5 94t66.5 88.5t56.5 70h-228v69
h334v-62z" />
    <glyph glyph-name="uni0226" unicode="&#x226;" 
d="M404 0l-37 162h-238l-36 -162h-84q17 66 38 143t45.5 158t51.5 162.5t57 155.5h102q29 -74 55.5 -155.5t50 -162.5t44.5 -158t38 -143h-87zM249 547q-23 -63 -50 -146t-51 -171h200q-23 90 -49.5 173.5t-49.5 143.5zM252 696q-25 0 -42.5 16.5t-17.5 44.5q0 27 17.5 43.5
t42.5 16.5t42.5 -16.5t17.5 -43.5q0 -28 -17.5 -44.5t-42.5 -16.5z" />
    <glyph glyph-name="uni0227" unicode="&#x227;" 
d="M255 59q31 0 55.5 2t40.5 5v138q-16 5 -38.5 8t-47.5 3q-23 0 -45 -3.5t-39 -12.5t-28 -23.5t-11 -36.5q0 -45 30.5 -62.5t82.5 -17.5zM247 475q52 0 87.5 -13t57.5 -36t31 -56t9 -72v-290q-29 -5 -76.5 -12t-97.5 -7q-38 0 -74 6.5t-64 23t-45 45.5t-17 74
q0 40 17.5 67.5t45 44.5t63 24.5t71.5 7.5q49 0 96 -11v23q0 21 -4.5 40.5t-17 35.5t-34 25.5t-55.5 9.5q-43 0 -75 -6t-49 -12l-10 68q17 8 56.5 14t84.5 6zM250 542q-25 0 -42.5 16.5t-17.5 44.5q0 27 17.5 43.5t42.5 16.5t42.5 -16.5t17.5 -43.5q0 -28 -17.5 -44.5
t-42.5 -16.5z" />
    <glyph glyph-name="uni0228" unicode="&#x228;" 
d="M295 -33q26 -12 37.5 -27t11.5 -44q0 -10 -4.5 -21.5t-15 -21t-28 -16t-43.5 -6.5q-23 0 -43 3.5t-31 8.5l10 51q11 -4 23 -6.5t27 -2.5q32 0 32 20t-37 31l-7 2q5 13 12.5 30.5t14.5 31.5h-163v619h347v-70h-265v-190h232v-70h-232v-219h287v-70h-148q-5 -8 -9.5 -17
t-7.5 -16z" />
    <glyph glyph-name="uni0229" unicode="&#x229;" 
d="M283 -33q26 -12 37.5 -27t11.5 -44q0 -10 -4.5 -21.5t-15 -21t-28 -16t-43.5 -6.5q-23 0 -43 3.5t-31 8.5l10 51q11 -4 23 -6.5t27 -2.5q32 0 32 20t-37 31l-7 2q4 11 10.5 25.5t12.5 28.5q-50 6 -87 26.5t-61.5 52t-37 72.5t-12.5 88q0 62 19 108t50 76t70 45t80 15
q94 0 145 -58.5t51 -177.5v-29h-332q5 -72 47.5 -109.5t119.5 -37.5q44 0 75 7t47 15l11 -70q-14 -8 -49 -16t-80 -10zM371 277q0 59 -31 93.5t-82 34.5q-29 0 -52.5 -11t-40.5 -29t-27 -41t-13 -47h246z" />
    <glyph glyph-name="uni022A" unicode="&#x22a;" 
d="M160 647q-21 0 -34.5 13.5t-13.5 35.5q0 23 13.5 36t34.5 13t34.5 -13t13.5 -36q0 -22 -13.5 -35.5t-34.5 -13.5zM340 647q-20 0 -34 13.5t-14 35.5q0 23 14 36t34 13t34 -13t14 -36q0 -22 -14 -35.5t-34 -13.5zM137 829h226v-57h-226v57zM30 300q0 83 16 142t45 97
t69.5 56t90.5 18q49 0 90 -18t70 -56t45.5 -97t16.5 -142t-16.5 -142.5t-45.5 -97.5t-70 -55.5t-90 -17.5q-50 0 -90.5 17.5t-69.5 55.5t-45 97.5t-16 142.5zM114 300q0 -122 33 -182t102 -60q140 0 140 242t-140 242q-69 0 -102 -60t-33 -182z" />
    <glyph glyph-name="uni022B" unicode="&#x22b;" 
d="M460 232q0 -55 -15.5 -99.5t-43.5 -76.5t-67 -49.5t-85 -17.5q-45 0 -83.5 17.5t-66.5 49.5t-43.5 76.5t-15.5 99.5t15.5 100t43.5 76.5t66.5 49t83.5 17.5q46 0 85 -17.5t67 -49t43.5 -76.5t15.5 -100zM375 232q0 79 -34 124.5t-92 45.5q-57 0 -90.5 -45.5t-33.5 -124.5
q0 -78 33.5 -123.5t90.5 -45.5q58 0 92 45.5t34 123.5zM160 524q-21 0 -34.5 13.5t-13.5 35.5q0 23 13.5 36t34.5 13t34.5 -13t13.5 -36q0 -22 -13.5 -35.5t-34.5 -13.5zM340 524q-20 0 -34 13.5t-14 35.5q0 23 14 36t34 13t34 -13t14 -36q0 -22 -14 -35.5t-34 -13.5z
M137 716h226v-57h-226v57z" />
    <glyph glyph-name="uni022C" unicode="&#x22c;" 
d="M388 727q-3 -11 -11 -24t-19 -24t-26 -19t-32 -8q-16 0 -31 5t-28 13q-15 7 -24 10.5t-20 3.5q-15 0 -26.5 -12.5t-17.5 -25.5l-40 18q3 11 10.5 24t18.5 24.5t25 19.5t32 8q17 0 31.5 -5t27.5 -13q16 -8 24.5 -11t19.5 -3q15 0 27 12t18 25zM136 829h227v-57h-227v57z
M30 300q0 83 16 142t45 97t69.5 56t90.5 18q49 0 90 -18t70 -56t45.5 -97t16.5 -142t-16.5 -142.5t-45.5 -97.5t-70 -55.5t-90 -17.5q-50 0 -90.5 17.5t-69.5 55.5t-45 97.5t-16 142.5zM114 300q0 -122 33 -182t102 -60q140 0 140 242t-140 242q-69 0 -102 -60t-33 -182z
" />
    <glyph glyph-name="uni022D" unicode="&#x22d;" 
d="M460 232q0 -55 -15.5 -99.5t-43.5 -76.5t-67 -49.5t-85 -17.5q-45 0 -83.5 17.5t-66.5 49.5t-43.5 76.5t-15.5 99.5t15.5 100t43.5 76.5t66.5 49t83.5 17.5q46 0 85 -17.5t67 -49t43.5 -76.5t15.5 -100zM375 232q0 79 -34 124.5t-92 45.5q-57 0 -90.5 -45.5t-33.5 -124.5
q0 -78 33.5 -123.5t90.5 -45.5q58 0 92 45.5t34 123.5zM388 604q-3 -11 -11 -24t-19 -24t-26 -19t-32 -8q-16 0 -31 5t-28 13q-15 7 -24 10.5t-20 3.5q-15 0 -26.5 -12.5t-17.5 -25.5l-40 18q3 11 10.5 24t18.5 24.5t25 19.5t32 8q17 0 31.5 -5t27.5 -13q16 -8 24.5 -11
t19.5 -3q15 0 27 12t18 25zM136 716h227v-57h-227v57z" />
    <glyph glyph-name="uni022E" unicode="&#x22e;" 
d="M29 310q0 83 16 144t45 100.5t69.5 59t90.5 19.5q49 0 90 -19.5t70 -59t45.5 -100.5t16.5 -144t-16.5 -144t-45.5 -101t-70 -59t-90 -19q-50 0 -90.5 19t-69.5 59t-45 101t-16 144zM113 310q0 -122 33 -187t102 -65q70 0 105 65t35 187t-35 187t-105 65q-69 0 -102 -65
t-33 -187zM250 681q-25 0 -42.5 16.5t-17.5 44.5q0 27 17.5 43.5t42.5 16.5t42.5 -16.5t17.5 -43.5q0 -28 -17.5 -44.5t-42.5 -16.5z" />
    <glyph glyph-name="uni022F" unicode="&#x22f;" 
d="M460 232q0 -55 -15.5 -99.5t-43.5 -76.5t-67 -49.5t-85 -17.5q-45 0 -83.5 17.5t-66.5 49.5t-43.5 76.5t-15.5 99.5t15.5 100t43.5 76.5t66.5 49t83.5 17.5q46 0 85 -17.5t67 -49t43.5 -76.5t15.5 -100zM375 232q0 79 -34 124.5t-92 45.5q-57 0 -90.5 -45.5t-33.5 -124.5
q0 -78 33.5 -123.5t90.5 -45.5q58 0 92 45.5t34 123.5zM250 542q-25 0 -42.5 16.5t-17.5 44.5q0 27 17.5 43.5t42.5 16.5t42.5 -16.5t17.5 -43.5q0 -28 -17.5 -44.5t-42.5 -16.5z" />
    <glyph glyph-name="uni0230" unicode="&#x230;" 
d="M250 647q-21 0 -35 13.5t-14 36.5t14 36.5t35 13.5t35 -13.5t14 -36.5t-14 -36.5t-35 -13.5zM137 829h226v-57h-226v57zM30 300q0 83 16 142t45 97t69.5 56t90.5 18q49 0 90 -18t70 -56t45.5 -97t16.5 -142t-16.5 -142.5t-45.5 -97.5t-70 -55.5t-90 -17.5
q-50 0 -90.5 17.5t-69.5 55.5t-45 97.5t-16 142.5zM114 300q0 -122 33 -182t102 -60q140 0 140 242t-140 242q-69 0 -102 -60t-33 -182z" />
    <glyph glyph-name="uni0231" unicode="&#x231;" 
d="M460 232q0 -55 -15.5 -99.5t-43.5 -76.5t-67 -49.5t-85 -17.5q-45 0 -83.5 17.5t-66.5 49.5t-43.5 76.5t-15.5 99.5t15.5 100t43.5 76.5t66.5 49t83.5 17.5q46 0 85 -17.5t67 -49t43.5 -76.5t15.5 -100zM375 232q0 79 -34 124.5t-92 45.5q-57 0 -90.5 -45.5t-33.5 -124.5
q0 -78 33.5 -123.5t90.5 -45.5q58 0 92 45.5t34 123.5zM250 524q-21 0 -35 13.5t-14 36.5t14 36.5t35 13.5t35 -13.5t14 -36.5t-14 -36.5t-35 -13.5zM137 716h226v-57h-226v57z" />
    <glyph glyph-name="uni0232" unicode="&#x232;" 
d="M210 0v230q-61 100 -110.5 195t-86.5 194h92q29 -84 66.5 -160.5t80.5 -157.5q46 85 81.5 161.5t64.5 156.5h90q-38 -98 -87 -191t-109 -196v-232h-82zM123 774h254v-64h-254v64z" />
    <glyph glyph-name="uni0233" unicode="&#x233;" 
d="M51 -87q9 -5 25.5 -8t30.5 -3q49 0 76.5 21.5t50.5 70.5q-56 106 -105 227.5t-81 242.5h90q10 -40 23.5 -86.5t30.5 -95.5t36.5 -98.5t41.5 -94.5q16 46 30 91t26 90.5t24 93t25 100.5h86q-32 -130 -71.5 -252t-84.5 -226q-17 -40 -36.5 -69t-42.5 -48t-52 -28t-66 -9
q-19 0 -41.5 5t-30.5 9zM123 635h254v-64h-254v64z" />
    <glyph glyph-name="uni0234" unicode="&#x234;" 
d="M235 64q37 26 81 26q27 0 49 -10.5t37.5 -27.5t24 -40.5t8.5 -48.5q0 -22 -7.5 -45t-23.5 -41.5t-41 -30t-60 -11.5q-51 0 -83 20.5t-49 57.5l-67 -81l-43 38l93 112q-1 8 -1 14.5v14.5v607h-99v70h181v-624zM304 28q-23 0 -38.5 -10t-30.5 -26v-22q0 -32 18 -52t50 -20
t48 19.5t16 45.5q0 27 -15.5 46t-47.5 19z" />
    <glyph glyph-name="uni0235" unicode="&#x235;" 
d="M240 259q0 43 -3.5 70.5t-12 43.5t-22 22t-32.5 6q-15 0 -30 -4t-20 -6v-391h-83v451q22 8 58 15.5t84 7.5q42 0 69.5 -12t44 -36t23 -59.5t6.5 -82.5v-220q17 13 34 19.5t38 6.5q24 0 43.5 -10.5t33.5 -27.5t21.5 -40.5t7.5 -48.5q0 -22 -7 -45t-21.5 -41.5t-37.5 -30
t-54 -11.5q-47 0 -76.5 20.5t-45.5 57.5l-67 -81l-43 38l94 112q0 4 -0.5 12t-1 17.5t-0.5 17.5v12v218zM381 28q-19 0 -32 -10t-27 -26v-22q0 -32 16 -52t42 -20t39 19.5t13 45.5q0 27 -12.5 46t-38.5 19z" />
    <glyph glyph-name="uni0236" unicode="&#x236;" 
d="M243 64q18 13 34 19.5t39 6.5q27 0 49 -10.5t37.5 -27.5t24 -40.5t8.5 -48.5q0 -22 -7.5 -45t-23.5 -41.5t-41 -30t-60 -11.5q-51 0 -79 20.5t-45 57.5l-67 -81l-43 38l93 112q-1 8 -1 14.5v14.5v384h-98v69h98v130l82 14v-144h187v-69h-187v-331zM304 28
q-23 0 -34.5 -10t-26.5 -26v-22q0 -32 14 -52t46 -20t48 19.5t16 45.5q0 27 -15.5 46t-47.5 19z" />
    <glyph glyph-name="dotlessj" unicode="&#x237;" 
d="M114 395v69h270v-459q0 -48 -13.5 -81.5t-36 -54.5t-52 -30t-62.5 -9q-38 0 -76.5 8t-72.5 25l25 70q25 -12 55.5 -20.5t58.5 -8.5q40 0 66 20.5t26 79.5v391h-188z" />
    <glyph glyph-name="uni0238" unicode="&#x238;" 
d="M213 679l74 14v-246q14 13 30 20.5t34 7.5q22 0 44 -12t39.5 -40t28 -74.5t10.5 -116.5q0 -122 -37.5 -182.5t-101.5 -60.5q-24 0 -45 6.5t-38 15.5q-16 -9 -36 -15.5t-43 -6.5q-72 0 -108.5 65t-36.5 178q0 70 11 116.5t29 74.5t41 40t46 12q20 0 35.5 -9t23.5 -19v232z
M287 68q8 -5 18 -8t18 -3q15 0 28.5 9t23.5 30t15.5 54.5t5.5 81.5q0 54 -4 88t-11.5 53.5t-18 26.5t-23.5 7q-14 0 -27.5 -10.5t-24.5 -25.5v-303zM213 371q-7 13 -20 24.5t-28 11.5q-13 0 -24 -7t-19.5 -26.5t-13 -53.5t-4.5 -88q0 -48 5.5 -81.5t15 -54.5t21.5 -30t26 -9
t25.5 3.5t15.5 6.5v304z" />
    <glyph glyph-name="uni0239" unicode="&#x239;" 
d="M213 18q-14 -14 -30 -21.5t-34 -7.5q-23 0 -44.5 12t-39 40t-28 74.5t-10.5 116.5q0 123 37.5 183t101.5 60q24 0 45 -6.5t38 -15.5q16 9 35.5 15.5t43.5 6.5q72 0 108.5 -65t36.5 -178q0 -70 -11 -116.5t-29 -74.5t-41 -40t-46 -12q-20 0 -35.5 9t-23.5 20v-183h-74v183
zM213 396q-8 6 -18 8.5t-18 2.5q-15 0 -28.5 -9t-23.5 -29.5t-15.5 -54t-5.5 -82.5q0 -54 4 -88t11.5 -53.5t18 -26.5t23.5 -7q14 0 27.5 10.5t24.5 26.5v302zM287 94q7 -13 20 -25t28 -12q13 0 24 7t19 26.5t13 53.5t5 88q0 49 -5.5 82.5t-15 54t-22 29.5t-25.5 9
q-14 0 -25.5 -3.5t-15.5 -7.5v-302z" />
    <glyph glyph-name="uni023A" unicode="&#x23a;" 
d="M404 0l-37 162h-88l-71 -252l-63 18l66 234h-82l-36 -162h-84q17 66 38 143t45.5 158t51.5 162.5t57 155.5h102q5 -16 9.5 -30t10.5 -30l39 135l61 -16l-63 -222q19 -59 37 -119.5t34.5 -119t31.5 -114t28 -103.5h-87zM249 547q-23 -63 -50 -146t-51 -171h82l58 206
q-11 33 -20 59t-19 52zM323 328l-29 -100h57z" />
    <glyph glyph-name="uni023B" unicode="&#x23b;" 
d="M460 26q-35 -20 -74.5 -29.5t-84.5 -9.5q-17 0 -33.5 1.5t-31.5 6.5l-23 -85l-64 18l25 91q-59 34 -93.5 106t-34.5 185q0 79 20 139t55.5 101t84.5 62t108 21q8 0 16 -0.5t16 -1.5l18 63l62 -16l-17 -60q16 -5 32 -12t32 -16l-24 -68q-28 15 -60 25l-133 -479
q27 -8 55 -8q29 0 61 7.5t66 26.5zM130 310q0 -75 18 -126t50 -81l129 457h-9q-94 0 -141 -68t-47 -182z" />
    <glyph glyph-name="uni023C" unicode="&#x23c;" 
d="M40 231q0 63 20.5 109t56.5 76t83.5 44.5t101.5 14.5h12t13 -1l24 75l55 -19l-20 -62l28 -6t30 -8l-19 -71q-17 5 -32 9t-30 6l-105 -331q12 -2 24.5 -3t26.5 -1q33 0 64 3.5t66 15.5l12 -69q-35 -13 -72 -18.5t-81 -5.5q-33 0 -63 6l-22 -70l-56 19l21 66
q-64 25 -101 80.5t-37 140.5zM124 231q0 -55 21 -90.5t57 -55.5l102 317q-37 0 -70 -10t-57.5 -30.5t-38.5 -52.5t-14 -78z" />
    <glyph glyph-name="uni023D" unicode="&#x23d;" 
d="M460 70v-70h-351v289h-73v67h73v263h82v-263h141v-67h-141v-219h269z" />
    <glyph glyph-name="uni023E" unicode="&#x23e;" 
d="M273 283v-283h-82v154l-120 -189l-53 34l173 273v277h-170v70h390l37 58l54 -34zM273 401l93 148h-93v-148z" />
    <glyph glyph-name="uni023F" unicode="&#x23f;" 
d="M350 116q0 25 -20.5 41t-51 28t-66.5 23.5t-66.5 28.5t-51 42t-20.5 65q0 56 45.5 93.5t142.5 37.5q38 0 78.5 -5.5t69.5 -14.5l-14 -74q-8 4 -22.5 8.5t-32.5 8t-38.5 5.5t-39.5 2q-109 0 -109 -59q0 -21 20.5 -35.5t51 -26.5t66.5 -24.5t66.5 -30.5t51 -43.5
t20.5 -64.5q0 -54 -46.5 -86.5t-153.5 -32.5q-16 0 -25.5 0.5t-20.5 1.5l55 -49q24 -21 57.5 -36t87.5 -15q8 0 19 1t22 3l8 -67q-11 -3 -28 -4.5t-28 -1.5q-36 0 -61.5 5t-45 15t-37 24t-38.5 32q-18 15 -34 31.5t-31.5 31.5t-31.5 28t-35 21l28 73q42 -17 76.5 -21
t66.5 -4q23 0 44 2t37 7t25.5 13.5t9.5 22.5z" />
    <glyph glyph-name="uni0240" unicode="&#x240;" 
d="M420 402q-19 -21 -49.5 -57.5t-66 -82.5t-71.5 -97.5t-66 -100.5q21 -4 38 -12.5t31.5 -18.5t25.5 -20t19 -18q15 -15 30 -31t31 -29t34 -21t39 -8q4 0 15 0.5t22 2.5l9 -68q-11 -3 -28 -4.5t-28 -1.5q-30 0 -51.5 7.5t-39.5 19.5t-34 28l-34 34q-10 10 -24.5 23
t-33.5 25t-43 20t-53 8h-18v55q21 40 52.5 87.5t65 94t66 88t56.5 70.5h-229v69h335v-62z" />
    <glyph glyph-name="uni0241" unicode="&#x241;" 
d="M250 0h-82v187q0 36 7 62t21 46t35.5 36t51.5 33q34 20 58 44t24 62q0 45 -35.5 68.5t-87.5 23.5q-49 0 -88 -14t-58 -26l-28 67q10 7 29 15t42.5 14.5t50.5 10.5t54 4q102 0 153.5 -45t51.5 -114q0 -34 -8 -58t-22.5 -42t-35 -33t-44.5 -30q-23 -15 -39.5 -28
t-27.5 -27.5t-16.5 -33.5t-5.5 -46v-176z" />
    <glyph glyph-name="uni0242" unicode="&#x242;" 
d="M254 0h-80v114q0 30 7.5 51.5t21 38.5t32.5 30.5t41 27.5q26 15 46.5 34t20.5 46q0 35 -28.5 49t-70.5 14q-18 0 -37.5 -4t-38 -9.5t-33.5 -12t-24 -11.5l-26 69q9 5 26.5 12t39.5 13t46.5 10t48.5 4q88 0 133.5 -34t45.5 -96q0 -27 -8 -47.5t-21 -36.5t-30.5 -28
t-35.5 -24q-17 -11 -30.5 -21t-24 -21.5t-16 -26t-5.5 -33.5v-108z" />
    <glyph glyph-name="uni0243" unicode="&#x243;" 
d="M217 -5q-15 0 -34 1t-39 2.5t-39 4.5t-34 7v134h-53v62h53v404q15 4 34 7t38.5 4.5t38.5 2.5t34 1q44 0 81.5 -8t65.5 -27t43.5 -50t15.5 -77q0 -22 -7 -42.5t-19.5 -38.5t-29 -31.5t-35.5 -20.5q51 -14 85.5 -51.5t34.5 -97.5q0 -93 -55.5 -139.5t-178.5 -46.5zM154 289
v-83h109v-62h-109v-76q10 -2 24.5 -3t43.5 -1q28 0 55 5t47 18.5t32.5 35.5t12.5 57q0 31 -11 52t-30 33.5t-44 18t-52 5.5h-78zM154 357h59q23 0 46 5t41 16t29 30t11 48q0 27 -9.5 46t-26 31t-38 17t-45.5 5q-23 0 -41 -0.5t-26 -2.5v-195z" />
    <glyph glyph-name="uni0244" unicode="&#x244;" 
d="M250 -13q-97 0 -138 56t-41 161v102h-53v61h53v252h83v-252h192v252h83v-252h53v-61h-53v-102q0 -104 -41 -160.5t-138 -56.5zM250 58q22 0 40 6.5t30.5 24t19 47.5t6.5 77v93h-192v-93q0 -47 6.5 -77t19 -47.5t30 -24t40.5 -6.5z" />
    <glyph glyph-name="uni0245" unicode="&#x245;" 
d="M402 0q-20 101 -43.5 190t-45 160.5t-39 122t-25.5 74.5q-9 -25 -27 -76.5t-40 -123.5t-45.5 -160.5t-43.5 -186.5h-84q23 89 45 167.5t44.5 153t47.5 147.5t55 151h102q26 -70 53 -151.5t51.5 -164t46 -161t37.5 -142.5h-89z" />
    <glyph glyph-name="uni0246" unicode="&#x246;" 
d="M246 0l-34 -105l-64 17l29 88h-86v619h292l21 61l63 -17l-101 -304h57v-70h-80l-73 -219h190v-70h-214zM173 359h123l64 190h-187v-190zM173 70h27l73 219h-100v-219z" />
    <glyph glyph-name="uni0247" unicode="&#x247;" 
d="M259 475q8 0 15.5 -0.5t15.5 -1.5l24 76l56 -19l-23 -72q53 -23 81.5 -77t28.5 -142v-12.5t-1 -14.5h-188l-46 -143q15 -5 32 -6.5t36 -1.5q44 0 75 7t47 15l11 -68q-15 -8 -54 -17t-88 -9q-23 0 -43 2.5t-38 7.5l-24 -74l-55 19l24 77q-54 31 -80.5 85.5t-26.5 124.5
q0 62 19.5 108t50.5 76t70.5 45t80.5 15zM226 275l42 131q-2 0 -5 0.5t-5 0.5q-32 0 -56 -11t-40.5 -29.5t-26 -42.5t-11.5 -49h102zM373 275q0 38 -12 67.5t-37 46.5l-36 -114h85zM122 212q3 -79 47 -115l37 115h-84z" />
    <glyph glyph-name="uni0248" unicode="&#x248;" 
d="M127 549v70h284v-263h71v-67h-71v-90q0 -44 -9.5 -83t-32 -67.5t-61 -45t-96.5 -16.5q-59 0 -99.5 17t-58.5 33l33 67q18 -14 49 -30t71 -16q62 0 92 34t30 115v82h-125v67h125v193h-202z" />
    <glyph glyph-name="uni0249" unicode="&#x249;" 
d="M308 536q-26 0 -45 18t-19 49t19 49t45 18q27 0 45.5 -18t18.5 -49t-18.5 -49t-45.5 -18zM114 395v69h270v-187h77v-63h-77v-209q0 -48 -13.5 -81.5t-36 -54.5t-52 -30t-62.5 -9q-38 0 -76.5 8t-72.5 25l25 70q25 -12 55.5 -20.5t58.5 -8.5q40 0 66 20.5t26 79.5v210
h-188v63h188v118h-188z" />
    <glyph glyph-name="uni024A" unicode="&#x24a;" 
d="M29 310q0 83 15 144t41.5 100.5t64 59t82.5 19.5q46 0 83.5 -19.5t64.5 -59t42 -100.5t15 -144v-325q0 -41 7.5 -62.5t29.5 -21.5q5 0 15 1t15 3l8 -65q-8 -2 -22 -4.5t-25 -2.5q-35 0 -56.5 10.5t-33.5 31.5t-16 52.5t-4 72.5v61q-11 -32 -44.5 -53t-78.5 -21t-82.5 19
t-64 59t-41.5 101t-15 144zM113 310q0 -122 28.5 -187t88.5 -65q31 0 54 14t38.5 44t23 78t7.5 116q0 122 -30.5 187t-92.5 65q-60 0 -88.5 -65t-28.5 -187z" />
    <glyph glyph-name="uni024B" unicode="&#x24b;" 
d="M329 18q-14 -10 -40.5 -19.5t-58.5 -9.5q-44 0 -79.5 18t-60 50t-37.5 76.5t-13 97.5q0 56 15.5 101t43 76.5t66.5 48.5t87 17q52 0 92.5 -8.5t67.5 -16.5v-464q0 -41 10 -62.5t36 -21.5q6 0 16 1t16 3l8 -65q-8 -2 -23 -4.5t-26 -2.5q-37 0 -60 10.5t-36.5 31.5
t-18.5 52.5t-5 72.5v18zM125 231q0 -36 6.5 -66.5t20.5 -53t35.5 -35.5t51.5 -13q28 0 53 11t38 24v293q-11 4 -28.5 7t-49.5 3q-56 0 -91.5 -44.5t-35.5 -125.5z" />
    <glyph glyph-name="uni024C" unicode="&#x24c;" 
d="M440 430q0 -57 -30 -100.5t-80 -67.5q15 -24 33.5 -55t37.5 -65.5t37 -71t33 -70.5h-93q-14 34 -30.5 69t-33 67.5t-33 60.5t-31.5 48q-6 -1 -18 -1h-15h-53v-244h-82v244h-64v68h64v298q31 8 66 11.5t67 3.5q112 0 168.5 -49t56.5 -146zM221 554q-23 0 -35 -0.5
t-22 -2.5v-239h36q36 0 64.5 5t49 18.5t31.5 37t11 61.5q0 36 -11 59t-29.5 36.5t-43 19t-51.5 5.5z" />
    <glyph glyph-name="uni024D" unicode="&#x24d;" 
d="M99 0v183h-66v63h66v193q102 35 206 35q31 0 60.5 -2.5t64.5 -10.5l-15 -73q-32 9 -56.5 11.5t-53.5 2.5q-62 0 -124 -17v-139h166v-63h-166v-183h-82z" />
    <glyph glyph-name="uni024E" unicode="&#x24e;" 
d="M210 0v230q-30 49 -57 96t-51 95h-75v64h52q-33 65 -58 134h93q11 -35 24.5 -68t29.5 -66h167q15 34 28 66.5t26 67.5h90q-27 -69 -58 -134h52v-64h-76q-23 -47 -49.5 -93.5t-55.5 -95.5v-232h-82zM252 301q17 31 32 60.5t29 59.5h-124q30 -60 63 -120z" />
    <glyph glyph-name="uni024F" unicode="&#x24f;" 
d="M57 -87q10 -5 26 -8t30 -3q50 0 77.5 21.5t49.5 70.5q-28 52 -54.5 109.5t-49.5 117.5h-90v60h67q-17 46 -31.5 92t-27.5 91h88q10 -39 23.5 -86t30.5 -97h141q11 43 22.5 88t23.5 95h84q-12 -47 -24 -92.5t-26 -90.5h60v-60h-79q-20 -63 -41.5 -122t-44.5 -113
q-35 -80 -79.5 -117t-118.5 -37q-19 0 -41.5 5t-30.5 9zM276 86q12 34 22.5 67.5t21.5 67.5h-101q13 -35 27 -69t30 -66z" />
    <glyph glyph-name="uni0292" unicode="&#x292;" 
d="M154 196q19 22 41 49.5t43 54.5t39.5 52t30.5 43h-244v69h347v-48q-12 -20 -30.5 -46.5t-40.5 -55.5t-45.5 -58t-45.5 -54q38 -5 71 -16.5t58 -32t39 -51t14 -74.5q0 -48 -16.5 -84.5t-47.5 -60.5t-74 -36t-95 -12q-49 0 -90.5 8t-63.5 19l18 70q20 -10 56.5 -18t78.5 -8
q73 0 111 32.5t38 90.5q0 35 -15 57t-40 34.5t-56.5 17t-65.5 4.5h-15v54z" />
    <glyph glyph-name="apostrophe" unicode="&#x2bc;" 
d="M308 693v-17t-1 -15q-3 -46 -18.5 -83.5t-36.5 -72.5l-56 21q17 35 24.5 66.5t7.5 66.5q0 9 -0.5 19t-1.5 15h82z" />
    <glyph glyph-name="circumflex" unicode="&#x2c6;" 
d="M250 687l121 -128l-34 -39l-87 78l-87 -78l-34 39z" />
    <glyph glyph-name="caron" unicode="&#x2c7;" 
d="M129 651l34 39l87 -78l87 78l34 -39l-121 -128z" />
    <glyph glyph-name="uni02C9" unicode="&#x2c9;" 
d="M123 635h254v-64h-254v64z" />
    <glyph glyph-name="breve" unicode="&#x2d8;" 
d="M250 545q-25 0 -47 8.5t-38.5 24t-25.5 38.5t-8 53h54q1 -10 4 -21.5t10.5 -21t19.5 -15.5t31 -6t31.5 6t19.5 15.5t10 21t4 21.5h54q1 -30 -8 -53t-25.5 -38.5t-38.5 -24t-47 -8.5z" />
    <glyph glyph-name="dotaccent" unicode="&#x2d9;" 
d="M250 542q-25 0 -42.5 16.5t-17.5 44.5q0 27 17.5 43.5t42.5 16.5t42.5 -16.5t17.5 -43.5q0 -28 -17.5 -44.5t-42.5 -16.5z" />
    <glyph glyph-name="ring" unicode="&#x2da;" 
d="M342 605q0 -43 -27.5 -67.5t-64.5 -24.5t-64.5 24.5t-27.5 67.5q0 42 27.5 66.5t64.5 24.5t64.5 -24.5t27.5 -66.5zM297 605q0 23 -13.5 36t-33.5 13t-33.5 -13t-13.5 -36q0 -24 13.5 -37t33.5 -13t33.5 13t13.5 37z" />
    <glyph glyph-name="ogonek" unicode="&#x2db;" 
d="M270 -167q-51 0 -75 18t-24 50q0 21 11.5 39.5t27.5 35.5q21 23 35 31h83q-11 -8 -23.5 -18t-25.5 -24t-21 -24.5t-8 -23.5q0 -26 36 -26q6 0 16 1.5t20 4.5l7 -54q-23 -10 -59 -10z" />
    <glyph glyph-name="tilde" unicode="&#x2dc;" 
d="M388 635q-3 -11 -10.5 -25t-18.5 -26t-26 -20.5t-34 -8.5q-13 0 -30.5 7t-28.5 12q-26 14 -42 14q-13 0 -25 -13t-18 -27l-43 23q3 11 10.5 25t18.5 26t26 20.5t33 8.5q13 0 30.5 -7.5t28.5 -12.5q26 -14 42 -14q13 0 25.5 13t18.5 27z" />
    <glyph glyph-name="hungarumlaut" unicode="&#x2dd;" 
d="M253 643l-110 -125l-43 32l103 143zM400 643l-110 -125l-43 32l103 143z" />
    <glyph glyph-name="breve_inverted" unicode="&#x311;" 
d="M250 669q25 0 47 -8.5t38.5 -24.5t25.5 -39t8 -52h-54q-1 10 -4 21.5t-10 21t-19.5 15.5t-31.5 6t-31 -6t-19.5 -15.5t-10.5 -21t-4 -21.5h-54q-1 29 8 52t25.5 39t38.5 24.5t47 8.5z" />
    <glyph glyph-name="tonos" unicode="&#x384;" 
d="M329 655l-116 -142l-49 34l101 152z" />
    <glyph glyph-name="dieresistonos" unicode="&#x385;" 
d="M311 658l-93 -142l-47 28l80 153zM370 555q-21 0 -35 13t-14 36q0 22 14 35.5t35 13.5q20 0 34 -13.5t14 -35.5q0 -23 -14 -36t-34 -13zM113 555q-20 0 -34.5 13t-14.5 36q0 22 14.5 35.5t34.5 13.5t34 -13.5t14 -35.5q0 -23 -14 -36t-34 -13z" />
    <glyph glyph-name="Alphatonos" unicode="&#x386;" 
d="M404 0l-37 162h-238l-36 -162h-84q17 66 38 143t45.5 158t51.5 162.5t57 155.5h102q29 -74 55.5 -155.5t50 -162.5t44.5 -158t38 -143h-87zM249 547q-23 -63 -50 -146t-51 -171h200q-23 90 -49.5 173.5t-49.5 143.5zM134 613l-61 -174l-61 15l41 179z" />
    <glyph glyph-name="Epsilontonos" unicode="&#x388;" 
d="M54 613l-61 -174l-61 15l41 179zM91 0v619h347v-70h-265v-190h232v-70h-232v-219h287v-70h-369z" />
    <glyph glyph-name="Etatonos" unicode="&#x389;" 
d="M373 619h82v-619h-82v288h-246v-288h-82v619h82v-261h246v261zM2 613l-61 -174l-61 15l41 179z" />
    <glyph glyph-name="Iotatonos" unicode="&#x38a;" 
d="M291 549v-479h120v-70h-322v70h120v479h-120v70h322v-70h-120zM48 613l-61 -174l-61 15l41 179z" />
    <glyph glyph-name="Omicrontonos" unicode="&#x38c;" 
d="M50 613l-61 -174l-61 15l41 179zM29 310q0 83 16 144t45 100.5t69.5 59t90.5 19.5q49 0 90 -19.5t70 -59t45.5 -100.5t16.5 -144t-16.5 -144t-45.5 -101t-70 -59t-90 -19q-50 0 -90.5 19t-69.5 59t-45 101t-16 144zM113 310q0 -122 33 -187t102 -65q70 0 105 65t35 187
t-35 187t-105 65q-69 0 -102 -65t-33 -187z" />
    <glyph glyph-name="Upsilontonos" unicode="&#x38e;" 
d="M-8 613l-61 -174l-61 15l41 179zM210 0v230q-61 100 -110.5 195t-86.5 194h92q29 -84 66.5 -160.5t80.5 -157.5q46 85 81.5 161.5t64.5 156.5h90q-38 -98 -87 -191t-109 -196v-232h-82z" />
    <glyph glyph-name="Omegatonos" unicode="&#x38f;" 
d="M18 70h109q-48 61 -71 135.5t-23 148.5q0 55 13.5 106t41 89t68.5 61t95 23t95 -23t68.5 -61t41 -89t13.5 -106q0 -74 -23.5 -148.5t-70.5 -135.5h107v-70h-197v60q24 26 43 60t31.5 72.5t19.5 79.5t7 81q0 42 -8 80t-24.5 66.5t-42 45.5t-60.5 17t-60.5 -17t-42 -45.5
t-24.5 -66.5t-8 -80q0 -40 7 -81t19.5 -79.5t31.5 -72.5t43 -60v-60h-199v70zM48 613l-61 -174l-61 15l41 179z" />
    <glyph glyph-name="iotadieresistonos" unicode="&#x390;" 
d="M450 15q-28 -14 -58 -20t-58 -6q-40 0 -68 9.5t-45 31t-25 55.5t-8 83v227h-134v69h216v-283q0 -36 4 -59t13 -36t24 -18t38 -5q14 0 40 5t49 17zM285 658l-93 -142l-47 28l80 153zM344 555q-21 0 -35 13t-14 36q0 22 14 35.5t35 13.5q20 0 34 -13.5t14 -35.5
q0 -23 -14 -36t-34 -13zM87 555q-20 0 -34.5 13t-14.5 36q0 22 14.5 35.5t34.5 13.5t34 -13.5t14 -35.5q0 -23 -14 -36t-34 -13z" />
    <glyph glyph-name="Alpha" unicode="&#x391;" 
d="M404 0l-37 162h-238l-36 -162h-84q17 66 38 143t45.5 158t51.5 162.5t57 155.5h102q29 -74 55.5 -155.5t50 -162.5t44.5 -158t38 -143h-87zM249 547q-23 -63 -50 -146t-51 -171h200q-23 90 -49.5 173.5t-49.5 143.5z" />
    <glyph glyph-name="Beta" unicode="&#x392;" 
d="M204 -5q-15 0 -35 1t-40 2.5t-40 4.5t-35 7v600q15 4 34.5 7t40 4.5t40 2.5t35.5 1q46 0 86 -8t69.5 -27t46 -50t16.5 -77q0 -22 -7 -42t-19 -37t-27 -31t-31 -23q48 -17 80 -53t32 -96q0 -92 -58.5 -139t-187.5 -47zM136 289v-221q2 -1 22.5 -2.5t51.5 -1.5t59.5 5
t50.5 18.5t35 35.5t13 57q0 31 -10 52t-28 33.5t-42.5 18t-54.5 5.5h-97zM136 357h78q25 0 48 5t40.5 16t27.5 30t10 48q0 27 -11 46t-29 31t-41.5 17t-49.5 5t-45.5 -0.5t-27.5 -2.5v-195z" />
    <glyph glyph-name="Gamma" unicode="&#x393;" 
d="M143 70v549h317v-70h-235v-479h134v-70h-305v70h89z" />
    <glyph glyph-name="uni0394" unicode="&#x394;" 
d="M9 0q23 89 45.5 167.5t45.5 153t48.5 147.5t55.5 151h95q27 -70 54 -151.5t52.5 -164t47.5 -161t38 -142.5h-482zM253 547q-9 -25 -25.5 -70.5t-36 -107.5t-41 -138t-41.5 -161h279q-20 85 -40.5 161t-38.5 138t-33 108t-23 70z" />
    <glyph glyph-name="Epsilon" unicode="&#x395;" 
d="M91 0v619h347v-70h-265v-190h232v-70h-232v-219h287v-70h-369z" />
    <glyph glyph-name="Zeta" unicode="&#x396;" 
d="M447 552q-32 -44 -71.5 -104t-80.5 -125.5t-79.5 -131.5t-67.5 -121h307v-70h-401v67q33 61 70.5 124.5t76.5 126t77.5 121.5t73.5 110h-283v70h378v-67z" />
    <glyph glyph-name="Eta" unicode="&#x397;" 
d="M373 619h82v-619h-82v288h-246v-288h-82v619h82v-261h246v261z" />
    <glyph glyph-name="Theta" unicode="&#x398;" 
d="M175 347h152v-71h-152v71zM29 310q0 83 16 144t45 100.5t69.5 59t90.5 19.5q49 0 90 -19.5t70 -59t45.5 -100.5t16.5 -144t-16.5 -144t-45.5 -101t-70 -59t-90 -19q-50 0 -90.5 19t-69.5 59t-45 101t-16 144zM113 310q0 -122 33 -187t102 -65q70 0 105 65t35 187t-35 187
t-105 65q-69 0 -102 -65t-33 -187z" />
    <glyph glyph-name="Iota" unicode="&#x399;" 
d="M291 549v-479h120v-70h-322v70h120v479h-120v70h322v-70h-120z" />
    <glyph glyph-name="Kappa" unicode="&#x39a;" 
d="M443 619q-30 -50 -56 -88.5t-51 -72.5t-51 -65t-57 -65q30 -27 63 -62.5t64.5 -78t59.5 -90t49 -97.5h-93q-22 46 -48 90t-55 83t-60 70.5t-62 54.5v-298h-82v619h82v-276q28 32 56.5 67t54.5 70.5t49 70.5t42 68h95z" />
    <glyph glyph-name="Lambda" unicode="&#x39b;" 
d="M402 0q-20 101 -43.5 190t-45 160.5t-39 122t-25.5 74.5q-9 -25 -27 -76.5t-40 -123.5t-45.5 -160.5t-43.5 -186.5h-84q23 89 45 167.5t44.5 153t47.5 147.5t55 151h102q26 -70 53 -151.5t51.5 -164t46 -161t37.5 -142.5h-89z" />
    <glyph glyph-name="Mu" unicode="&#x39c;" 
d="M250 311l91 308h91q6 -59 11 -132t9 -153.5t8 -165.5t7 -168h-79q-2 54 -3 119t-2.5 134t-3 139.5t-3.5 135.5l-85 -293h-82l-87 293q0 -65 -1 -135.5t-2.5 -139.5t-3 -134t-2.5 -119h-79q6 161 13 312.5t21 306.5h91z" />
    <glyph glyph-name="Nu" unicode="&#x39d;" 
d="M363 0q-17 42 -41.5 96.5t-54.5 118t-65 134.5t-72 145v-494h-75v619h83q31 -54 66 -119.5t67 -131.5t58.5 -126.5t41.5 -103.5v481h75v-619h-83z" />
    <glyph glyph-name="Xi" unicode="&#x39e;" 
d="M455 548h-409v71h409v-71zM37 71h426v-71h-426v71zM85 361h330v-73h-330v73z" />
    <glyph glyph-name="Omicron" unicode="&#x39f;" 
d="M29 310q0 83 16 144t45 100.5t69.5 59t90.5 19.5q49 0 90 -19.5t70 -59t45.5 -100.5t16.5 -144t-16.5 -144t-45.5 -101t-70 -59t-90 -19q-50 0 -90.5 19t-69.5 59t-45 101t-16 144zM113 310q0 -122 33 -187t102 -65q70 0 105 65t35 187t-35 187t-105 65q-69 0 -102 -65
t-33 -187z" />
    <glyph glyph-name="Pi" unicode="&#x3a0;" 
d="M373 0v549h-246v-549h-82v619h410v-619h-82z" />
    <glyph glyph-name="Rho" unicode="&#x3a1;" 
d="M235 625q106 0 163 -49.5t57 -147.5q0 -107 -61 -152.5t-167 -45.5h-72v-230h-82v609q18 4 39.5 7.5t43 5t42 2.5t37.5 1zM241 554q-26 0 -50 -1t-36 -3v-250h68q33 0 60 6t46.5 21t30.5 39.5t11 62.5q0 36 -11 60.5t-29 38.5t-41.5 20t-48.5 6z" />
    <glyph glyph-name="Sigma" unicode="&#x3a3;" 
d="M325 322q-49 -64 -102 -128t-95 -124h319v-70h-407v65q34 55 87 121t107 135q-52 69 -101.5 133.5t-79.5 109.5v55h393v-70h-292q13 -19 32 -45t42 -56t48 -62.5t49 -63.5z" />
    <glyph glyph-name="Tau" unicode="&#x3a4;" 
d="M464 619v-70h-173v-549h-82v549h-173v70h428z" />
    <glyph glyph-name="Upsilon" unicode="&#x3a5;" 
d="M210 0v230q-61 100 -110.5 195t-86.5 194h92q29 -84 66.5 -160.5t80.5 -157.5q46 85 81.5 161.5t64.5 156.5h90q-38 -98 -87 -191t-109 -196v-232h-82z" />
    <glyph glyph-name="Phi" unicode="&#x3a6;" 
d="M42 332q0 118 48.5 180t128.5 73v74h73v-74q79 -11 127.5 -73t48.5 -180q0 -59 -12.5 -104t-36 -76.5t-56 -49.5t-71.5 -24v-78h-73v78q-40 6 -72.5 24t-56 49.5t-36 76.5t-12.5 104zM124 332q0 -82 22.5 -128t72.5 -57v370q-50 -11 -72.5 -57.5t-22.5 -127.5zM386 332
q0 160 -94 184v-368q94 23 94 184z" />
    <glyph glyph-name="Chi" unicode="&#x3a7;" 
d="M381 0q-11 27 -26 61t-32 70t-36.5 72t-40.5 67q-35 -56 -69.5 -128.5t-64.5 -141.5h-90q33 74 77.5 160.5t94.5 165.5l-162 293h91l122 -237l129 237h89l-164 -289q48 -78 93 -162t80 -168h-91z" />
    <glyph glyph-name="Psi" unicode="&#x3a8;" 
d="M287 0h-74v158q-47 0 -79.5 18t-52.5 51t-29 79.5t-9 103.5v209h82v-206q0 -101 19.5 -143t68.5 -42v247h74v-247q49 0 68.5 42t19.5 143v206h82v-209q0 -57 -9 -103.5t-29 -79.5t-52.5 -51t-79.5 -18v-158z" />
    <glyph glyph-name="Omega" unicode="&#x3a9;" 
d="M18 70h109q-48 61 -71 135.5t-23 148.5q0 55 13.5 106t41 89t68.5 61t95 23t95 -23t68.5 -61t41 -89t13.5 -106q0 -74 -23.5 -148.5t-70.5 -135.5h107v-70h-197v60q24 26 43 60t31.5 72.5t19.5 79.5t7 81q0 42 -8 80t-24.5 66.5t-42 45.5t-60.5 17t-60.5 -17t-42 -45.5
t-24.5 -66.5t-8 -80q0 -40 7 -81t19.5 -79.5t31.5 -72.5t43 -60v-60h-199v70z" />
    <glyph glyph-name="Iotadieresis" unicode="&#x3aa;" 
d="M291 549v-479h120v-70h-322v70h120v479h-120v70h322v-70h-120zM165 689q-20 0 -36 15t-16 38t16 37.5t36 14.5q21 0 36.5 -14.5t15.5 -37.5t-15.5 -38t-36.5 -15zM335 689q-21 0 -36.5 15t-15.5 38t15.5 37.5t36.5 14.5t36.5 -14.5t15.5 -37.5t-15.5 -38t-36.5 -15z" />
    <glyph glyph-name="Upsilondieresis" unicode="&#x3ab;" 
d="M210 0v230q-61 100 -110.5 195t-86.5 194h92q29 -84 66.5 -160.5t80.5 -157.5q46 85 81.5 161.5t64.5 156.5h90q-38 -98 -87 -191t-109 -196v-232h-82zM165 689q-20 0 -36 15t-16 38t16 37.5t36 14.5q21 0 36.5 -14.5t15.5 -37.5t-15.5 -38t-36.5 -15zM335 689
q-21 0 -36.5 15t-15.5 38t15.5 37.5t36.5 14.5t36.5 -14.5t15.5 -37.5t-15.5 -38t-36.5 -15z" />
    <glyph glyph-name="alphatonos" unicode="&#x3ac;" 
d="M269 474q48 0 91.5 -9.5t66.5 -17.5v-300q0 -22 1.5 -36.5t6 -24t13.5 -15.5t23 -10l-13 -70q-29 6 -47 15t-35 31q-20 -17 -52.5 -32t-77.5 -15q-48 0 -85 18t-61.5 50t-37.5 76t-13 97q0 56 15.5 101t44 76.5t69.5 48.5t91 17zM253 62q32 0 58 11.5t39 22.5
q-3 13 -4 26.5t-1 28.5v241q-7 3 -28 7t-45 4q-63 0 -100.5 -45.5t-37.5 -126.5q0 -36 6.5 -66.5t21 -53.5t37 -36t54.5 -13zM359 655l-116 -142l-49 34l101 152z" />
    <glyph glyph-name="epsilontonos" unicode="&#x3ad;" 
d="M289 476q23 0 46 -2t42.5 -5.5t34.5 -7.5t22 -7l-13 -71q-5 2 -18.5 6t-32 7.5t-39.5 6.5t-40 3q-53 0 -87 -15t-34 -50q0 -21 9 -34t23.5 -20t32.5 -9.5t36 -2.5h89v-66h-90q-23 0 -44 -3.5t-37 -12.5t-26 -23.5t-10 -35.5q0 -73 131 -73q27 0 53 3.5t47 8.5t36.5 10.5
t23.5 9.5l22 -70q-17 -9 -68 -21.5t-124 -12.5q-33 0 -69.5 5.5t-66.5 21t-49.5 43t-19.5 71.5q0 36 22 67t59 47q-10 4 -21 12t-20.5 20.5t-16 29t-6.5 37.5q0 67 55 100t148 33zM372 655l-116 -142l-49 34l101 152z" />
    <glyph glyph-name="etatonos" unicode="&#x3ae;" 
d="M71 451q45 11 89.5 17t83.5 6q93 0 140.5 -48t47.5 -154v-437h-82v422q0 45 -8 73t-22.5 43.5t-35 21.5t-44.5 6q-20 0 -42.5 -2.5t-43.5 -6.5v-392h-83v451zM351 655l-116 -142l-49 34l101 152z" />
    <glyph glyph-name="iotatonos" unicode="&#x3af;" 
d="M450 15q-28 -14 -58 -20t-58 -6q-40 0 -68 9.5t-45 31t-25 55.5t-8 83v227h-134v69h216v-283q0 -36 4 -59t13 -36t24 -18t38 -5q14 0 40 5t49 17zM338 655l-116 -142l-49 34l101 152z" />
    <glyph glyph-name="upsilondieresistonos" unicode="&#x3b0;" 
d="M249 -10q-54 0 -88.5 18t-54.5 48t-27.5 68t-7.5 77v263h83v-259q0 -78 24 -110.5t71 -32.5q48 0 72 32.5t24 110.5v259h82v-263q0 -39 -7.5 -77t-27.5 -68t-54.5 -48t-88.5 -18zM320 658l-93 -142l-47 28l80 153zM379 555q-21 0 -35 13t-14 36q0 22 14 35.5t35 13.5
q20 0 34 -13.5t14 -35.5q0 -23 -14 -36t-34 -13zM122 555q-20 0 -34.5 13t-14.5 36q0 22 14.5 35.5t34.5 13.5t34 -13.5t14 -35.5q0 -23 -14 -36t-34 -13z" />
    <glyph glyph-name="alpha" unicode="&#x3b1;" 
d="M269 474q48 0 91.5 -9.5t66.5 -17.5v-300q0 -22 1.5 -36.5t6 -24t13.5 -15.5t23 -10l-13 -70q-29 6 -47 15t-35 31q-20 -17 -52.5 -32t-77.5 -15q-48 0 -85 18t-61.5 50t-37.5 76t-13 97q0 56 15.5 101t44 76.5t69.5 48.5t91 17zM253 62q32 0 58 11.5t39 22.5
q-3 13 -4 26.5t-1 28.5v241q-7 3 -28 7t-45 4q-63 0 -100.5 -45.5t-37.5 -126.5q0 -36 6.5 -66.5t21 -53.5t37 -36t54.5 -13z" />
    <glyph glyph-name="beta" unicode="&#x3b2;" 
d="M154 -165h-83v663q0 49 14.5 85.5t39 61t57 36.5t68.5 12q35 0 65 -11t52.5 -33t35.5 -54t13 -75q0 -41 -24 -78.5t-70 -56.5q37 -10 63.5 -29.5t43 -44t24 -53.5t7.5 -58q0 -56 -17.5 -95.5t-45.5 -64t-63.5 -36t-71.5 -11.5q-61 0 -108 28v-186zM154 96
q20 -17 44.5 -24.5t49.5 -7.5t48 8t40.5 24t28 41t10.5 59q0 69 -35.5 108.5t-113.5 39.5h-6v68h7q45 0 75.5 26.5t30.5 80.5q0 51 -22.5 77t-60.5 26q-44 0 -70 -31.5t-26 -96.5v-398z" />
    <glyph glyph-name="gamma" unicode="&#x3b3;" 
d="M121 464q36 -92 68.5 -187t56.5 -186q57 100 90 197t50 176h82q-10 -43 -26.5 -98.5t-41 -117t-57.5 -126.5t-75 -128q8 -42 13 -82t7 -77h-80q-5 87 -25.5 177t-47.5 173t-55.5 155t-50.5 124h92z" />
    <glyph glyph-name="delta" unicode="&#x3b4;" 
d="M255 408q-64 -18 -98 -66.5t-34 -115.5q0 -33 7 -63t22 -53t39 -36.5t59 -13.5q32 0 56 12.5t39.5 34.5t23 51.5t7.5 62.5q0 41 -11 70.5t-28.5 51.5t-39 37.5t-42.5 27.5zM190 450q-34 24 -55 54t-21 64q0 63 45 94t123 31q49 0 85.5 -12t53.5 -20l-18 -64
q-5 3 -15.5 7.5t-26 9.5t-34.5 8.5t-41 3.5q-12 0 -27.5 -1.5t-30 -7t-24 -16t-9.5 -28.5q0 -24 23.5 -42.5t63.5 -46.5q36 -24 68 -48.5t56.5 -55t39 -70t14.5 -93.5q0 -42 -11.5 -83t-36.5 -73.5t-65 -52.5t-98 -20q-54 0 -94 19t-65.5 51t-38 75t-12.5 91
q0 84 41.5 141.5t109.5 84.5z" />
    <glyph glyph-name="epsilon" unicode="&#x3b5;" 
d="M289 476q23 0 46 -2t42.5 -5.5t34.5 -7.5t22 -7l-13 -71q-5 2 -18.5 6t-32 7.5t-39.5 6.5t-40 3q-53 0 -87 -15t-34 -50q0 -21 9 -34t23.5 -20t32.5 -9.5t36 -2.5h89v-66h-90q-23 0 -44 -3.5t-37 -12.5t-26 -23.5t-10 -35.5q0 -73 131 -73q27 0 53 3.5t47 8.5t36.5 10.5
t23.5 9.5l22 -70q-17 -9 -68 -21.5t-124 -12.5q-33 0 -69.5 5.5t-66.5 21t-49.5 43t-19.5 71.5q0 36 22 67t59 47q-10 4 -21 12t-20.5 20.5t-16 29t-6.5 37.5q0 67 55 100t148 33z" />
    <glyph glyph-name="zeta" unicode="&#x3b6;" 
d="M447 -47q0 -35 -13.5 -66.5t-29.5 -54.5l-72 22q4 6 9.5 16.5t11 23t9.5 26t4 25.5q0 15 -7 25t-21.5 17t-37 12.5t-54.5 10.5q-48 8 -83 23t-57 39t-32.5 58t-10.5 80q0 44 13.5 86.5t36 82t50.5 75t57 66t56.5 55t47.5 42.5h-235v70h342v-65q-21 -18 -50.5 -43.5
t-61 -56.5t-62 -67.5t-55 -76t-39.5 -81.5t-15 -84q0 -65 33 -94.5t107 -40.5q44 -7 74.5 -17.5t49 -25.5t27 -35t8.5 -47z" />
    <glyph glyph-name="eta" unicode="&#x3b7;" 
d="M71 451q45 11 89.5 17t83.5 6q93 0 140.5 -48t47.5 -154v-437h-82v422q0 45 -8 73t-22.5 43.5t-35 21.5t-44.5 6q-20 0 -42.5 -2.5t-43.5 -6.5v-392h-83v451z" />
    <glyph glyph-name="theta" unicode="&#x3b8;" 
d="M250 693q50 0 88 -24.5t63 -70.5t37.5 -111.5t12.5 -147.5t-12.5 -147.5t-37.5 -111t-63 -70t-88 -24.5t-88 24.5t-63 70t-37.5 111t-12.5 147.5t12.5 147.5t37.5 111.5t63 70.5t88 24.5zM250 57q30 0 51.5 18t35.5 51.5t21 80.5t9 105h-235q1 -58 8 -105t21.5 -80.5
t36.5 -51.5t52 -18zM250 622q-30 0 -51.5 -17t-35.5 -48.5t-21.5 -76t-9.5 -99.5h235q-2 55 -9.5 99.5t-21.5 76t-35.5 48.5t-50.5 17z" />
    <glyph glyph-name="iota" unicode="&#x3b9;" 
d="M450 15q-28 -14 -58 -20t-58 -6q-40 0 -68 9.5t-45 31t-25 55.5t-8 83v227h-134v69h216v-283q0 -36 4 -59t13 -36t24 -18t38 -5q14 0 40 5t49 17z" />
    <glyph glyph-name="kappa" unicode="&#x3ba;" 
d="M238 255q27 -20 61 -50.5t67.5 -65.5t63.5 -71.5t48 -67.5h-98q-19 31 -47 63.5t-59.5 62.5t-63 55t-56.5 42v-223h-83v464h83v-194q55 48 110 95.5t99 98.5h97q-43 -51 -103.5 -105t-118.5 -104z" />
    <glyph glyph-name="lambda" unicode="&#x3bb;" 
d="M375 0q-22 91 -52 190t-65 190q-26 -47 -48.5 -98.5t-41.5 -102t-33.5 -97t-23.5 -82.5h-82q13 50 33.5 109t46 121t54 124t58.5 117q-15 39 -27.5 68t-25 48t-27.5 28.5t-36 9.5q-13 0 -21.5 -1.5t-13.5 -3.5l-12 66q5 2 21 4.5t38 2.5q30 0 52.5 -9t39.5 -25t30.5 -38
t24.5 -49q33 -77 63 -153.5t56 -150t47.5 -141.5t37.5 -127h-93z" />
    <glyph glyph-name="uni03BC" unicode="&#x3bc;" 
d="M429 13q-27 -7 -71.5 -15.5t-104.5 -8.5q-41 0 -63.5 9t-39.5 24q3 -23 3.5 -46t0.5 -49v-92h-83v629h83v-243q0 -43 5.5 -73t18 -49t33 -27.5t50.5 -8.5q13 0 26.5 1t25.5 2t21 2.5t12 2.5v393h83v-451z" />
    </font>
</defs>
</svg>
