<?xml version="1.0" standalone="no"?>
<!DOCTYPE svg PUBLIC "-//W3C//DTD SVG 1.1//EN" "http://www.w3.org/Graphics/SVG/1.1/DTD/svg11.dtd" >
<svg xmlns="http://www.w3.org/2000/svg" xmlns:xlink="http://www.w3.org/1999/xlink" version="1.1">
<metadata>
Created by FontForge 20170731 at Mon Sep 26 19:51:02 2011
 By Aleksey,,,
Copyright 2011 Canonical Ltd.  Licensed under the Ubuntu Font Licence 1.0
</metadata>
<defs>
<font id="UbuntuMono-Italic" horiz-adv-x="500" >
  <font-face 
    font-family="Ubuntu Mono"
    font-weight="400"
    font-style="italic"
    font-stretch="normal"
    units-per-em="1000"
    panose-1="2 11 5 9 3 6 2 10 2 4"
    ascent="800"
    descent="-200"
    x-height="464"
    cap-height="619"
    bbox="-218 -170 672 835"
    underline-thickness="20"
    underline-position="-153"
    slope="-13"
    unicode-range="U+0008-FFFD"
  />
<missing-glyph 
d="M50 0v750h400v-750h-400zM400 50v650h-300v-650h300z" />
    <glyph glyph-name=".notdef" 
d="M50 0v750h400v-750h-400zM400 50v650h-300v-650h300z" />
    <glyph glyph-name=".null" 
 />
    <glyph glyph-name=".null" 
 />
    <glyph glyph-name=".null" 
 />
    <glyph glyph-name="nonmarkingreturn" unicode="&#x9;" 
 />
    <glyph glyph-name="nonmarkingreturn" unicode="&#xd;" 
 />
    <glyph glyph-name="space" unicode=" " 
 />
    <glyph glyph-name="exclam" unicode="!" 
d="M374 451q-9 -37 -17.5 -68t-17.5 -59t-18.5 -55.5t-19.5 -57.5h-57q4 30 7.5 57.5t8 55.5t10.5 59t15 68l40 168h89zM232 -12q-26 0 -42.5 15t-16.5 45q0 36 20.5 56t49.5 20q26 0 43.5 -15.5t17.5 -45.5q0 -35 -22.5 -55t-49.5 -20z" />
    <glyph glyph-name="quotedbl" unicode="&#x22;" 
d="M341 679l-11 -45q-11 -44 -29 -100.5t-38 -103.5h-42q5 47 13.5 103.5t19.5 101.5l10 44h77zM505 679l-10 -45q-11 -44 -29 -100.5t-37 -103.5h-42q4 47 12 103.5t19 101.5l11 44h76z" />
    <glyph glyph-name="numbersign" unicode="#" 
d="M300 0h-75l71 163h-111l-71 -163h-74l70 163h-64l16 67h76l69 159h-107l16 66h122l69 164h75l-69 -164h110l70 164h75l-70 -164h65l-16 -66h-78l-69 -159h108l-16 -67h-121zM393 389h-110l-69 -159h110z" />
    <glyph glyph-name="dollar" unicode="$" 
d="M244 88q26 0 51.5 4.5t45.5 16t32.5 30t12.5 47.5q0 20 -8 34t-21.5 25.5t-33 21t-41.5 20.5q-20 9 -39 20.5t-34 28t-24.5 39.5t-9.5 55q0 64 43.5 107t128.5 54l24 102h73l-24 -100q38 -4 68.5 -15.5t47.5 -22.5l-38 -62q-15 11 -44 20.5t-72 9.5q-26 0 -49 -5
t-40 -15.5t-27 -27t-10 -38.5q0 -37 22.5 -56.5t67.5 -41.5q25 -11 47 -23t38.5 -29t26.5 -40t10 -54q0 -39 -13.5 -69.5t-38.5 -52.5t-59 -35.5t-76 -17.5l-26 -115h-73l28 116q-46 2 -85 16t-55 25l40 66q16 -10 49 -24t85 -14z" />
    <glyph glyph-name="percent" unicode="%" 
d="M77 0h-72l527 619h72zM99 427q0 30 7.5 66t24.5 66.5t43.5 51.5t65.5 21q86 0 86 -103q0 -50 -11.5 -88.5t-31 -65t-44.5 -40.5t-53 -14q-42 0 -64.5 27t-22.5 79zM195 374q19 0 32 17.5t21.5 41t12 48.5t3.5 40q0 26 -8 42.5t-25 16.5q-13 0 -25.5 -11.5t-22.5 -31.5
t-16 -46.5t-6 -55.5q0 -28 8 -44.5t26 -16.5zM283 92q0 30 7.5 66t24.5 66.5t43.5 51.5t65.5 21q86 0 86 -103q0 -50 -11.5 -88.5t-31 -65t-44.5 -40t-53 -13.5q-42 0 -64.5 26.5t-22.5 78.5zM379 39q19 0 32 17.5t21.5 41t12 48.5t3.5 40q0 26 -8 42.5t-25 16.5
q-13 0 -25.5 -11.5t-22.5 -31.5t-16 -46.5t-6 -55.5q0 -28 8 -44.5t26 -16.5z" />
    <glyph glyph-name="ampersand" unicode="&#x26;" 
d="M322 282q12 -20 24.5 -39.5t25.5 -41.5q28 55 49 132l70 -9q-17 -59 -38 -106t-44 -84q14 -29 26 -61t23 -73h-86q-8 34 -18 66q-40 -39 -82.5 -56.5t-85.5 -17.5q-29 0 -52.5 10t-40.5 28t-26.5 42t-9.5 51q0 24 6.5 50.5t21 52.5t39 51t60.5 48l20 13q-15 28 -24 55
t-9 54q0 44 15 78.5t40.5 58.5t59 36.5t69.5 12.5q22 0 42 -6.5t35 -19t23.5 -32t8.5 -45.5q0 -24 -8 -50.5t-26 -53t-48 -52.5t-73 -48l-11 -5zM142 135q0 -32 17 -53t53 -21q28 0 57 16.5t58 51.5q-22 45 -46.5 83.5t-46.5 74.5l-9 -6q-26 -16 -42 -33t-25 -35
t-12.5 -37.5t-3.5 -40.5zM285 379q25 13 44.5 30.5t32.5 37t19.5 39t6.5 36.5q0 23 -15.5 34.5t-35.5 11.5q-16 0 -32 -7t-28.5 -22t-20 -37.5t-7.5 -53.5q0 -20 4.5 -37.5t15.5 -39.5z" />
    <glyph glyph-name="quotesingle" unicode="'" 
d="M432 679l-11 -45q-5 -22 -13 -50.5t-18 -59t-20 -60t-19 -52.5h-51q2 23 5.5 52.5t8.5 60t10.5 59.5t11.5 51l10 44h86z" />
    <glyph glyph-name="parenleft" unicode="(" 
d="M523 637q-65 -41 -119.5 -95t-94.5 -115.5t-62 -128.5t-22 -136q0 -72 26 -142t86 -133l-54 -54q-72 72 -104.5 155t-32.5 169q0 79 25 156.5t70.5 148.5t109 132.5t140.5 106.5z" />
    <glyph glyph-name="parenright" unicode=")" 
d="M56 -103q65 41 120 95t94.5 115.5t62 128.5t22.5 136q0 72 -26.5 142t-85.5 133l53 54q72 -72 105 -155t33 -169q0 -79 -25 -156.5t-70.5 -148.5t-109 -132.5t-141.5 -106.5z" />
    <glyph glyph-name="asterisk" unicode="*" 
d="M367 417q28 -25 56.5 -52.5t48.5 -58.5l4 -5l-70 -51l-4 6q-22 30 -39 65.5t-32 68.5q-15 -33 -32.5 -68.5t-40.5 -65.5l-4 -5l-69 50l4 6q23 31 50.5 58t55.5 52q-37 5 -76 10.5t-74 17.5l-7 2l26 82l7 -3q35 -14 70.5 -31t67.5 -35q-8 36 -14.5 75t-6.5 77v7h86v-7
q0 -38 -6.5 -77t-13.5 -75q32 19 67 35.5t69 29.5l7 3l26 -82l-6 -2q-35 -11 -74 -17t-76 -10z" />
    <glyph glyph-name="plus" unicode="+" 
d="M388 482l-45 -184h161l-17 -70h-161l-45 -185h-75l44 185h-164l17 70h164l45 184h76z" />
    <glyph glyph-name="comma" unicode="," 
d="M230 -8q-28 4 -42 23.5t-14 43.5q0 34 21.5 57t59.5 23q33 0 50.5 -23.5t17.5 -58.5q0 -29 -12 -61t-37.5 -61t-65.5 -50.5t-95 -28.5l-8 65q17 1 36.5 6t37 13.5t31.5 21t20 30.5z" />
    <glyph glyph-name="hyphen" unicode="-" 
d="M195 293h219l-18 -78h-220z" />
    <glyph glyph-name="period" unicode="." 
d="M240 -12q-28 0 -47 17t-19 50q0 42 23.5 64t55.5 22q28 0 48 -17.5t20 -52.5q0 -19 -7 -34t-18.5 -26t-26 -17t-29.5 -6z" />
    <glyph glyph-name="slash" unicode="/" 
d="M67 -165h-84l487 864h83z" />
    <glyph glyph-name="zero" unicode="0" 
d="M524 447q0 -44 -8 -95t-24 -102.5t-40 -98.5t-56.5 -83.5t-73.5 -58.5t-90 -22q-76 0 -112 46.5t-36 138.5q0 44 8 95.5t24 102.5t40 98.5t56.5 84t73 58.5t90.5 22q76 0 112 -46.5t36 -139.5zM440 437q0 67 -16 95t-58 28t-78 -36.5t-63 -92.5t-42 -122t-15 -126
q0 -67 16.5 -95t57.5 -28q42 0 78.5 36.5t63 92t41.5 122t15 126.5zM300 256q-23 0 -38.5 14t-15.5 43q0 35 19.5 54.5t45.5 19.5q23 0 39.5 -15.5t16.5 -44.5q0 -32 -20.5 -51.5t-46.5 -19.5z" />
    <glyph glyph-name="one" unicode="1" 
d="M181 491q56 20 111 50.5t106 77.5h59l-132 -549h116l-17 -70h-332l17 70h134l102 426q-12 -9 -29.5 -19.5t-37.5 -20.5t-41.5 -19t-41.5 -15z" />
    <glyph glyph-name="two" unicode="2" 
d="M524 493q0 -47 -15 -83t-40.5 -66t-60 -56.5t-72.5 -54.5q-23 -17 -47.5 -36.5t-47 -40.5t-39.5 -43t-24 -43h269l-17 -70h-361q7 48 25 86t43.5 70t56.5 59t64 52q35 26 67.5 50.5t57.5 50t40 53t15 60.5q0 37 -20 58.5t-65 21.5q-25 0 -47.5 -6.5t-40.5 -15.5
t-31.5 -19t-21.5 -18l-29 64q12 12 31 23.5t42.5 21.5t50.5 16t56 6q43 0 74 -12t50 -31.5t28 -45t9 -51.5z" />
    <glyph glyph-name="three" unicode="3" 
d="M221 60q36 0 66.5 8.5t53 25.5t35 42.5t12.5 59.5q0 53 -38.5 76.5t-103.5 23.5h-18l16 67h27q29 0 57.5 8t51 23.5t36.5 38.5t14 53q0 38 -23 57t-65 19q-38 0 -69 -12.5t-53 -26.5l-20 65q12 8 29 16t37.5 14.5t43 10.5t45.5 4q42 0 72 -10.5t49.5 -29.5t28.5 -44
t9 -54q0 -60 -34 -101t-93 -64q15 -6 30.5 -17.5t27.5 -28t19.5 -38.5t7.5 -49q0 -47 -16.5 -86t-48.5 -66.5t-79.5 -42.5t-109.5 -15q-31 0 -57.5 4t-47 10t-34.5 12t-19 10l31 71q13 -8 45 -21t85 -13z" />
    <glyph glyph-name="four" unicode="4" 
d="M400 158l-37 -158h-81l38 158h-272l14 56q25 42 65.5 96t90 109.5t104.5 107.5t108 92h81l-95 -393h72l-16 -68h-72zM406 515q-32 -27 -66.5 -60.5t-68.5 -71t-65.5 -77.5t-56.5 -80h188z" />
    <glyph glyph-name="five" unicode="5" 
d="M320 549q-6 -18 -13.5 -41t-15.5 -46.5t-15.5 -45t-11.5 -36.5q102 -13 153.5 -55t51.5 -120q0 -46 -15.5 -85.5t-47.5 -69t-81.5 -46.5t-117.5 -17q-29 0 -54 4.5t-45.5 10t-34 11t-17.5 8.5l32 70q13 -8 43.5 -19.5t80.5 -11.5q36 0 68 9.5t55 27t36.5 43t13.5 57.5
q0 42 -22.5 65.5t-55.5 35.5t-71.5 15.5t-70.5 5.5q15 41 28 78.5t25 73.5t23 72.5t21 75.5h289l-16 -70h-215z" />
    <glyph glyph-name="six" unicode="6" 
d="M196 284q-9 -29 -13.5 -58.5t-4.5 -53.5q0 -56 20 -87t71 -31q35 0 62 15t45 39t27.5 54t9.5 61q0 43 -21 65.5t-70 22.5q-32 0 -63 -5.5t-63 -21.5zM96 165q0 94 31.5 177t89.5 145t139.5 98.5t181.5 36.5h12l-10 -71h-4q-63 0 -114.5 -16.5t-91.5 -44t-68.5 -64
t-44.5 -76.5q29 14 62 22t63 8q40 0 69 -12t48 -32.5t27.5 -47t8.5 -56.5q0 -45 -13.5 -88.5t-42.5 -78.5t-74 -56.5t-108 -21.5q-78 0 -119.5 47.5t-41.5 130.5z" />
    <glyph glyph-name="seven" unicode="7" 
d="M139 0q20 71 58.5 150t86 154t99 139.5t97.5 105.5h-294l16 70h388l-17 -72q-38 -33 -88 -91.5t-99.5 -132t-92 -157t-66.5 -166.5h-88z" />
    <glyph glyph-name="eight" unicode="8" 
d="M407 312q30 -21 51.5 -50.5t21.5 -77.5q0 -39 -15 -75t-44.5 -63t-74 -43t-103.5 -16q-45 0 -76 12.5t-50.5 32t-28.5 44.5t-9 50q0 65 37.5 115t104.5 82q-54 43 -54 111q0 40 14.5 76t42.5 63.5t67.5 43.5t89.5 16q42 0 71.5 -12t48.5 -31t28 -44t9 -50q0 -62 -35 -108
t-96 -76zM283 292q-24 -11 -46.5 -27t-39 -35.5t-26.5 -42.5t-10 -47q0 -17 4.5 -32.5t15 -27.5t28.5 -19t45 -7q30 0 56 9t45.5 25t30.5 38.5t11 49.5q0 44 -30 70.5t-84 45.5zM342 340q22 11 42.5 25.5t36.5 32.5t25 40t9 49q0 13 -3.5 27t-13 25.5t-26 18.5t-41.5 7
q-26 0 -48.5 -9t-39 -25.5t-26 -39t-9.5 -49.5q0 -37 22.5 -61t71.5 -41z" />
    <glyph glyph-name="nine" unicode="9" 
d="M289 243q-40 0 -69 11.5t-47.5 31.5t-27.5 46.5t-9 56.5q0 45 14 88.5t42.5 78t72.5 55.5t103 21q83 0 125 -48t42 -130q0 -96 -30 -179t-86.5 -144.5t-137.5 -97t-184 -35.5h-9.5t-13.5 1l15 71q3 -1 8.5 -1h7.5q63 0 112.5 15.5t87 43t64.5 64.5t45 79
q-29 -14 -61.5 -21t-63.5 -7zM309 312q32 0 63.5 5.5t63.5 20.5q17 56 17 117q0 49 -21.5 79t-69.5 30q-35 0 -62 -14.5t-45 -38t-27.5 -53t-9.5 -60.5q0 -43 21.5 -64.5t69.5 -21.5z" />
    <glyph glyph-name="colon" unicode=":" 
d="M240 -12q-28 0 -47 17t-19 50q0 42 23.5 64t55.5 22q28 0 48 -17.5t20 -52.5q0 -19 -7 -34t-18.5 -26t-26 -17t-29.5 -6zM317 310q-28 0 -47 17t-19 50q0 42 23.5 64t55.5 22q28 0 48 -17.5t20 -52.5q0 -19 -7 -34t-18.5 -26t-26 -17t-29.5 -6z" />
    <glyph glyph-name="semicolon" unicode=";" 
d="M230 -8q-28 4 -42 23.5t-14 43.5q0 34 21.5 57t59.5 23q33 0 50.5 -23.5t17.5 -58.5q0 -29 -12 -61t-37.5 -61t-65.5 -50.5t-95 -28.5l-8 65q17 1 36.5 6t37 13.5t31.5 21t20 30.5zM317 310q-28 0 -47 17t-19 50q0 42 23.5 64t55.5 22q28 0 48 -17.5t20 -52.5
q0 -19 -7 -34t-18.5 -26t-26 -17t-29.5 -6z" />
    <glyph glyph-name="less" unicode="&#x3c;" 
d="M417 55l-339 164l17 71l418 164l5 -74l-341 -130l278 -129z" />
    <glyph glyph-name="equal" unicode="=" 
d="M126 393h401l-17 -71h-401zM80 203h401l-17 -71h-401z" />
    <glyph glyph-name="greater" unicode="&#x3e;" 
d="M161 454l339 -164l-17 -71l-418 -164l-5 74l341 130l-278 129z" />
    <glyph glyph-name="question" unicode="?" 
d="M226 211l3 19q5 29 22.5 53t40.5 45.5t48.5 41t46.5 40t35 42.5t14 49q0 28 -18.5 46t-60.5 18q-29 0 -56.5 -6t-59.5 -21l-9 64q24 13 61 22t76 9q28 0 55 -6t48 -20t33.5 -37.5t12.5 -57.5q0 -37 -14.5 -65.5t-37 -52t-49.5 -43.5t-51.5 -41t-43 -45t-23.5 -54h-73z
M222 -12q-26 0 -42.5 15t-16.5 45q0 36 21 56t49 20q26 0 43.5 -15.5t17.5 -45.5q0 -35 -22.5 -55t-49.5 -20z" />
    <glyph glyph-name="at" unicode="@" 
d="M467 63q-24 -10 -50 -15t-50 -5q-30 0 -56.5 8.5t-47 26.5t-32.5 46.5t-12 69.5q0 46 13.5 88.5t41 75.5t70.5 52.5t103 19.5q7 0 14.5 -0.5t15.5 -1.5q6 25 6 49q0 38 -19.5 62.5t-67.5 24.5q-54 0 -100 -38.5t-79.5 -98.5t-52 -132.5t-18.5 -140.5q0 -45 9 -85
t27.5 -69.5t47.5 -47t70 -17.5q17 0 35.5 2.5t39.5 8.5l-7 -67q-45 -12 -83 -12q-56 0 -97 22t-67.5 61t-39 91.5t-12.5 112.5q0 54 10.5 111t30.5 110t49 100.5t66 82.5t81.5 55.5t95.5 20.5q80 0 118.5 -43t38.5 -111q0 -35 -9 -72zM460 358q-18 6 -34 6q-32 0 -56.5 -14
t-41 -37t-24.5 -53.5t-8 -64.5q0 -42 18.5 -64.5t53.5 -22.5q8 0 15.5 1t17.5 4z" />
    <glyph glyph-name="A" unicode="A" 
d="M383 0l1 162h-238l-76 -162h-83q33 66 73 143t83.5 158t90 162.5t93.5 155.5h98q11 -74 18.5 -155.5t12.5 -162.5t8 -158t5 -143h-86zM357 547q-38 -63 -84 -146t-92 -171h200q-2 90 -9 173.5t-15 143.5z" />
    <glyph glyph-name="B" unicode="B" 
d="M191 -5q-16 0 -35.5 1t-39.5 2.5t-38.5 4.5t-32.5 7l143 600q16 4 36 7t41 4.5t40.5 2.5t35.5 1q81 0 131.5 -29.5t50.5 -96.5q0 -59 -28.5 -103t-94.5 -70q35 -10 61 -41t26 -73q0 -104 -76.5 -160.5t-219.5 -56.5zM193 289l-54 -221q2 -1 22 -2.5t52 -1.5q33 0 67 6
t61.5 22.5t45 44t17.5 71.5q0 46 -36 63.5t-91 17.5h-84zM209 357h65q30 0 60 5.5t54 20t38.5 38.5t14.5 60q0 20 -9 34t-24 23t-35.5 13t-42.5 4q-26 0 -45.5 -0.5t-28.5 -2.5z" />
    <glyph glyph-name="C" unicode="C" 
d="M279 -13q-88 0 -139 58t-51 157q0 79 23 156.5t66.5 138.5t105.5 98.5t140 37.5q60 0 96.5 -16t53.5 -30l-39 -66q-17 15 -49.5 27t-67.5 12q-58 0 -103.5 -30t-77 -79t-48.5 -110.5t-17 -125.5q0 -72 32 -113.5t93 -41.5q48 0 85 12.5t55 23.5l9 -70q-6 -5 -21.5 -11.5
t-37 -12.5t-49.5 -10.5t-59 -4.5z" />
    <glyph glyph-name="D" unicode="D" 
d="M523 405q0 -79 -21 -153t-65 -131t-112 -91.5t-162 -34.5q-32 0 -65 3t-62 11l143 601q66 15 127 15q102 0 159.5 -57.5t57.5 -162.5zM132 71q8 -2 22 -3.5t26 -1.5q56 0 103.5 24t82.5 67.5t54.5 104.5t19.5 134q0 76 -35 117t-110 41q-27 0 -49 -3z" />
    <glyph glyph-name="E" unicode="E" 
d="M71 0l150 619h346l-17 -70h-264l-46 -190h232l-17 -70h-232l-52 -219h286l-17 -70h-369z" />
    <glyph glyph-name="F" unicode="F" 
d="M71 0l150 619h351l-17 -70h-269l-47 -193h237l-17 -69h-237l-68 -287h-83z" />
    <glyph glyph-name="G" unicode="G" 
d="M265 -13q-42 0 -76.5 15t-58.5 43t-37 68t-13 89q0 79 23 156.5t66.5 138.5t105.5 98.5t140 37.5q31 0 54 -4.5t40 -11.5t29 -15t20 -15l-39 -66q-17 15 -45 27.5t-65 12.5q-58 0 -103.5 -30t-77 -79t-48.5 -111t-17 -126q0 -72 32 -114t93 -42q25 0 43.5 3.5t29.5 7.5
l56 234h82l-69 -290q-8 -3 -24.5 -7.5t-38.5 -9t-48.5 -7.5t-53.5 -3z" />
    <glyph glyph-name="H" unicode="H" 
d="M495 619h82l-149 -619h-82l69 288h-228l-70 -288h-81l148 619h82l-62 -261h228z" />
    <glyph glyph-name="I" unicode="I" 
d="M405 549l-116 -479h120l-17 -70h-321l17 70h119l115 479h-119l17 70h321l-17 -70h-119z" />
    <glyph glyph-name="J" unicode="J" 
d="M554 619l-100 -420q-11 -43 -25 -81.5t-39.5 -67.5t-65 -46t-99.5 -17q-31 0 -56.5 6t-46 14.5t-34.5 18.5t-21 18l43 65q7 -7 18 -16t26 -16.5t33 -13t40 -5.5q60 0 93.5 35.5t52.5 113.5l82 342h-210l16 70h293z" />
    <glyph glyph-name="K" unicode="K" 
d="M588 619q-36 -38 -71.5 -74t-72.5 -72t-76 -73.5t-84 -77.5q21 -24 45.5 -57.5t48.5 -75t47 -89.5t42 -100h-89q-38 106 -83 178.5t-97 119.5l-71 -298h-82l148 619h82l-65 -271q84 75 151.5 141.5t124.5 129.5h102z" />
    <glyph glyph-name="L" unicode="L" 
d="M421 70l-16 -70h-351l149 619h82l-132 -549h268z" />
    <glyph glyph-name="M" unicode="M" 
d="M481 619h77q-6 -63 -17 -136t-24.5 -152.5t-30 -163t-33.5 -167.5h-80q12 54 26.5 118t29.5 131.5t30 136t27 131.5l-158 -282h-72q-2 37 -4.5 75.5t-6 75.5t-7 70.5t-6.5 60.5q-17 -68 -35 -137.5t-36 -136.5t-34.5 -128.5t-30.5 -114.5h-78q43 160 90 311.5t104 307.5
h76q7 -81 12 -155t11 -153z" />
    <glyph glyph-name="N" unicode="N" 
d="M349 0q-14 83 -27 151t-27.5 128t-29.5 114t-31 110l-119 -503h-75l149 619h81q23 -75 39.5 -132t30 -110.5t25 -110.5t24.5 -132l115 485h75l-149 -619h-81z" />
    <glyph glyph-name="O" unicode="O" 
d="M369 562q-49 0 -87.5 -36.5t-64.5 -92t-40 -121t-14 -122.5q0 -71 24 -101.5t67 -30.5q49 0 87 36.5t64 92t39.5 121t13.5 122.5q0 70 -23.5 101t-65.5 31zM379 633q72 0 117 -47.5t45 -149.5q0 -37 -7 -84.5t-22 -97.5t-38.5 -98t-56.5 -85.5t-76 -60.5t-97 -23
q-73 0 -118.5 47.5t-45.5 149.5q0 37 7 84.5t22 97.5t39 98t57 85.5t76.5 60.5t97.5 23z" />
    <glyph glyph-name="P" unicode="P" 
d="M357 625q82 0 133 -38.5t51 -114.5q0 -54 -20 -98.5t-57 -76t-88 -49t-113 -17.5h-72l-56 -231h-81l145 610q13 3 33 5.5t42 5t43.5 3.5t39.5 1zM344 555q-23 0 -44 -1t-32 -3l-61 -250h67q89 0 137 43t48 120q0 25 -10 42.5t-26.5 28.5t-37 15.5t-41.5 4.5z" />
    <glyph glyph-name="Q" unicode="Q" 
d="M379 633q72 0 117 -47.5t45 -149.5q0 -35 -6 -80t-19.5 -92.5t-34.5 -94t-50.5 -84t-68.5 -63.5t-87 -33v-7q0 -32 38 -52.5t100 -28.5l-36 -66q-36 7 -70.5 16.5t-60.5 26.5t-41.5 43.5t-15.5 68.5v5q-50 14 -79.5 60.5t-29.5 128.5q0 37 7 84.5t22 97.5t39 98t57 85.5
t76.5 60.5t97.5 23zM369 562q-49 0 -87.5 -36.5t-64.5 -92t-40 -121t-14 -122.5q0 -71 24 -101.5t67 -30.5q49 0 87 36.5t64 92t39.5 121t13.5 122.5q0 70 -23.5 101t-65.5 31z" />
    <glyph glyph-name="R" unicode="R" 
d="M528 477q0 -85 -45 -140t-119 -78q13 -27 24.5 -52t21.5 -54.5t20 -66.5t21 -86h-84q-11 53 -21.5 90.5t-20.5 65t-20 48t-20 40.5h-100l-59 -244h-81l145 610q16 4 35.5 7t39.5 4.5t39.5 2.5t35.5 1q98 0 143 -40.5t45 -107.5zM334 555q-23 0 -44.5 -1t-31.5 -3
l-57 -239h50q40 0 75.5 6.5t62 24t42 47t15.5 74.5q0 48 -31 69.5t-81 21.5z" />
    <glyph glyph-name="S" unicode="S" 
d="M238 59q27 0 53.5 6t47.5 19.5t33.5 36t12.5 55.5q0 22 -8.5 38.5t-23 30t-34 25t-42.5 23.5q-21 11 -41 24t-35 30.5t-24.5 42t-9.5 59.5q0 81 56.5 132.5t171.5 51.5q25 0 49 -4t43.5 -10t34.5 -12.5t23 -11.5l-39 -66q-15 13 -48 22.5t-78 9.5q-28 0 -51.5 -6
t-41 -18.5t-27.5 -32.5t-10 -47q0 -23 7 -39t19 -28t29.5 -22t38.5 -21q26 -14 49 -27.5t39.5 -32t26 -43.5t9.5 -60q0 -49 -17.5 -86t-49 -61.5t-75.5 -37t-98 -12.5q-69 0 -113 16t-61 28l38 68q17 -11 53 -25.5t93 -14.5z" />
    <glyph glyph-name="T" unicode="T" 
d="M589 619l-17 -70h-169l-132 -549h-83l133 549h-169l17 70h420z" />
    <glyph glyph-name="U" unicode="U" 
d="M237 -13q-41 0 -70 14t-48.5 37.5t-28.5 54.5t-9 65q0 30 8 64l95 397h82l-95 -396q-8 -34 -8 -63q0 -21 4.5 -39.5t14.5 -32.5t26.5 -22t40.5 -8q27 0 49 6.5t40 23.5t32 47t26 77l98 407h82l-100 -417q-12 -51 -29.5 -91t-45 -67.5t-67.5 -42t-97 -14.5z" />
    <glyph glyph-name="V" unicode="V" 
d="M222 619q1 -178 8 -314t14 -233q70 129 140.5 262.5t139.5 284.5h88q-15 -32 -48.5 -99t-79 -152.5t-99 -181.5t-107.5 -186h-102q-10 90 -17.5 186t-12.5 181.5t-7.5 152.5t-2.5 99h86z" />
    <glyph glyph-name="W" unicode="W" 
d="M306 309l-170 -309h-77q6 64 17 137.5t25 153t30 162.5l32 166h81q-12 -52 -26.5 -116t-30 -133t-31 -138.5t-28.5 -131.5q15 28 34.5 62.5t40.5 72t42 75.5t41 74h71q2 -34 5 -72.5t6.5 -76.5t6.5 -73t6 -62q18 64 37 132.5t37.5 136.5t35 132t30.5 118h79
q-44 -156 -90 -306.5t-105 -312.5h-76z" />
    <glyph glyph-name="X" unicode="X" 
d="M388 0q-13 64 -31.5 128.5t-41.5 128.5l-208 -257h-98l272 330l-105 289h90l78 -225q46 56 89 112.5t81 112.5h94q-51 -74 -112.5 -149.5t-120.5 -144.5q14 -36 28.5 -77.5t27.5 -84t24 -84.5t19 -79h-86z" />
    <glyph glyph-name="Y" unicode="Y" 
d="M622 619q-60 -98 -133.5 -194.5t-154.5 -192.5l-56 -232h-82l55 230q-37 100 -63.5 195.5t-40.5 193.5h82q9 -81 31 -167.5t45 -158.5q30 39 61 81t60.5 84.5t56.5 83.5t50 77h89z" />
    <glyph glyph-name="Z" unicode="Z" 
d="M556 550q-42 -44 -96.5 -104.5t-111.5 -126t-110 -130.5t-92 -119h304l-16 -70h-398l16 68q47 61 98.5 124.5t104 125.5t105 121t100.5 110h-281l17 70h376z" />
    <glyph glyph-name="bracketleft" unicode="[" 
d="M306 699h241l-16 -65h-162l-177 -734h163l-17 -65h-240z" />
    <glyph glyph-name="backslash" unicode="\" 
d="M219 699h83l69 -864h-84z" />
    <glyph glyph-name="bracketright" unicode="]" 
d="M265 -165h-240l15 65h163l177 734h-163l16 65h240z" />
    <glyph glyph-name="asciicircum" unicode="^" 
d="M369 533l-199 -249l-61 37l239 298h71l97 -306l-68 -30z" />
    <glyph glyph-name="underscore" unicode="_" 
d="M-10 -95h447l-17 -70h-447z" />
    <glyph glyph-name="grave" unicode="`" 
d="M321 691l114 -143l-44 -39l-130 131z" />
    <glyph glyph-name="a" unicode="a" 
d="M376 -5q-5 10 -9 21.5t-6 25.5q-20 -18 -55.5 -35.5t-83.5 -17.5q-78 0 -114.5 47t-36.5 119q0 60 20 117t60.5 102t101.5 72.5t142 27.5q12 0 27.5 -1t31.5 -4t31.5 -7.5t27.5 -10.5l-68 -280q-5 -21 -8.5 -39.5t-3.5 -39.5t4 -41.5t12 -45.5zM239 57q38 0 67.5 16
t49.5 38q1 15 3.5 34t6.5 36l55 219q-5 2 -19 3.5t-22 1.5q-51 0 -92.5 -20t-71.5 -53.5t-46 -77t-16 -90.5q0 -23 4 -42.5t13.5 -33.5t26 -22.5t41.5 -8.5z" />
    <glyph glyph-name="b" unicode="b" 
d="M248 446q21 13 48 21t57 8q39 0 67.5 -12.5t47 -34t28 -51.5t9.5 -65q0 -62 -19.5 -120t-59.5 -103t-100.5 -72t-141.5 -27q-27 0 -62 6.5t-59 21.5l158 661l86 14zM332 405q-27 0 -54 -9t-50 -26l-73 -303q20 -5 44 -5q51 0 92.5 20t70.5 53.5t45 77t16 90.5
q0 20 -4 38.5t-14.5 32.5t-28 22.5t-44.5 8.5z" />
    <glyph glyph-name="c" unicode="c" 
d="M71 166q0 61 20.5 117t60 99t97 68.5t132.5 25.5q41 0 72 -5.5t58 -16.5l-31 -70q-17 8 -40.5 15t-65.5 7q-51 0 -92 -19.5t-69.5 -52t-43.5 -74t-15 -86.5q0 -23 6 -43.5t22 -36.5t43.5 -25t69.5 -9q22 0 43 3t39 8t31.5 10t20.5 10l7 -70q-18 -11 -58.5 -22t-97.5 -11
q-104 0 -156.5 50t-52.5 128z" />
    <glyph glyph-name="d" unicode="d" 
d="M442 92q0 -21 4 -41.5t12 -45.5l-73 -10q-5 9 -9 21t-6 26q-20 -18 -53.5 -35.5t-84.5 -17.5q-78 0 -115 46t-37 120q0 60 20 117.5t60 102t100 72t139 27.5q23 0 46 -3l50 208l85 14l-126 -522q-5 -21 -8.5 -39.5t-3.5 -39.5zM248 57q38 0 67.5 16t49.5 38q1 15 3.5 34
t6.5 36l55 219q-5 2 -19.5 3.5t-22.5 1.5q-51 0 -92.5 -20t-71 -53.5t-45.5 -77t-16 -90.5q0 -23 4 -42.5t13.5 -33.5t26 -22.5t41.5 -8.5z" />
    <glyph glyph-name="e" unicode="e" 
d="M162 244q60 1 108 5.5t81.5 16.5t51.5 33.5t18 54.5q0 8 -3.5 17t-12 17t-23.5 13t-37 5q-34 0 -63.5 -13.5t-53.5 -36t-40.5 -51.5t-25.5 -61zM263 -12q-49 0 -85 14.5t-60 38.5t-35.5 55.5t-11.5 65.5q0 63 19.5 120t56.5 99.5t89.5 68t118.5 25.5q39 0 67 -9.5t46 -25
t26.5 -36.5t8.5 -44q0 -63 -32 -98t-83 -52.5t-113.5 -22.5t-122.5 -7q-6 -63 33 -91.5t103 -28.5q21 0 43.5 3.5t42 8t34.5 10t21 9.5l7 -70q-19 -10 -62 -21.5t-111 -11.5z" />
    <glyph glyph-name="f" unicode="f" 
d="M344 395l-81 -377q-11 -50 -25.5 -85.5t-36.5 -58t-53.5 -32.5t-74.5 -10q-15 0 -34 4t-30 12l19 69q21 -13 58 -13q40 0 62 31t33 82l80 378h-100l17 69h98l9 42q19 90 67.5 138.5t144.5 48.5q31 0 59 -6t42 -14l-33 -66q-8 4 -24.5 9.5t-51.5 5.5q-29 0 -49.5 -8.5
t-35 -24t-23 -37t-14.5 -47.5l-9 -41h188l-17 -69h-185z" />
    <glyph glyph-name="g" unicode="g" 
d="M179 -98q74 0 114.5 32.5t53.5 96.5l4 17q-18 -10 -50.5 -19.5t-64.5 -9.5q-73 0 -111.5 36t-38.5 101q0 60 19.5 117t59.5 102t100 72t140 27q12 0 29 -1t34.5 -3.5t34 -7t28.5 -11.5l-103 -411q-12 -48 -29 -86.5t-46.5 -65.5t-75.5 -41.5t-116 -14.5q-38 0 -76 10
t-64 26l32 69q20 -15 54 -25t72 -10zM254 87q18 0 35 4t32.5 10t28 12.5t20.5 12.5l65 274q-9 2 -22.5 3.5t-24.5 1.5q-48 0 -88.5 -20t-70 -53t-45.5 -75t-16 -85q0 -48 21 -66.5t65 -18.5z" />
    <glyph glyph-name="h" unicode="h" 
d="M45 0l162 679l86 14l-57 -236q20 8 43 12.5t46 4.5q40 0 69 -11t47 -30.5t26.5 -46.5t8.5 -59q0 -21 -4 -44t-10 -47l-57 -236h-82l52 218q6 25 12.5 51.5t6.5 50.5q0 35 -20 58.5t-73 23.5q-45 0 -80 -14l-95 -388h-81z" />
    <glyph glyph-name="i" unicode="i" 
d="M305 205q-5 -20 -8.5 -38t-3.5 -35q0 -28 14.5 -46.5t55.5 -18.5q17 0 33 2.5t30 6.5l-5 -70q-7 -2 -25.5 -5.5t-52.5 -3.5q-37 0 -62.5 10t-41 27t-22 40t-6.5 50q0 21 3.5 43t8.5 45l45 183h-134l16 69h216zM330 536q-26 0 -43 15t-17 44q0 35 22 55t49 20
q26 0 43.5 -16t17.5 -45q0 -17 -6.5 -30t-17 -23t-23 -15t-25.5 -5z" />
    <glyph glyph-name="j" unicode="j" 
d="M191 395l16 69h270l-110 -458q-23 -96 -77 -135t-136 -39q-75 0 -133 36l32 69q10 -8 23.5 -14t28.5 -10.5t30 -7t28 -2.5q52 0 80 23t42 82l94 387h-188zM428 536q-26 0 -43 15t-17 44q0 35 22 55t49 20q26 0 43.5 -16t17.5 -45q0 -17 -6.5 -30t-16.5 -23t-23 -15
t-26 -5z" />
    <glyph glyph-name="k" unicode="k" 
d="M63 0l163 679l86 14l-101 -416q60 44 122.5 92.5t113.5 94.5h98q-25 -26 -58.5 -55t-69 -57.5t-69.5 -54.5t-60 -45q23 -20 47.5 -49t47 -63t42 -70t31.5 -70h-89q-32 72 -75 133t-91 99l-56 -232h-82z" />
    <glyph glyph-name="l" unicode="l" 
d="M313 618h-134l17 70h216l-120 -499q-5 -20 -8 -38.5t-3 -34.5q0 -29 14 -43t52 -14q26 0 51 9t39 17l6 -70q-14 -8 -45.5 -17t-73.5 -9q-66 0 -95.5 28.5t-29.5 85.5q0 41 13 93z" />
    <glyph glyph-name="m" unicode="m" 
d="M139 451q63 23 115 23q28 0 49.5 -8.5t34.5 -25.5q49 34 96 34q23 0 41.5 -9t30 -27t14.5 -45t-6 -63l-78 -330h-75l79 332q9 36 -1 55t-33 19q-25 0 -51 -25q0 -11 -1 -24t-5 -27l-36 -151h-75l37 152q9 35 3 55t-35 20q-18 0 -42 -9l-96 -397h-74z" />
    <glyph glyph-name="n" unicode="n" 
d="M145 0h-82l107 447q41 12 88 19.5t85 7.5q40 0 69 -11t47 -30.5t26.5 -46.5t8.5 -59q0 -21 -4 -43.5t-10 -45.5l-57 -238h-82l53 220q6 25 12 50.5t6 49.5q0 35 -20 58.5t-73 23.5q-23 0 -44.5 -2.5t-35.5 -7.5z" />
    <glyph glyph-name="o" unicode="o" 
d="M237 -11q-74 0 -115.5 43t-41.5 119q0 52 14.5 109t47 105t83.5 79t123 31q74 0 115.5 -43t41.5 -119q0 -52 -14.5 -109t-47 -105t-83.5 -79t-123 -31zM251 63q40 0 72 22.5t54 57.5t33.5 78.5t11.5 84.5q0 45 -20 70.5t-68 25.5q-40 0 -72 -22.5t-54 -58t-33.5 -79
t-11.5 -84.5q0 -45 20 -70t68 -25z" />
    <glyph glyph-name="p" unicode="p" 
d="M337 475q43 0 75 -12.5t52.5 -34t30.5 -51.5t10 -65q0 -62 -18.5 -120t-57.5 -103t-98.5 -72.5t-140.5 -27.5q-10 0 -26.5 2.5t-25.5 4.5l-38 -161h-82l146 610q18 7 40.5 13t45.5 9.5t45.5 5.5t41.5 2zM156 68q9 -2 23.5 -3.5t24.5 -1.5q51 0 91.5 19.5t69 52.5
t43.5 76.5t15 90.5q0 20 -4.5 38.5t-16.5 33t-33 23t-53 8.5q-22 0 -45 -4t-36 -7z" />
    <glyph glyph-name="q" unicode="q" 
d="M291 -165l43 180q-21 -11 -47 -18.5t-55 -7.5q-78 0 -115 46t-37 120q0 60 20 117t60.5 102t101.5 72.5t142 27.5q12 0 28.5 -1.5t34 -4.5t33 -7t26.5 -10l-153 -616h-82zM254 57q26 0 52.5 11t48.5 28l74 304q-12 2 -23 3.5t-19 1.5q-51 0 -92.5 -20t-70.5 -53.5
t-45 -77t-16 -90.5q0 -20 3.5 -39t13 -34t27.5 -24.5t47 -9.5z" />
    <glyph glyph-name="r" unicode="r" 
d="M89 0l106 440q106 34 213 34q31 0 55 -2.5t59 -9.5l-31 -73q-15 4 -27.5 6.5t-23.5 4t-22.5 2t-26.5 0.5q-31 0 -63.5 -4t-64.5 -12l-92 -386h-82z" />
    <glyph glyph-name="s" unicode="s" 
d="M242 58q22 0 43.5 3.5t38.5 11.5t27.5 22t10.5 34q0 28 -23.5 44t-65.5 36q-20 10 -39 20t-33.5 23t-23.5 31.5t-9 44.5q0 67 52 107t147 40q47 0 81.5 -8t51.5 -17l-31 -70q-15 9 -45.5 17t-68.5 8q-20 0 -39.5 -3.5t-34.5 -11.5t-24 -21t-9 -33q0 -24 24.5 -40.5
t61.5 -32.5q23 -9 43 -20t34.5 -25.5t22.5 -33.5t8 -45q0 -38 -15 -66.5t-42 -47t-64.5 -28t-82.5 -9.5q-57 0 -98.5 13t-60.5 24l33 70q16 -11 50 -24t80 -13z" />
    <glyph glyph-name="t" unicode="t" 
d="M439 13q-29 -10 -60.5 -17t-66.5 -7q-29 0 -53.5 6t-43 19.5t-29 36.5t-10.5 58q0 22 3.5 46t9.5 49l47 191h-98l16 69h99l31 130l86 14l-35 -144h178l-16 -69h-179l-47 -199q-5 -19 -9 -37t-4 -35q0 -38 17.5 -50.5t49.5 -12.5q31 0 60.5 6.5t55.5 16.5z" />
    <glyph glyph-name="u" unicode="u" 
d="M222 -10q-39 0 -65 11.5t-42.5 31t-23.5 46t-7 56.5q0 23 4 46t9 46l57 237h83l-53 -219q-5 -21 -11.5 -48.5t-6.5 -55.5q0 -16 3 -30.5t11 -26t22 -18t36 -6.5q38 0 68 16.5t49 38.5q1 14 2.5 29.5t6.5 33.5l69 286h82l-70 -293q-5 -21 -8 -40t-3 -40t3.5 -41t12.5 -45
l-73 -10q-5 10 -9.5 22.5t-6.5 26.5q-20 -18 -54 -36t-85 -18z" />
    <glyph glyph-name="v" unicode="v" 
d="M193 0q-22 92 -39 213.5t-20 250.5h84q1 -44 4 -93.5t8 -99t11 -95.5t13 -83q27 34 55.5 80t55.5 96t49 101t36 94h84q-20 -59 -50 -122t-65.5 -124.5t-74 -117.5t-75.5 -100h-76z" />
    <glyph glyph-name="w" unicode="w" 
d="M372 107q42 97 73 186.5t56 170.5h77q-17 -50 -37.5 -107.5t-44 -117.5t-49.5 -121t-53 -118h-68q-5 30 -8.5 57.5t-7 56t-6.5 59.5t-6 69q-24 -41 -42.5 -72t-35.5 -58.5t-34 -54t-38 -57.5h-68q2 123 12 243.5t24 220.5h78q-7 -39 -12.5 -77t-10.5 -80.5t-10 -92.5
t-10 -113q25 42 43.5 73.5t34.5 59t31 55t34 62.5h58q1 -36 3 -63t4.5 -53.5t6 -56t6.5 -71.5z" />
    <glyph glyph-name="x" unicode="x" 
d="M308 298q21 23 42.5 47t41.5 46.5t36 41t25 31.5h89q-6 -8 -20.5 -25.5t-33.5 -39.5t-40.5 -46.5t-41.5 -46.5t-36.5 -40.5t-25.5 -28.5q29 -57 56 -114t50 -123h-87q-18 49 -35.5 90t-39.5 86l-174 -176h-96l233 239l-115 225h92z" />
    <glyph glyph-name="y" unicode="y" 
d="M283 75q34 54 61.5 111.5t48.5 110t35.5 96.5t20.5 71h87q-10 -34 -28 -84.5t-43.5 -109t-57.5 -120t-69 -116.5q-28 -42 -56.5 -79t-61 -64.5t-72 -43t-88.5 -15.5q-25 0 -46 6t-32 14l29 68q8 -8 23.5 -12.5t34.5 -4.5q52 0 87 21t69 70q-33 109 -58 228t-30 242h84
q1 -40 6 -88t13.5 -99t19.5 -103t23 -99z" />
    <glyph glyph-name="z" unicode="z" 
d="M494 405q-26 -23 -70 -65.5t-91.5 -91.5t-91.5 -96.5t-70 -81.5h250l-16 -70h-347l13 54q27 39 67.5 86.5t85 95t87.5 89.5t75 70h-221l18 69h326z" />
    <glyph glyph-name="braceleft" unicode="{" 
d="M89 235l16 64h41q20 0 36.5 7.5t29.5 20t21.5 28t12.5 31.5l38 161q10 41 24.5 70t38.5 47t58 26.5t83 8.5h84l-17 -65h-80q-24 0 -43 -3t-32.5 -12.5t-23.5 -27t-16 -45.5l-33 -138q-14 -59 -35.5 -92t-58.5 -49q19 -16 27.5 -36.5t8.5 -43.5q0 -16 -3 -31l-6 -30
l-33 -138q-6 -26 -6 -40q0 -29 18.5 -38.5t58.5 -9.5h84l-17 -65h-87q-65 0 -99.5 22.5t-34.5 76.5q0 25 7 53l38 161q4 13 4 26q0 25 -14.5 43t-49.5 18h-40z" />
    <glyph glyph-name="bar" unicode="|" 
d="M361 699h78l-208 -864h-78z" />
    <glyph glyph-name="braceright" unicode="}" 
d="M482 299l-16 -64h-40q-20 0 -37 -7.5t-29.5 -20t-21 -28t-12.5 -31.5l-38 -161q-10 -41 -25 -70t-38.5 -47t-58 -26.5t-82.5 -8.5h-84l16 65h80q25 0 43.5 3t32.5 12.5t24 27t16 45.5l33 138q14 59 35 92t58 49q-19 16 -27 36.5t-8 43.5q0 16 2.5 31t6.5 30l33 138
q2 13 4 22.5t2 17.5q0 29 -18.5 38.5t-59.5 9.5h-84l17 65h88q65 0 99.5 -22.5t34.5 -76.5q0 -11 -2 -24.5t-5 -28.5l-39 -161q-3 -15 -3 -26q0 -25 14 -43t49 -18h40z" />
    <glyph glyph-name="asciitilde" unicode="~" 
d="M308 300q21 -14 37 -26t40 -12q15 0 26.5 7t21 17.5t16.5 22.5t12 23l57 -18q-7 -20 -19 -41.5t-30 -40.5t-41.5 -31t-54.5 -12q-32 0 -51.5 12.5t-36.5 24.5q-20 15 -36.5 26.5t-40.5 11.5q-15 0 -27 -7t-21 -17.5t-16 -23t-12 -22.5l-57 18q7 19 19 41t30 41t41.5 31
t54.5 12q32 0 51.5 -12t36.5 -25z" />
    <glyph glyph-name="uni00A0" unicode="&#xa0;" 
 />
    <glyph glyph-name="exclamdown" unicode="&#xa1;" 
d="M185 3q9 37 17.5 68t17.5 59t18 55.5t20 57.5h57q-4 -30 -7.5 -57.5t-8 -55.5t-10.5 -59t-15 -68l-40 -168h-89zM327 465q26 0 42.5 -14.5t16.5 -45.5q0 -36 -20.5 -55.5t-49.5 -19.5q-26 0 -43.5 15.5t-17.5 45.5q0 35 22.5 54.5t49.5 19.5z" />
    <glyph glyph-name="cent" unicode="&#xa2;" 
d="M390 424q-48 0 -87.5 -19t-67.5 -50t-43.5 -70.5t-15.5 -80.5q0 -22 6 -41t21.5 -33.5t41.5 -23t65 -8.5q17 0 35.5 3t35 7t29 9t17.5 10l6 -69q-16 -10 -52.5 -19t-83.5 -11l-29 -125h-72l30 129q-66 16 -98.5 56.5t-32.5 112.5q0 48 15.5 95.5t46.5 87t76 68t105 38.5
l30 129h72l-29 -124q26 -2 51 -6.5t48 -15.5l-30 -66q-16 8 -37 12.5t-53 4.5z" />
    <glyph glyph-name="sterling" unicode="&#xa3;" 
d="M276 333h169l-16 -67h-169l-2 -7q-11 -45 -26.5 -94t-33.5 -94h259l-17 -71h-352q25 64 47.5 126.5t37.5 126.5l4 13h-83l16 67h83l18 74q16 67 37.5 110.5t50.5 68.5t65.5 34.5t82.5 9.5t72 -8.5t46 -19.5l-37 -67q-21 11 -43 17t-49 6q-26 0 -47.5 -7.5t-39 -24.5
t-31.5 -45.5t-24 -71.5z" />
    <glyph glyph-name="currency" unicode="&#xa4;" 
d="M131 310q0 55 25 95l-65 66l52 51l66 -67q43 26 95 26t93 -26l67 67l52 -51l-66 -66q26 -40 26 -95q0 -29 -6.5 -52t-19.5 -43l66 -66l-52 -52l-67 66q-41 -25 -93 -25q-54 0 -95 25l-66 -66l-52 52l65 65q-25 40 -25 96zM409 310q0 51 -31 81t-74 30q-22 0 -41 -8
t-33.5 -22t-23 -35t-8.5 -46q0 -26 8.5 -46.5t23 -34.5t33.5 -22t41 -8q43 0 74 30t31 81z" />
    <glyph glyph-name="yen" unicode="&#xa5;" 
d="M196 0l23 95h-145l15 63h145l21 91h-144l15 64h121q-32 80 -55 152.5t-45 153.5h87q14 -73 36.5 -144t45.5 -131q52 62 106.5 134t99.5 141h94q-57 -80 -116 -154t-126 -152h123l-16 -64h-143l-22 -91h144l-15 -63h-144l-23 -95h-82z" />
    <glyph glyph-name="brokenbar" unicode="&#xa6;" 
d="M235 177h78l-82 -342h-78zM361 699h78l-83 -342h-77z" />
    <glyph glyph-name="section" unicode="&#xa7;" 
d="M238 121q-25 9 -47 18.5t-38.5 24.5t-26 36.5t-9.5 54.5q0 48 31.5 87.5t77.5 64.5q-26 26 -26 73q0 36 14.5 64.5t40 48t61.5 30t80 10.5q45 0 77.5 -9t53.5 -19l-31 -65q-16 8 -41 17t-66 9q-48 0 -78 -17t-30 -57q0 -26 17.5 -40.5t56.5 -28.5q25 -10 47 -19.5t38 -24
t25.5 -36t9.5 -54.5q0 -51 -31 -88.5t-78 -63.5q13 -12 24 -31t11 -53q0 -33 -13.5 -60.5t-39.5 -47.5t-64.5 -31t-88.5 -11q-49 0 -86.5 8.5t-63.5 22.5l32 65q17 -10 49 -19.5t75 -9.5q59 0 89 20t30 55q0 17 -6 28t-16.5 19.5t-25.5 15t-34 13.5zM315 171q30 14 56 42.5
t26 66.5q0 17 -8 30t-22 22.5t-32.5 17.5t-40.5 16q-13 5 -15 7q-15 -7 -30 -18t-27 -25t-19.5 -31t-7.5 -35q0 -17 8 -30t22.5 -22.5t33 -17.5t39.5 -16q5 -2 9.5 -3.5t7.5 -3.5z" />
    <glyph glyph-name="dieresis" unicode="&#xa8;" 
d="M287 550q-20 0 -33.5 12.5t-13.5 33.5q0 26 18 42.5t38 16.5t34 -12.5t14 -34.5q0 -26 -18.5 -42t-38.5 -16zM456 550q-20 0 -33 12.5t-13 33.5q0 26 17.5 42.5t38.5 16.5q20 0 33.5 -12.5t13.5 -34.5q0 -26 -18 -42t-39 -16z" />
    <glyph glyph-name="copyright" unicode="&#xa9;" 
d="M446 231q0 48 -13.5 83.5t-36 59t-51 35.5t-57.5 12q-30 0 -58.5 -12t-51 -35.5t-36 -59t-13.5 -81.5q0 -48 13.5 -83.5t36 -59t51 -35.5t58.5 -12t58 12t50.5 35.5t36 58.5t13.5 82zM364 120q-17 -8 -35.5 -12t-34.5 -4q-29 0 -50.5 10.5t-36 28t-21.5 40t-7 46.5t7 47
t21 41t36 29t52 11q15 0 32.5 -2.5t35.5 -10.5l-21 -54q-11 5 -21.5 6.5t-20.5 1.5q-31 0 -44.5 -20t-13.5 -45q0 -32 16 -50.5t47 -18.5q8 0 20 2t22 7zM71 231q0 61 19 107t49.5 76.5t69.5 45.5t79 15t79 -15t69.5 -45.5t49 -76t18.5 -105.5q0 -61 -19 -106.5t-49.5 -76
t-69.5 -46t-79 -15.5q-41 0 -79.5 15.5t-69 45.5t-49 75.5t-18.5 105.5z" />
    <glyph glyph-name="ordfeminine" unicode="&#xaa;" 
d="M288 295q-58 0 -83.5 32t-25.5 86q0 41 14.5 80.5t43 70t71.5 49.5t100 19q17 0 40 -4t43 -12l-49 -181q-8 -30 -8 -55q0 -23 4 -38.5t12 -34.5l-62 -11q-3 5 -7 14t-6 18q-13 -13 -34.5 -23t-52.5 -10zM414 575q-2 1 -6.5 2t-11.5 1q-34 0 -62 -13t-48 -35t-31 -51
t-11 -60q0 -27 11.5 -48.5t47.5 -21.5q20 0 36.5 10t30.5 24q0 14 3 29.5t6 26.5z" />
    <glyph glyph-name="guillemotleft" unicode="&#xab;" 
d="M107 254l161 184l46 -35l-123 -154l50 -139l-53 -29zM287 254l160 184l47 -35l-123 -154l50 -139l-53 -29z" />
    <glyph glyph-name="logicalnot" unicode="&#xac;" 
d="M518 347l-72 -304h-72l56 234h-338l17 70h409z" />
    <glyph glyph-name="uni00AD" unicode="&#xad;" 
d="M195 293h219l-18 -78h-220z" />
    <glyph glyph-name="registered" unicode="&#xae;" 
d="M446 231q0 48 -13.5 83.5t-36 59t-51 35.5t-57.5 12q-30 0 -58.5 -12t-51 -35.5t-36 -59t-13.5 -81.5q0 -48 13.5 -83.5t36 -59t51 -35.5t58.5 -12t58 12t50.5 35.5t36 58.5t13.5 82zM71 231q0 61 19 107t49.5 76.5t69.5 45.5t79 15t79 -15t69.5 -45.5t49 -76
t18.5 -105.5q0 -61 -19 -106.5t-49.5 -76t-69.5 -46t-79 -15.5q-41 0 -79.5 15.5t-69 45.5t-49 75.5t-18.5 105.5zM257 187v-77h-53v238q13 4 30.5 6.5t36.5 2.5q57 0 84 -22t27 -64q0 -49 -39 -71q11 -17 24.5 -40.5t26.5 -49.5h-57q-13 24 -23.5 42.5t-19.5 34.5h-37z
M257 237h19q27 0 40 7t13 30q0 20 -16 26.5t-33 6.5q-7 0 -12.5 -0.5t-10.5 -1.5v-68z" />
    <glyph glyph-name="macron" unicode="&#xaf;" 
d="M250 635h250l-15 -64h-250z" />
    <glyph glyph-name="degree" unicode="&#xb0;" 
d="M473 569q0 -29 -10 -52t-27.5 -39t-40 -24.5t-47.5 -8.5t-47.5 8.5t-40 24.5t-27.5 39t-10 52t10 52t27.5 39t40 24.5t47.5 8.5t47.5 -8.5t40 -24.5t27.5 -39t10 -52zM413 569q0 32 -19 50t-46 18q-26 0 -45.5 -18t-19.5 -50t19.5 -50t45.5 -18q27 0 46 18t19 50z" />
    <glyph glyph-name="plusminus" unicode="&#xb1;" 
d="M405 554l-42 -180h162l-17 -70h-162l-44 -180h-75l43 180h-163l17 70h163l43 180h75zM451 71l-17 -71h-401l17 71h401z" />
    <glyph glyph-name="twosuperior" unicode="&#xb2;" 
d="M432 338l-13 -57h-235q4 32 14.5 56t26.5 42.5t36.5 34t43.5 29.5t40.5 25.5t29 22.5t17.5 23t6 27q0 19 -12.5 28t-30.5 9q-38 0 -60 -13t-33 -23l-22 44q18 17 49 32t73 15q51 0 75.5 -23.5t24.5 -63.5q0 -26 -12.5 -47.5t-31 -39.5t-41 -33t-42.5 -27
q-19 -13 -41.5 -27t-30.5 -34h169z" />
    <glyph glyph-name="threesuperior" unicode="&#xb3;" 
d="M289 329q18 0 36 3t31.5 10t22 19.5t8.5 31.5q0 25 -23.5 35.5t-61.5 10.5h-19l13 50h22q12 0 27.5 3t29 9t23 16t9.5 25q0 21 -12 29t-38 8q-24 0 -47 -7t-37 -15l-12 47q7 5 20.5 10t29 9.5t31.5 7t30 2.5q54 0 75.5 -21.5t21.5 -51.5q0 -35 -18.5 -56.5t-50.5 -37.5
q22 -8 35.5 -25t13.5 -46q0 -60 -44.5 -90.5t-116.5 -30.5q-36 0 -61.5 7t-43.5 17l24 50q16 -8 37.5 -13.5t44.5 -5.5z" />
    <glyph glyph-name="acute" unicode="&#xb4;" 
d="M491 626l-151 -114l-35 44l141 135z" />
    <glyph glyph-name="mu" unicode="&#xb5;" 
d="M354 103q0 23 2 45.5t8 47.5l66 268h82l-66 -276q-5 -20 -8.5 -37.5t-3.5 -33.5q0 -23 11 -38t40 -20l-19 -67q-37 1 -59.5 13t-35.5 34q-65 -50 -153 -50q-28 0 -52 12t-37 33q-4 -23 -9 -51.5t-12 -55.5l-22 -92h-82l150 629h83l-53 -219q-5 -21 -11.5 -48.5
t-6.5 -55.5q0 -16 3 -30.5t11.5 -25t23 -16.5t37.5 -6q35 0 61.5 9.5t51.5 30.5z" />
    <glyph glyph-name="paragraph" unicode="&#xb6;" 
d="M420 556h-10.5t-10.5 -1l-173 -720h-70l96 399q-45 3 -75.5 15t-49 31.5t-26 44.5t-7.5 54q0 65 28 111.5t74 76.5t103.5 44t116.5 14q35 0 75 -3t72 -12l-186 -775h-70l173 717q-9 2 -24.5 3t-35.5 1z" />
    <glyph glyph-name="periodcentered" unicode="&#xb7;" 
d="M285 184q-28 0 -47 17t-19 50q0 42 23.5 64t55.5 22q28 0 48 -17.5t20 -52.5q0 -19 -7 -34t-18.5 -26t-26 -17t-29.5 -6z" />
    <glyph glyph-name="cedilla" unicode="&#xb8;" 
d="M260 -34q18 -10 27 -21.5t9 -32.5q0 -39 -28 -60t-76 -21q-26 0 -43.5 4t-28.5 10l20 49q8 -4 19.5 -7t28.5 -3q15 0 24.5 4.5t9.5 17.5q0 15 -11.5 22t-24.5 10q5 9 13 21t16 23.5t15 21t11 14.5h57q-8 -11 -19 -26t-19 -26z" />
    <glyph glyph-name="onesuperior" unicode="&#xb9;" 
d="M242 556q79 28 133 70h44l-70 -288h81l-14 -57h-233l13 57h90l50 201q-23 -13 -45.5 -20.5l-40.5 -13.5z" />
    <glyph glyph-name="ordmasculine" unicode="&#xba;" 
d="M385 633q54 0 84.5 -30t30.5 -84q0 -36 -10.5 -76t-34 -73t-61.5 -55t-93 -22q-54 0 -84.5 30t-30.5 84q0 36 10.5 76t34 73t61.5 55t93 22zM313 348q28 0 50.5 15.5t38 40t23.5 53.5t8 56q0 29 -14 47t-46 18q-29 0 -51 -15.5t-37.5 -40t-23.5 -53.5t-8 -56
q0 -29 14 -47t46 -18z" />
    <glyph glyph-name="guillemotright" unicode="&#xbb;" 
d="M481 255l-160 -184l-47 35l123 154l-50 139l53 29zM302 255l-161 -184l-46 35l123 154l-50 139l53 29z" />
    <glyph glyph-name="onequarter" unicode="&#xbc;" 
d="M138 561q38 14 65.5 28t57.5 37h40l-61 -250h-59l42 171q-23 -11 -40.5 -18t-37.5 -13zM496 250l-37 -152h36l-12 -50h-36l-11 -48h-59l11 48h-129l10 41q38 46 78.5 85.5t90.5 75.5h58zM421 185q-15 -12 -26.5 -22.5t-21 -20.5t-19 -20.5t-19.5 -23.5h65zM104 0h-76
l482 619h78z" />
    <glyph glyph-name="onehalf" unicode="&#xbd;" 
d="M138 561q38 14 65.5 28t57.5 37h40l-61 -250h-59l42 171q-23 -11 -40.5 -18t-37.5 -13zM474 50l-11 -50h-189q4 22 9 37t14 27t23 22t35 22l25 14q30 17 43.5 28.5t13.5 28.5q0 14 -9 19.5t-23 5.5q-17 0 -35 -7t-31 -18l-23 39q18 17 46 27.5t56 10.5q30 0 52 -15
t22 -53q0 -21 -10.5 -38t-26 -31t-33.5 -25t-34 -19t-27.5 -14.5t-13.5 -10.5h127zM95 0h-76l482 619h78z" />
    <glyph glyph-name="threequarters" unicode="&#xbe;" 
d="M105 430q10 -5 26 -9t36 -4q26 0 44.5 8.5t18.5 29.5q0 16 -18 20.5t-51 4.5h-12l12 50h35q23 0 36 9t13 23q0 21 -35 21q-14 0 -32.5 -5t-32.5 -10l-8 43q15 8 40.5 15t51.5 7q29 0 51.5 -12.5t22.5 -45.5q0 -17 -11.5 -35t-34.5 -30q30 -19 30 -52q0 -16 -8 -32.5
t-24 -29.5t-40 -21t-56 -8q-45 0 -79 17zM496 250l-37 -152h36l-12 -50h-36l-11 -48h-59l11 48h-129l10 41q38 46 78.5 85.5t90.5 75.5h58zM421 185q-15 -12 -26.5 -22.5t-21 -20.5t-19 -20.5t-19.5 -23.5h65zM104 0h-76l482 619h78z" />
    <glyph glyph-name="questiondown" unicode="&#xbf;" 
d="M369 243l-3 -20q-4 -30 -21.5 -53t-40.5 -43.5t-48.5 -38.5t-47 -37.5t-35.5 -41t-14 -47.5q0 -29 18.5 -46.5t60.5 -17.5q29 0 56.5 6t59.5 22l9 -64q-25 -13 -61.5 -22.5t-75.5 -9.5q-29 0 -55.5 6t-47.5 20t-33.5 37t-12.5 58q0 37 14.5 64.5t37 50t49.5 41.5t51 39
t42.5 43t24.5 54h73zM372 465q26 0 42.5 -14.5t16.5 -45.5q0 -36 -20.5 -55.5t-48.5 -19.5q-26 0 -43.5 15.5t-17.5 45.5q0 35 22.5 54.5t48.5 19.5z" />
    <glyph glyph-name="Agrave" unicode="&#xc0;" 
d="M383 0l1 162h-238l-76 -162h-83q33 66 73 143t83.5 158t90 162.5t93.5 155.5h98q11 -74 18.5 -155.5t12.5 -162.5t8 -158t5 -143h-86zM357 547q-38 -63 -84 -146t-92 -171h200q-2 90 -9 173.5t-15 143.5zM355 830l114 -143l-44 -39l-130 131z" />
    <glyph glyph-name="Aacute" unicode="&#xc1;" 
d="M383 0l1 162h-238l-76 -162h-83q33 66 73 143t83.5 158t90 162.5t93.5 155.5h98q11 -74 18.5 -155.5t12.5 -162.5t8 -158t5 -143h-86zM357 547q-38 -63 -84 -146t-92 -171h200q-2 90 -9 173.5t-15 143.5zM525 765l-151 -114l-35 44l141 135z" />
    <glyph glyph-name="Acircumflex" unicode="&#xc2;" 
d="M383 0l1 162h-238l-76 -162h-83q33 66 73 143t83.5 158t90 162.5t93.5 155.5h98q11 -74 18.5 -155.5t12.5 -162.5t8 -158t5 -143h-86zM357 547q-38 -63 -84 -146t-92 -171h200q-2 90 -9 173.5t-15 143.5zM406 735l-100 -74l-29 41l145 124l94 -132l-39 -37z" />
    <glyph glyph-name="Atilde" unicode="&#xc3;" 
d="M383 0l1 162h-238l-76 -162h-83q33 66 73 143t83.5 158t90 162.5t93.5 155.5h98q11 -74 18.5 -155.5t12.5 -162.5t8 -158t5 -143h-86zM357 547q-38 -63 -84 -146t-92 -171h200q-2 90 -9 173.5t-15 143.5zM411 770q14 -7 24 -11.5t21 -4.5q19 0 31.5 14t22.5 29l42 -26
q-18 -37 -43 -57t-64 -20q-18 0 -31.5 5.5t-26.5 13.5q-14 8 -24.5 12t-21.5 4q-19 0 -31 -13.5t-22 -29.5l-42 26q18 37 42.5 57.5t64.5 20.5q18 0 31.5 -6t26.5 -14z" />
    <glyph glyph-name="Adieresis" unicode="&#xc4;" 
d="M383 0l1 162h-238l-76 -162h-83q33 66 73 143t83.5 158t90 162.5t93.5 155.5h98q11 -74 18.5 -155.5t12.5 -162.5t8 -158t5 -143h-86zM357 547q-38 -63 -84 -146t-92 -171h200q-2 90 -9 173.5t-15 143.5zM321 689q-20 0 -33.5 12.5t-13.5 33.5q0 26 18 42.5t38 16.5
t34 -12.5t14 -34.5q0 -26 -18.5 -42t-38.5 -16zM490 689q-20 0 -33 12.5t-13 33.5q0 26 17.5 42.5t38.5 16.5q20 0 33.5 -12.5t13.5 -34.5q0 -26 -18 -42t-39 -16z" />
    <glyph glyph-name="Aring" unicode="&#xc5;" 
d="M383 0l1 162h-238l-76 -162h-83q30 61 68 134.5t80.5 152t87 157t88.5 149.5q-11 12 -18 28.5t-7 36.5q0 42 27.5 66.5t64.5 24.5t64.5 -24.5t27.5 -66.5q0 -23 -10.5 -44.5t-29.5 -33.5q8 -69 14.5 -146.5t11.5 -154.5t8 -149t5 -130h-86zM357 547q-38 -63 -84 -146
t-92 -171h200q-2 90 -9 173.5t-15 143.5zM425 658q0 23 -13.5 36t-33.5 13t-33.5 -13t-13.5 -36t13.5 -36t33.5 -13t33.5 13t13.5 36z" />
    <glyph glyph-name="AE" unicode="&#xc6;" 
d="M245 0l40 162h-121l-76 -162h-80q85 174 168 326.5t172 292.5h253l-17 -70h-128l-45 -190h104l-17 -70h-104l-53 -219h141l-17 -70h-220zM382 566q-50 -88 -97.5 -175t-85.5 -161h102z" />
    <glyph glyph-name="Ccedilla" unicode="&#xc7;" 
d="M280 -34q18 -10 27 -21.5t9 -32.5q0 -39 -28 -60t-76 -21q-26 0 -43.5 4t-28.5 10l20 49q8 -4 19.5 -7t28.5 -3q15 0 24.5 4.5t9.5 17.5q0 15 -11.5 22t-24.5 10q6 11 15.5 25t18.5 28q-70 12 -110.5 67.5t-40.5 143.5q0 79 23 156.5t66.5 138.5t105.5 98.5t140 37.5
q60 0 96.5 -16t53.5 -30l-39 -66q-17 15 -49.5 27t-67.5 12q-58 0 -103.5 -30t-77 -79t-48.5 -110.5t-17 -125.5q0 -72 32 -113.5t93 -41.5q48 0 85 12.5t55 23.5l9 -70q-6 -5 -19.5 -11t-33.5 -12t-45 -10.5t-53 -5.5z" />
    <glyph glyph-name="Egrave" unicode="&#xc8;" 
d="M71 0l150 619h346l-17 -70h-264l-46 -190h232l-17 -70h-232l-52 -219h286l-17 -70h-369zM384 830l114 -143l-44 -39l-130 131z" />
    <glyph glyph-name="Eacute" unicode="&#xc9;" 
d="M71 0l150 619h346l-17 -70h-264l-46 -190h232l-17 -70h-232l-52 -219h286l-17 -70h-369zM526 765l-151 -114l-35 44l141 135z" />
    <glyph glyph-name="Ecircumflex" unicode="&#xca;" 
d="M71 0l150 619h346l-17 -70h-264l-46 -190h232l-17 -70h-232l-52 -219h286l-17 -70h-369zM426 735l-100 -74l-29 41l145 124l94 -132l-39 -37z" />
    <glyph glyph-name="Edieresis" unicode="&#xcb;" 
d="M71 0l150 619h346l-17 -70h-264l-46 -190h232l-17 -70h-232l-52 -219h286l-17 -70h-369zM322 689q-20 0 -33.5 12.5t-13.5 33.5q0 26 18 42.5t38 16.5t34 -12.5t14 -34.5q0 -26 -18.5 -42t-38.5 -16zM491 689q-20 0 -33 12.5t-13 33.5q0 26 17.5 42.5t38.5 16.5
q20 0 33.5 -12.5t13.5 -34.5q0 -26 -18 -42t-39 -16z" />
    <glyph glyph-name="Igrave" unicode="&#xcc;" 
d="M405 549l-116 -479h120l-17 -70h-321l17 70h119l115 479h-119l17 70h321l-17 -70h-119zM357 830l114 -143l-44 -39l-130 131z" />
    <glyph glyph-name="Iacute" unicode="&#xcd;" 
d="M405 549l-116 -479h120l-17 -70h-321l17 70h119l115 479h-119l17 70h321l-17 -70h-119zM511 765l-151 -114l-35 44l141 135z" />
    <glyph glyph-name="Icircumflex" unicode="&#xce;" 
d="M405 549l-116 -479h120l-17 -70h-321l17 70h119l115 479h-119l17 70h321l-17 -70h-119zM408 735l-100 -74l-29 41l145 124l94 -132l-39 -37z" />
    <glyph glyph-name="Idieresis" unicode="&#xcf;" 
d="M405 549l-116 -479h120l-17 -70h-321l17 70h119l115 479h-119l17 70h321l-17 -70h-119zM323 689q-20 0 -33.5 12.5t-13.5 33.5q0 26 18 42.5t38 16.5t34 -12.5t14 -34.5q0 -26 -18.5 -42t-38.5 -16zM492 689q-20 0 -33 12.5t-13 33.5q0 26 17.5 42.5t38.5 16.5
q20 0 33.5 -12.5t13.5 -34.5q0 -26 -18 -42t-39 -16z" />
    <glyph glyph-name="Eth" unicode="&#xd0;" 
d="M522 405q0 -79 -19.5 -153t-60.5 -131t-104.5 -91.5t-150.5 -34.5q-29 0 -60 3t-57 11l66 280h-71l17 67h71l60 254q61 15 117 15q90 0 141 -57.5t51 -162.5zM167 71q6 -2 17 -3.5t20 -1.5q50 0 93 24t74.5 67.5t49.5 104.5t18 134q0 76 -29 117t-91 41q-22 0 -38 -3
l-46 -195h80l-17 -67h-79z" />
    <glyph glyph-name="Ntilde" unicode="&#xd1;" 
d="M349 0q-14 83 -27 151t-27.5 128t-29.5 114t-31 110l-119 -503h-75l149 619h81q23 -75 39.5 -132t30 -110.5t25 -110.5t24.5 -132l115 485h75l-149 -619h-81zM415 770q14 -7 24 -11.5t21 -4.5q19 0 31.5 14t22.5 29l42 -26q-18 -37 -43 -57t-64 -20q-18 0 -31.5 5.5
t-26.5 13.5q-14 8 -24.5 12t-21.5 4q-19 0 -31 -13.5t-22 -29.5l-42 26q18 37 42.5 57.5t64.5 20.5q18 0 31.5 -6t26.5 -14z" />
    <glyph glyph-name="Ograve" unicode="&#xd2;" 
d="M369 562q-49 0 -87.5 -36.5t-64.5 -92t-40 -121t-14 -122.5q0 -71 24 -101.5t67 -30.5q49 0 87 36.5t64 92t39.5 121t13.5 122.5q0 70 -23.5 101t-65.5 31zM379 633q72 0 117 -47.5t45 -149.5q0 -37 -7 -84.5t-22 -97.5t-38.5 -98t-56.5 -85.5t-76 -60.5t-97 -23
q-73 0 -118.5 47.5t-45.5 149.5q0 37 7 84.5t22 97.5t39 98t57 85.5t76.5 60.5t97.5 23zM362 830l114 -143l-44 -39l-130 131z" />
    <glyph glyph-name="Oacute" unicode="&#xd3;" 
d="M369 562q-49 0 -87.5 -36.5t-64.5 -92t-40 -121t-14 -122.5q0 -71 24 -101.5t67 -30.5q49 0 87 36.5t64 92t39.5 121t13.5 122.5q0 70 -23.5 101t-65.5 31zM379 633q72 0 117 -47.5t45 -149.5q0 -37 -7 -84.5t-22 -97.5t-38.5 -98t-56.5 -85.5t-76 -60.5t-97 -23
q-73 0 -118.5 47.5t-45.5 149.5q0 37 7 84.5t22 97.5t39 98t57 85.5t76.5 60.5t97.5 23zM523 765l-151 -114l-35 44l141 135z" />
    <glyph glyph-name="Ocircumflex" unicode="&#xd4;" 
d="M369 562q-49 0 -87.5 -36.5t-64.5 -92t-40 -121t-14 -122.5q0 -71 24 -101.5t67 -30.5q49 0 87 36.5t64 92t39.5 121t13.5 122.5q0 70 -23.5 101t-65.5 31zM379 633q72 0 117 -47.5t45 -149.5q0 -37 -7 -84.5t-22 -97.5t-38.5 -98t-56.5 -85.5t-76 -60.5t-97 -23
q-73 0 -118.5 47.5t-45.5 149.5q0 37 7 84.5t22 97.5t39 98t57 85.5t76.5 60.5t97.5 23zM412 735l-100 -74l-29 41l145 124l94 -132l-39 -37z" />
    <glyph glyph-name="Otilde" unicode="&#xd5;" 
d="M369 562q-49 0 -87.5 -36.5t-64.5 -92t-40 -121t-14 -122.5q0 -71 24 -101.5t67 -30.5q49 0 87 36.5t64 92t39.5 121t13.5 122.5q0 70 -23.5 101t-65.5 31zM379 633q72 0 117 -47.5t45 -149.5q0 -37 -7 -84.5t-22 -97.5t-38.5 -98t-56.5 -85.5t-76 -60.5t-97 -23
q-73 0 -118.5 47.5t-45.5 149.5q0 37 7 84.5t22 97.5t39 98t57 85.5t76.5 60.5t97.5 23zM418 770q14 -7 24 -11.5t21 -4.5q19 0 31.5 14t22.5 29l42 -26q-18 -37 -43 -57t-64 -20q-18 0 -31.5 5.5t-26.5 13.5q-14 8 -24.5 12t-21.5 4q-19 0 -31 -13.5t-22 -29.5l-42 26
q18 37 42.5 57.5t64.5 20.5q18 0 31.5 -6t26.5 -14z" />
    <glyph glyph-name="Odieresis" unicode="&#xd6;" 
d="M369 562q-49 0 -87.5 -36.5t-64.5 -92t-40 -121t-14 -122.5q0 -71 24 -101.5t67 -30.5q49 0 87 36.5t64 92t39.5 121t13.5 122.5q0 70 -23.5 101t-65.5 31zM379 633q72 0 117 -47.5t45 -149.5q0 -37 -7 -84.5t-22 -97.5t-38.5 -98t-56.5 -85.5t-76 -60.5t-97 -23
q-73 0 -118.5 47.5t-45.5 149.5q0 37 7 84.5t22 97.5t39 98t57 85.5t76.5 60.5t97.5 23zM328 689q-20 0 -33.5 12.5t-13.5 33.5q0 26 18 42.5t38 16.5t34 -12.5t14 -34.5q0 -26 -18.5 -42t-38.5 -16zM497 689q-20 0 -33 12.5t-13 33.5q0 26 17.5 42.5t38.5 16.5
q20 0 33.5 -12.5t13.5 -34.5q0 -26 -18 -42t-39 -16z" />
    <glyph glyph-name="multiply" unicode="&#xd7;" 
d="M290 213l-161 -131l-41 54l162 131l-97 129l56 45l97 -128l161 131l42 -54l-163 -131l98 -129l-56 -45z" />
    <glyph glyph-name="Oslash" unicode="&#xd8;" 
d="M370 633q62 0 102 -34l38 52l51 -37l-49 -67q20 -45 20 -111q0 -37 -7 -84.5t-22 -97.5t-38.5 -98t-56.5 -85.5t-76 -60.5t-97 -23q-64 0 -105 34l-39 -54l-50 36l51 70q-10 22 -15.5 49.5t-5.5 61.5q0 37 7 84.5t22 97.5t39 98t57 85.5t76.5 60.5t97.5 23zM453 430
q0 8 -0.5 16.5t-1.5 16.5l-274 -377q24 -28 68 -28q49 0 87.5 36.5t65.5 92t41 121t14 122.5zM360 562q-49 0 -87.5 -36.5t-65.5 -92t-41 -121t-14 -122.5v-16.5t1 -16.5l273 378q-24 27 -66 27z" />
    <glyph glyph-name="Ugrave" unicode="&#xd9;" 
d="M237 -13q-41 0 -70 14t-48.5 37.5t-28.5 54.5t-9 65q0 30 8 64l95 397h82l-95 -396q-8 -34 -8 -63q0 -21 4.5 -39.5t14.5 -32.5t26.5 -22t40.5 -8q27 0 49 6.5t40 23.5t32 47t26 77l98 407h82l-100 -417q-12 -51 -29.5 -91t-45 -67.5t-67.5 -42t-97 -14.5zM331 830
l114 -143l-44 -39l-130 131z" />
    <glyph glyph-name="Uacute" unicode="&#xda;" 
d="M237 -13q-41 0 -70 14t-48.5 37.5t-28.5 54.5t-9 65q0 30 8 64l95 397h82l-95 -396q-8 -34 -8 -63q0 -21 4.5 -39.5t14.5 -32.5t26.5 -22t40.5 -8q27 0 49 6.5t40 23.5t32 47t26 77l98 407h82l-100 -417q-12 -51 -29.5 -91t-45 -67.5t-67.5 -42t-97 -14.5zM527 765
l-151 -114l-35 44l141 135z" />
    <glyph glyph-name="Ucircumflex" unicode="&#xdb;" 
d="M237 -13q-41 0 -70 14t-48.5 37.5t-28.5 54.5t-9 65q0 30 8 64l95 397h82l-95 -396q-8 -34 -8 -63q0 -21 4.5 -39.5t14.5 -32.5t26.5 -22t40.5 -8q27 0 49 6.5t40 23.5t32 47t26 77l98 407h82l-100 -417q-12 -51 -29.5 -91t-45 -67.5t-67.5 -42t-97 -14.5zM408 735
l-100 -74l-29 41l145 124l94 -132l-39 -37z" />
    <glyph glyph-name="Udieresis" unicode="&#xdc;" 
d="M237 -13q-41 0 -70 14t-48.5 37.5t-28.5 54.5t-9 65q0 30 8 64l95 397h82l-95 -396q-8 -34 -8 -63q0 -21 4.5 -39.5t14.5 -32.5t26.5 -22t40.5 -8q27 0 49 6.5t40 23.5t32 47t26 77l98 407h82l-100 -417q-12 -51 -29.5 -91t-45 -67.5t-67.5 -42t-97 -14.5zM323 689
q-20 0 -33.5 12.5t-13.5 33.5q0 26 18 42.5t38 16.5t34 -12.5t14 -34.5q0 -26 -18.5 -42t-38.5 -16zM492 689q-20 0 -33 12.5t-13 33.5q0 26 17.5 42.5t38.5 16.5q20 0 33.5 -12.5t13.5 -34.5q0 -26 -18 -42t-39 -16z" />
    <glyph glyph-name="Yacute" unicode="&#xdd;" 
d="M622 619q-60 -98 -133.5 -194.5t-154.5 -192.5l-56 -232h-82l55 230q-37 100 -63.5 195.5t-40.5 193.5h82q9 -81 31 -167.5t45 -158.5q30 39 61 81t60.5 84.5t56.5 83.5t50 77h89zM536 765l-151 -114l-35 44l141 135z" />
    <glyph glyph-name="Thorn" unicode="&#xde;" 
d="M202 619h82l-24 -102q31 3 61 3q99 0 148 -43.5t49 -113.5q0 -69 -27.5 -114.5t-72 -72.5t-101 -38t-114.5 -11h-37l-31 -127h-82zM183 199h39q41 0 78.5 8t66.5 26.5t46 48t17 73.5q0 37 -20.5 56t-49.5 27t-62 7.5t-57 -2.5z" />
    <glyph glyph-name="germandbls" unicode="&#xdf;" 
d="M175 463q13 55 29 97.5t39.5 72t56 45t78.5 15.5q71 0 104 -34t33 -87q0 -26 -5.5 -45t-17 -36t-29 -33.5t-41.5 -37.5q-15 -14 -26 -23.5t-18.5 -19t-11 -19.5t-3.5 -23q0 -14 10 -25t25 -22t32 -22.5t32 -27.5t25 -37.5t10 -50.5q0 -42 -16 -72.5t-42.5 -50.5
t-60.5 -29.5t-70 -9.5q-31 0 -55.5 5.5t-50.5 18.5l31 72q20 -13 38.5 -18.5t44.5 -5.5q19 0 37 4.5t32 15t22 26.5t8 39t-10 38t-25 26.5t-32.5 21.5t-32.5 23t-25 31t-10 45q0 40 24 68t53 52.5t53 50t24 62.5q0 59 -61 59q-47 0 -73.5 -44.5t-42.5 -116.5l-95 -443
q-11 -50 -25.5 -85.5t-37 -58t-53.5 -32.5t-75 -10q-15 0 -34 4t-30 12l19 69q21 -13 58 -13q41 0 62.5 31t32.5 82z" />
    <glyph glyph-name="agrave" unicode="&#xe0;" 
d="M376 -5q-5 10 -9 21.5t-6 25.5q-20 -18 -55.5 -35.5t-83.5 -17.5q-78 0 -114.5 47t-36.5 119q0 60 20 117t60.5 102t101.5 72.5t142 27.5q12 0 27.5 -1t31.5 -4t31.5 -7.5t27.5 -10.5l-68 -280q-5 -21 -8.5 -39.5t-3.5 -39.5t4 -41.5t12 -45.5zM239 57q38 0 67.5 16
t49.5 38q1 15 3.5 34t6.5 36l55 219q-5 2 -19 3.5t-22 1.5q-51 0 -92.5 -20t-71.5 -53.5t-46 -77t-16 -90.5q0 -23 4 -42.5t13.5 -33.5t26 -22.5t41.5 -8.5zM341 691l114 -143l-44 -39l-130 131z" />
    <glyph glyph-name="aacute" unicode="&#xe1;" 
d="M376 -5q-5 10 -9 21.5t-6 25.5q-20 -18 -55.5 -35.5t-83.5 -17.5q-78 0 -114.5 47t-36.5 119q0 60 20 117t60.5 102t101.5 72.5t142 27.5q12 0 27.5 -1t31.5 -4t31.5 -7.5t27.5 -10.5l-68 -280q-5 -21 -8.5 -39.5t-3.5 -39.5t4 -41.5t12 -45.5zM239 57q38 0 67.5 16
t49.5 38q1 15 3.5 34t6.5 36l55 219q-5 2 -19 3.5t-22 1.5q-51 0 -92.5 -20t-71.5 -53.5t-46 -77t-16 -90.5q0 -23 4 -42.5t13.5 -33.5t26 -22.5t41.5 -8.5zM511 626l-151 -114l-35 44l141 135z" />
    <glyph glyph-name="acircumflex" unicode="&#xe2;" 
d="M376 -5q-5 10 -9 21.5t-6 25.5q-20 -18 -55.5 -35.5t-83.5 -17.5q-78 0 -114.5 47t-36.5 119q0 60 20 117t60.5 102t101.5 72.5t142 27.5q12 0 27.5 -1t31.5 -4t31.5 -7.5t27.5 -10.5l-68 -280q-5 -21 -8.5 -39.5t-3.5 -39.5t4 -41.5t12 -45.5zM239 57q38 0 67.5 16
t49.5 38q1 15 3.5 34t6.5 36l55 219q-5 2 -19 3.5t-22 1.5q-51 0 -92.5 -20t-71.5 -53.5t-46 -77t-16 -90.5q0 -23 4 -42.5t13.5 -33.5t26 -22.5t41.5 -8.5zM392 596l-100 -74l-29 41l145 124l94 -132l-39 -37z" />
    <glyph glyph-name="atilde" unicode="&#xe3;" 
d="M376 -5q-5 10 -9 21.5t-6 25.5q-20 -18 -55.5 -35.5t-83.5 -17.5q-78 0 -114.5 47t-36.5 119q0 60 20 117t60.5 102t101.5 72.5t142 27.5q12 0 27.5 -1t31.5 -4t31.5 -7.5t27.5 -10.5l-68 -280q-5 -21 -8.5 -39.5t-3.5 -39.5t4 -41.5t12 -45.5zM239 57q38 0 67.5 16
t49.5 38q1 15 3.5 34t6.5 36l55 219q-5 2 -19 3.5t-22 1.5q-51 0 -92.5 -20t-71.5 -53.5t-46 -77t-16 -90.5q0 -23 4 -42.5t13.5 -33.5t26 -22.5t41.5 -8.5zM406 631q14 -7 24 -11.5t21 -4.5q19 0 31.5 14t22.5 29l42 -26q-18 -37 -43 -57t-64 -20q-18 0 -31.5 5.5
t-26.5 13.5q-14 8 -24.5 12t-21.5 4q-19 0 -31 -13.5t-22 -29.5l-42 26q18 37 42.5 57.5t64.5 20.5q18 0 31.5 -6t26.5 -14z" />
    <glyph glyph-name="adieresis" unicode="&#xe4;" 
d="M376 -5q-5 10 -9 21.5t-6 25.5q-20 -18 -55.5 -35.5t-83.5 -17.5q-78 0 -114.5 47t-36.5 119q0 60 20 117t60.5 102t101.5 72.5t142 27.5q12 0 27.5 -1t31.5 -4t31.5 -7.5t27.5 -10.5l-68 -280q-5 -21 -8.5 -39.5t-3.5 -39.5t4 -41.5t12 -45.5zM239 57q38 0 67.5 16
t49.5 38q1 15 3.5 34t6.5 36l55 219q-5 2 -19 3.5t-22 1.5q-51 0 -92.5 -20t-71.5 -53.5t-46 -77t-16 -90.5q0 -23 4 -42.5t13.5 -33.5t26 -22.5t41.5 -8.5zM316 550q-20 0 -33.5 12.5t-13.5 33.5q0 26 18 42.5t38 16.5t34 -12.5t14 -34.5q0 -26 -18.5 -42t-38.5 -16z
M485 550q-20 0 -33 12.5t-13 33.5q0 26 17.5 42.5t38.5 16.5q20 0 33.5 -12.5t13.5 -34.5q0 -26 -18 -42t-39 -16z" />
    <glyph glyph-name="aring" unicode="&#xe5;" 
d="M376 -5q-5 10 -9 21.5t-6 25.5q-20 -18 -55.5 -35.5t-83.5 -17.5q-78 0 -114.5 47t-36.5 119q0 60 20 117t60.5 102t101.5 72.5t142 27.5q12 0 27.5 -1t31.5 -4t31.5 -7.5t27.5 -10.5l-68 -280q-5 -21 -8.5 -39.5t-3.5 -39.5t4 -41.5t12 -45.5zM239 57q38 0 67.5 16
t49.5 38q1 15 3.5 34t6.5 36l55 219q-5 2 -19 3.5t-22 1.5q-51 0 -92.5 -20t-71.5 -53.5t-46 -77t-16 -90.5q0 -23 4 -42.5t13.5 -33.5t26 -22.5t41.5 -8.5zM488 605q0 -43 -27.5 -67.5t-64.5 -24.5t-64.5 24.5t-27.5 67.5q0 42 27.5 66.5t64.5 24.5t64.5 -24.5t27.5 -66.5z
M443 605q0 23 -13.5 36t-33.5 13t-33.5 -13t-13.5 -36q0 -24 13.5 -37t33.5 -13t33.5 13t13.5 37z" />
    <glyph glyph-name="ae" unicode="&#xe6;" 
d="M266 79q-11 -21 -26.5 -38t-33.5 -28.5t-37 -17.5t-37 -6q-35 0 -60.5 25t-25.5 79q0 31 13 63.5t39.5 60.5t67.5 46.5t97 20.5q1 7 1 13v14q0 47 -18 69.5t-49 22.5t-72 -23l5 69q22 14 44 20t43 6q18 0 36 -5t34 -15.5t27.5 -27.5t15.5 -42q21 43 57.5 66.5t71.5 23.5
t60.5 -25t25.5 -79q0 -31 -12.5 -63.5t-39.5 -60t-68 -46t-98 -21.5v-26q0 -48 18 -70t49 -22t72 23l-5 -70q-22 -14 -44 -20t-43 -6q-18 0 -35 5t-32 15.5t-26 27.5t-15 42zM156 59q12 0 26.5 10t28.5 29.5t26 48.5t19 68q-37 -2 -62 -12t-40.5 -25t-22 -33t-6.5 -34
q0 -26 8.5 -39t22.5 -13zM435 405q-12 0 -26.5 -10t-28.5 -29.5t-26 -48.5t-19 -68q37 1 62 11.5t40.5 26t22 33t6.5 34.5q0 26 -8.5 38.5t-22.5 12.5z" />
    <glyph glyph-name="ccedilla" unicode="&#xe7;" 
d="M260 -34q18 -10 27 -21.5t9 -32.5q0 -39 -28 -60t-76 -21q-26 0 -43.5 4t-28.5 10l20 49q8 -4 19.5 -7t28.5 -3q15 0 24.5 4.5t9.5 17.5q0 15 -11.5 22t-24.5 10q6 11 16.5 26t19.5 29q-76 14 -113.5 60t-37.5 113q0 61 20.5 117t60 99t97 68.5t132.5 25.5q41 0 72 -5.5
t58 -16.5l-31 -70q-17 8 -40.5 15t-65.5 7q-51 0 -92 -19.5t-69.5 -52t-43.5 -74t-15 -86.5q0 -23 6 -43.5t22 -36.5t43.5 -25t69.5 -9q22 0 43 3t39 8t31.5 10t20.5 10l7 -70q-18 -11 -58.5 -22t-97.5 -11h-4z" />
    <glyph glyph-name="egrave" unicode="&#xe8;" 
d="M162 244q60 1 108 5.5t81.5 16.5t51.5 33.5t18 54.5q0 8 -3.5 17t-12 17t-23.5 13t-37 5q-34 0 -63.5 -13.5t-53.5 -36t-40.5 -51.5t-25.5 -61zM263 -12q-49 0 -85 14.5t-60 38.5t-35.5 55.5t-11.5 65.5q0 63 19.5 120t56.5 99.5t89.5 68t118.5 25.5q39 0 67 -9.5t46 -25
t26.5 -36.5t8.5 -44q0 -63 -32 -98t-83 -52.5t-113.5 -22.5t-122.5 -7q-6 -63 33 -91.5t103 -28.5q21 0 43.5 3.5t42 8t34.5 10t21 9.5l7 -70q-19 -10 -62 -21.5t-111 -11.5zM342 691l114 -143l-44 -39l-130 131z" />
    <glyph glyph-name="eacute" unicode="&#xe9;" 
d="M162 244q60 1 108 5.5t81.5 16.5t51.5 33.5t18 54.5q0 8 -3.5 17t-12 17t-23.5 13t-37 5q-34 0 -63.5 -13.5t-53.5 -36t-40.5 -51.5t-25.5 -61zM263 -12q-49 0 -85 14.5t-60 38.5t-35.5 55.5t-11.5 65.5q0 63 19.5 120t56.5 99.5t89.5 68t118.5 25.5q39 0 67 -9.5t46 -25
t26.5 -36.5t8.5 -44q0 -63 -32 -98t-83 -52.5t-113.5 -22.5t-122.5 -7q-6 -63 33 -91.5t103 -28.5q21 0 43.5 3.5t42 8t34.5 10t21 9.5l7 -70q-19 -10 -62 -21.5t-111 -11.5zM491 626l-151 -114l-35 44l141 135z" />
    <glyph glyph-name="ecircumflex" unicode="&#xea;" 
d="M162 244q60 1 108 5.5t81.5 16.5t51.5 33.5t18 54.5q0 8 -3.5 17t-12 17t-23.5 13t-37 5q-34 0 -63.5 -13.5t-53.5 -36t-40.5 -51.5t-25.5 -61zM263 -12q-49 0 -85 14.5t-60 38.5t-35.5 55.5t-11.5 65.5q0 63 19.5 120t56.5 99.5t89.5 68t118.5 25.5q39 0 67 -9.5t46 -25
t26.5 -36.5t8.5 -44q0 -63 -32 -98t-83 -52.5t-113.5 -22.5t-122.5 -7q-6 -63 33 -91.5t103 -28.5q21 0 43.5 3.5t42 8t34.5 10t21 9.5l7 -70q-19 -10 -62 -21.5t-111 -11.5zM382 596l-100 -74l-29 41l145 124l94 -132l-39 -37z" />
    <glyph glyph-name="edieresis" unicode="&#xeb;" 
d="M162 244q60 1 108 5.5t81.5 16.5t51.5 33.5t18 54.5q0 8 -3.5 17t-12 17t-23.5 13t-37 5q-34 0 -63.5 -13.5t-53.5 -36t-40.5 -51.5t-25.5 -61zM263 -12q-49 0 -85 14.5t-60 38.5t-35.5 55.5t-11.5 65.5q0 63 19.5 120t56.5 99.5t89.5 68t118.5 25.5q39 0 67 -9.5t46 -25
t26.5 -36.5t8.5 -44q0 -63 -32 -98t-83 -52.5t-113.5 -22.5t-122.5 -7q-6 -63 33 -91.5t103 -28.5q21 0 43.5 3.5t42 8t34.5 10t21 9.5l7 -70q-19 -10 -62 -21.5t-111 -11.5zM308 550q-20 0 -33.5 12.5t-13.5 33.5q0 26 18 42.5t38 16.5t34 -12.5t14 -34.5q0 -26 -18.5 -42
t-38.5 -16zM477 550q-20 0 -33 12.5t-13 33.5q0 26 17.5 42.5t38.5 16.5q20 0 33.5 -12.5t13.5 -34.5q0 -26 -18 -42t-39 -16z" />
    <glyph glyph-name="igrave" unicode="&#xec;" 
d="M305 205q-5 -20 -8.5 -38t-3.5 -35q0 -28 14.5 -46.5t55.5 -18.5q17 0 33 2.5t30 6.5l-5 -70q-7 -2 -25.5 -5.5t-52.5 -3.5q-37 0 -62.5 10t-41 27t-22 40t-6.5 50q0 21 3.5 43t8.5 45l45 183h-134l16 69h216zM287 691l114 -143l-44 -39l-130 131z" />
    <glyph glyph-name="iacute" unicode="&#xed;" 
d="M305 205q-5 -20 -8.5 -38t-3.5 -35q0 -28 14.5 -46.5t55.5 -18.5q17 0 33 2.5t30 6.5l-5 -70q-7 -2 -25.5 -5.5t-52.5 -3.5q-37 0 -62.5 10t-41 27t-22 40t-6.5 50q0 21 3.5 43t8.5 45l45 183h-134l16 69h216zM457 626l-151 -114l-35 44l141 135z" />
    <glyph glyph-name="icircumflex" unicode="&#xee;" 
d="M305 205q-5 -20 -8.5 -38t-3.5 -35q0 -28 14.5 -46.5t55.5 -18.5q17 0 33 2.5t30 6.5l-5 -70q-7 -2 -25.5 -5.5t-52.5 -3.5q-37 0 -62.5 10t-41 27t-22 40t-6.5 50q0 21 3.5 43t8.5 45l45 183h-134l16 69h216zM338 596l-100 -74l-29 41l145 124l94 -132l-39 -37z" />
    <glyph glyph-name="idieresis" unicode="&#xef;" 
d="M305 205q-5 -20 -8.5 -38t-3.5 -35q0 -28 14.5 -46.5t55.5 -18.5q17 0 33 2.5t30 6.5l-5 -70q-7 -2 -25.5 -5.5t-52.5 -3.5q-37 0 -62.5 10t-41 27t-22 40t-6.5 50q0 21 3.5 43t8.5 45l45 183h-134l16 69h216zM253 550q-20 0 -33.5 12.5t-13.5 33.5q0 26 18 42.5t38 16.5
t34 -12.5t14 -34.5q0 -26 -18.5 -42t-38.5 -16zM422 550q-20 0 -33 12.5t-13 33.5q0 26 17.5 42.5t38.5 16.5q20 0 33.5 -12.5t13.5 -34.5q0 -26 -18 -42t-39 -16z" />
    <glyph glyph-name="eth" unicode="&#xf0;" 
d="M499 381q0 -27 -3.5 -66.5t-14 -83t-29 -87t-48 -78.5t-71.5 -56.5t-100 -21.5q-33 0 -61 13t-48.5 36t-32 54t-11.5 66q0 59 16 110.5t47 89.5t77 59.5t106 21.5q29 0 52 -8.5t38 -18.5q-2 29 -8 58.5t-19 59.5l-116 -37l-7 56l98 32q-14 23 -29.5 38.5t-33.5 32.5
l62 42q17 -13 37.5 -35t40.5 -54l117 37l7 -56l-98 -31q14 -35 23 -78t9 -95zM245 58q39 0 69 24t51 62.5t33 87t16 98.5q-21 20 -45.5 29t-48.5 9q-76 0 -116.5 -56.5t-40.5 -153.5q0 -44 21.5 -72t60.5 -28z" />
    <glyph glyph-name="ntilde" unicode="&#xf1;" 
d="M145 0h-82l107 447q41 12 88 19.5t85 7.5q40 0 69 -11t47 -30.5t26.5 -46.5t8.5 -59q0 -21 -4 -43.5t-10 -45.5l-57 -238h-82l53 220q6 25 12 50.5t6 49.5q0 35 -20 58.5t-73 23.5q-23 0 -44.5 -2.5t-35.5 -7.5zM377 631q14 -7 24 -11.5t21 -4.5q19 0 31.5 14t22.5 29
l42 -26q-18 -37 -43 -57t-64 -20q-18 0 -31.5 5.5t-26.5 13.5q-14 8 -24.5 12t-21.5 4q-19 0 -31 -13.5t-22 -29.5l-42 26q18 37 42.5 57.5t64.5 20.5q18 0 31.5 -6t26.5 -14z" />
    <glyph glyph-name="ograve" unicode="&#xf2;" 
d="M237 -11q-74 0 -115.5 43t-41.5 119q0 52 14.5 109t47 105t83.5 79t123 31q74 0 115.5 -43t41.5 -119q0 -52 -14.5 -109t-47 -105t-83.5 -79t-123 -31zM251 63q40 0 72 22.5t54 57.5t33.5 78.5t11.5 84.5q0 45 -20 70.5t-68 25.5q-40 0 -72 -22.5t-54 -58t-33.5 -79
t-11.5 -84.5q0 -45 20 -70t68 -25zM331 691l114 -143l-44 -39l-130 131z" />
    <glyph glyph-name="oacute" unicode="&#xf3;" 
d="M237 -11q-74 0 -115.5 43t-41.5 119q0 52 14.5 109t47 105t83.5 79t123 31q74 0 115.5 -43t41.5 -119q0 -52 -14.5 -109t-47 -105t-83.5 -79t-123 -31zM251 63q40 0 72 22.5t54 57.5t33.5 78.5t11.5 84.5q0 45 -20 70.5t-68 25.5q-40 0 -72 -22.5t-54 -58t-33.5 -79
t-11.5 -84.5q0 -45 20 -70t68 -25zM491 626l-151 -114l-35 44l141 135z" />
    <glyph glyph-name="ocircumflex" unicode="&#xf4;" 
d="M237 -11q-74 0 -115.5 43t-41.5 119q0 52 14.5 109t47 105t83.5 79t123 31q74 0 115.5 -43t41.5 -119q0 -52 -14.5 -109t-47 -105t-83.5 -79t-123 -31zM251 63q40 0 72 22.5t54 57.5t33.5 78.5t11.5 84.5q0 45 -20 70.5t-68 25.5q-40 0 -72 -22.5t-54 -58t-33.5 -79
t-11.5 -84.5q0 -45 20 -70t68 -25zM381 596l-100 -74l-29 41l145 124l94 -132l-39 -37z" />
    <glyph glyph-name="otilde" unicode="&#xf5;" 
d="M237 -11q-74 0 -115.5 43t-41.5 119q0 52 14.5 109t47 105t83.5 79t123 31q74 0 115.5 -43t41.5 -119q0 -52 -14.5 -109t-47 -105t-83.5 -79t-123 -31zM251 63q40 0 72 22.5t54 57.5t33.5 78.5t11.5 84.5q0 45 -20 70.5t-68 25.5q-40 0 -72 -22.5t-54 -58t-33.5 -79
t-11.5 -84.5q0 -45 20 -70t68 -25zM386 631q14 -7 24 -11.5t21 -4.5q19 0 31.5 14t22.5 29l42 -26q-18 -37 -43 -57t-64 -20q-18 0 -31.5 5.5t-26.5 13.5q-14 8 -24.5 12t-21.5 4q-19 0 -31 -13.5t-22 -29.5l-42 26q18 37 42.5 57.5t64.5 20.5q18 0 31.5 -6t26.5 -14z" />
    <glyph glyph-name="odieresis" unicode="&#xf6;" 
d="M237 -11q-74 0 -115.5 43t-41.5 119q0 52 14.5 109t47 105t83.5 79t123 31q74 0 115.5 -43t41.5 -119q0 -52 -14.5 -109t-47 -105t-83.5 -79t-123 -31zM251 63q40 0 72 22.5t54 57.5t33.5 78.5t11.5 84.5q0 45 -20 70.5t-68 25.5q-40 0 -72 -22.5t-54 -58t-33.5 -79
t-11.5 -84.5q0 -45 20 -70t68 -25zM294 550q-20 0 -33.5 12.5t-13.5 33.5q0 26 18 42.5t38 16.5t34 -12.5t14 -34.5q0 -26 -18.5 -42t-38.5 -16zM463 550q-20 0 -33 12.5t-13 33.5q0 26 17.5 42.5t38.5 16.5q20 0 33.5 -12.5t13.5 -34.5q0 -26 -18 -42t-39 -16z" />
    <glyph glyph-name="divide" unicode="&#xf7;" 
d="M328 108q0 -12 -5 -25t-14.5 -23.5t-22.5 -17t-28 -6.5q-23 0 -36.5 14.5t-13.5 34.5q0 28 20.5 50.5t51.5 22.5q23 0 35.5 -14.5t12.5 -35.5zM386 440q0 -13 -5 -26t-14 -23.5t-22 -17t-29 -6.5q-24 0 -37 14.5t-13 35.5q0 29 21 50.5t51 21.5q23 0 35.5 -14t12.5 -35z
M505 298l-17 -70h-400l16 70h401z" />
    <glyph glyph-name="oslash" unicode="&#xf8;" 
d="M556 457l-66 -67q7 -16 11 -35t4 -42q0 -52 -14.5 -109t-47 -105t-83.5 -79t-123 -31q-69 0 -109 37l-57 -58l-42 39l66 66q-15 34 -15 78q0 52 14.5 109t47 105t83.5 79t123 31q68 0 108 -37l57 58zM159 158v-9.5t1 -9.5l240 242q-21 21 -66 21q-40 0 -72.5 -22.5
t-55 -58t-35 -79t-12.5 -84.5zM251 63q40 0 72.5 22.5t55 57.5t35 78.5t12.5 84.5q0 5 -0.5 9.5t-0.5 9.5l-241 -243q24 -19 67 -19z" />
    <glyph glyph-name="ugrave" unicode="&#xf9;" 
d="M222 -10q-39 0 -65 11.5t-42.5 31t-23.5 46t-7 56.5q0 23 4 46t9 46l57 237h83l-53 -219q-5 -21 -11.5 -48.5t-6.5 -55.5q0 -16 3 -30.5t11 -26t22 -18t36 -6.5q38 0 68 16.5t49 38.5q1 14 2.5 29.5t6.5 33.5l69 286h82l-70 -293q-5 -21 -8 -40t-3 -40t3.5 -41t12.5 -45
l-73 -10q-5 10 -9.5 22.5t-6.5 26.5q-20 -18 -54 -36t-85 -18zM305 691l114 -143l-44 -39l-130 131z" />
    <glyph glyph-name="uacute" unicode="&#xfa;" 
d="M222 -10q-39 0 -65 11.5t-42.5 31t-23.5 46t-7 56.5q0 23 4 46t9 46l57 237h83l-53 -219q-5 -21 -11.5 -48.5t-6.5 -55.5q0 -16 3 -30.5t11 -26t22 -18t36 -6.5q38 0 68 16.5t49 38.5q1 14 2.5 29.5t6.5 33.5l69 286h82l-70 -293q-5 -21 -8 -40t-3 -40t3.5 -41t12.5 -45
l-73 -10q-5 10 -9.5 22.5t-6.5 26.5q-20 -18 -54 -36t-85 -18zM475 626l-151 -114l-35 44l141 135z" />
    <glyph glyph-name="ucircumflex" unicode="&#xfb;" 
d="M222 -10q-39 0 -65 11.5t-42.5 31t-23.5 46t-7 56.5q0 23 4 46t9 46l57 237h83l-53 -219q-5 -21 -11.5 -48.5t-6.5 -55.5q0 -16 3 -30.5t11 -26t22 -18t36 -6.5q38 0 68 16.5t49 38.5q1 14 2.5 29.5t6.5 33.5l69 286h82l-70 -293q-5 -21 -8 -40t-3 -40t3.5 -41t12.5 -45
l-73 -10q-5 10 -9.5 22.5t-6.5 26.5q-20 -18 -54 -36t-85 -18zM365 596l-100 -74l-29 41l145 124l94 -132l-39 -37z" />
    <glyph glyph-name="udieresis" unicode="&#xfc;" 
d="M222 -10q-39 0 -65 11.5t-42.5 31t-23.5 46t-7 56.5q0 23 4 46t9 46l57 237h83l-53 -219q-5 -21 -11.5 -48.5t-6.5 -55.5q0 -16 3 -30.5t11 -26t22 -18t36 -6.5q38 0 68 16.5t49 38.5q1 14 2.5 29.5t6.5 33.5l69 286h82l-70 -293q-5 -21 -8 -40t-3 -40t3.5 -41t12.5 -45
l-73 -10q-5 10 -9.5 22.5t-6.5 26.5q-20 -18 -54 -36t-85 -18zM271 550q-20 0 -33.5 12.5t-13.5 33.5q0 26 18 42.5t38 16.5t34 -12.5t14 -34.5q0 -26 -18.5 -42t-38.5 -16zM440 550q-20 0 -33 12.5t-13 33.5q0 26 17.5 42.5t38.5 16.5q20 0 33.5 -12.5t13.5 -34.5
q0 -26 -18 -42t-39 -16z" />
    <glyph glyph-name="yacute" unicode="&#xfd;" 
d="M283 75q34 54 61.5 111.5t48.5 110t35.5 96.5t20.5 71h87q-10 -34 -28 -84.5t-43.5 -109t-57.5 -120t-69 -116.5q-28 -42 -56.5 -79t-61 -64.5t-72 -43t-88.5 -15.5q-25 0 -46 6t-32 14l29 68q8 -8 23.5 -12.5t34.5 -4.5q52 0 87 21t69 70q-33 109 -58 228t-30 242h84
q1 -40 6 -88t13.5 -99t19.5 -103t23 -99zM474 626l-151 -114l-35 44l141 135z" />
    <glyph glyph-name="thorn" unicode="&#xfe;" 
d="M248 446q32 20 62 24.5t49 4.5q35 0 62.5 -12.5t46 -34t28 -51.5t9.5 -65q0 -62 -20 -120t-59.5 -103t-98.5 -72t-138 -27q-10 0 -26 1t-25 3l-38 -159h-82l203 844l85 14zM155 67q9 -2 24 -3.5t25 -1.5q48 0 88 20t69 53t45.5 76.5t16.5 90.5q0 20 -4.5 38.5t-15 33
t-27.5 23t-42 8.5q-22 0 -50.5 -7.5t-55.5 -27.5z" />
    <glyph glyph-name="ydieresis" unicode="&#xff;" 
d="M283 75q34 54 61.5 111.5t48.5 110t35.5 96.5t20.5 71h87q-10 -34 -28 -84.5t-43.5 -109t-57.5 -120t-69 -116.5q-28 -42 -56.5 -79t-61 -64.5t-72 -43t-88.5 -15.5q-25 0 -46 6t-32 14l29 68q8 -8 23.5 -12.5t34.5 -4.5q52 0 87 21t69 70q-33 109 -58 228t-30 242h84
q1 -40 6 -88t13.5 -99t19.5 -103t23 -99zM270 550q-20 0 -33.5 12.5t-13.5 33.5q0 26 18 42.5t38 16.5t34 -12.5t14 -34.5q0 -26 -18.5 -42t-38.5 -16zM439 550q-20 0 -33 12.5t-13 33.5q0 26 17.5 42.5t38.5 16.5q20 0 33.5 -12.5t13.5 -34.5q0 -26 -18 -42t-39 -16z" />
    <glyph glyph-name="Amacron" unicode="&#x100;" 
d="M383 0l1 162h-238l-76 -162h-83q33 66 73 143t83.5 158t90 162.5t93.5 155.5h98q11 -74 18.5 -155.5t12.5 -162.5t8 -158t5 -143h-86zM357 547q-38 -63 -84 -146t-92 -171h200q-2 90 -9 173.5t-15 143.5zM286 774h250l-15 -64h-250z" />
    <glyph glyph-name="amacron" unicode="&#x101;" 
d="M376 -5q-5 10 -9 21.5t-6 25.5q-20 -18 -55.5 -35.5t-83.5 -17.5q-78 0 -114.5 47t-36.5 119q0 60 20 117t60.5 102t101.5 72.5t142 27.5q12 0 27.5 -1t31.5 -4t31.5 -7.5t27.5 -10.5l-68 -280q-5 -21 -8.5 -39.5t-3.5 -39.5t4 -41.5t12 -45.5zM239 57q38 0 67.5 16
t49.5 38q1 15 3.5 34t6.5 36l55 219q-5 2 -19 3.5t-22 1.5q-51 0 -92.5 -20t-71.5 -53.5t-46 -77t-16 -90.5q0 -23 4 -42.5t13.5 -33.5t26 -22.5t41.5 -8.5zM286 635h250l-15 -64h-250z" />
    <glyph glyph-name="Abreve" unicode="&#x102;" 
d="M383 0l1 162h-238l-76 -162h-83q33 66 73 143t83.5 158t90 162.5t93.5 155.5h98q11 -74 18.5 -155.5t12.5 -162.5t8 -158t5 -143h-86zM357 547q-38 -63 -84 -146t-92 -171h200q-2 90 -9 173.5t-15 143.5zM401 684q-27 0 -46.5 8t-31.5 21.5t-18 30.5t-6 36q0 14 3 28h52
q-1 -3 -1 -11q0 -55 55 -55q19 0 32.5 6.5t22 16.5t13.5 21.5t8 21.5h56q-8 -60 -45 -92t-94 -32z" />
    <glyph glyph-name="abreve" unicode="&#x103;" 
d="M376 -5q-5 10 -9 21.5t-6 25.5q-20 -18 -55.5 -35.5t-83.5 -17.5q-78 0 -114.5 47t-36.5 119q0 60 20 117t60.5 102t101.5 72.5t142 27.5q12 0 27.5 -1t31.5 -4t31.5 -7.5t27.5 -10.5l-68 -280q-5 -21 -8.5 -39.5t-3.5 -39.5t4 -41.5t12 -45.5zM239 57q38 0 67.5 16
t49.5 38q1 15 3.5 34t6.5 36l55 219q-5 2 -19 3.5t-22 1.5q-51 0 -92.5 -20t-71.5 -53.5t-46 -77t-16 -90.5q0 -23 4 -42.5t13.5 -33.5t26 -22.5t41.5 -8.5zM401 545q-27 0 -46.5 8t-31.5 21.5t-18 30.5t-6 36q0 14 3 28h52q-1 -3 -1 -11q0 -55 55 -55q19 0 32.5 6.5
t22 16.5t13.5 21.5t8 21.5h56q-8 -60 -45 -92t-94 -32z" />
    <glyph glyph-name="Aogonek" unicode="&#x104;" 
d="M391 -167q-50 0 -69.5 15.5t-19.5 40.5q0 24 16 46.5t38 40.5q9 8 16.5 13.5t14.5 10.5h-4l1 162h-238l-76 -162h-83q33 66 73 143t83.5 158t90 162.5t93.5 155.5h98q11 -74 18.5 -155.5t12.5 -162.5t8 -158t5 -143q-11 -7 -22.5 -15.5t-24.5 -19.5q-11 -8 -26 -22.5
t-15 -32.5q0 -9 7.5 -14.5t25.5 -5.5q8 0 17.5 2t17.5 4l-7 -53q-22 -10 -51 -10zM357 547q-38 -63 -84 -146t-92 -171h200q-2 90 -9 173.5t-15 143.5z" />
    <glyph glyph-name="aogonek" unicode="&#x105;" 
d="M363 -167q-50 0 -69.5 15.5t-19.5 40.5q0 24 16 46.5t38 40.5q13 11 24 18t19 12q-3 8 -5.5 17t-4.5 19q-20 -18 -55.5 -35.5t-83.5 -17.5q-78 0 -114.5 47t-36.5 119q0 60 20 117t60.5 102t101.5 72.5t142 27.5q12 0 27.5 -1t31.5 -4t31.5 -7.5t27.5 -10.5l-68 -280
q-5 -21 -8.5 -39.5t-3.5 -39.5t4 -41.5t12 -45.5q-11 -8 -25 -17t-30 -23q-11 -8 -26 -22.5t-15 -32.5q0 -9 7.5 -14.5t25.5 -5.5q8 0 17.5 2t17.5 4l-7 -53q-22 -10 -51 -10zM239 57q38 0 67.5 16t49.5 38q1 15 3.5 34t6.5 36l55 219q-5 2 -19 3.5t-22 1.5q-51 0 -92.5 -20
t-71.5 -53.5t-46 -77t-16 -90.5q0 -23 4 -42.5t13.5 -33.5t26 -22.5t41.5 -8.5z" />
    <glyph glyph-name="Cacute" unicode="&#x106;" 
d="M279 -13q-88 0 -139 58t-51 157q0 79 23 156.5t66.5 138.5t105.5 98.5t140 37.5q60 0 96.5 -16t53.5 -30l-39 -66q-17 15 -49.5 27t-67.5 12q-58 0 -103.5 -30t-77 -79t-48.5 -110.5t-17 -125.5q0 -72 32 -113.5t93 -41.5q48 0 85 12.5t55 23.5l9 -70q-6 -5 -21.5 -11.5
t-37 -12.5t-49.5 -10.5t-59 -4.5zM536 765l-151 -114l-35 44l141 135z" />
    <glyph glyph-name="cacute" unicode="&#x107;" 
d="M71 166q0 61 20.5 117t60 99t97 68.5t132.5 25.5q41 0 72 -5.5t58 -16.5l-31 -70q-17 8 -40.5 15t-65.5 7q-51 0 -92 -19.5t-69.5 -52t-43.5 -74t-15 -86.5q0 -23 6 -43.5t22 -36.5t43.5 -25t69.5 -9q22 0 43 3t39 8t31.5 10t20.5 10l7 -70q-18 -11 -58.5 -22t-97.5 -11
q-104 0 -156.5 50t-52.5 128zM511 626l-151 -114l-35 44l141 135z" />
    <glyph glyph-name="Ccircumflex" unicode="&#x108;" 
d="M279 -13q-88 0 -139 58t-51 157q0 79 23 156.5t66.5 138.5t105.5 98.5t140 37.5q60 0 96.5 -16t53.5 -30l-39 -66q-17 15 -49.5 27t-67.5 12q-58 0 -103.5 -30t-77 -79t-48.5 -110.5t-17 -125.5q0 -72 32 -113.5t93 -41.5q48 0 85 12.5t55 23.5l9 -70q-6 -5 -21.5 -11.5
t-37 -12.5t-49.5 -10.5t-59 -4.5zM443 735l-100 -74l-29 41l145 124l94 -132l-39 -37z" />
    <glyph glyph-name="ccircumflex" unicode="&#x109;" 
d="M71 166q0 61 20.5 117t60 99t97 68.5t132.5 25.5q41 0 72 -5.5t58 -16.5l-31 -70q-17 8 -40.5 15t-65.5 7q-51 0 -92 -19.5t-69.5 -52t-43.5 -74t-15 -86.5q0 -23 6 -43.5t22 -36.5t43.5 -25t69.5 -9q22 0 43 3t39 8t31.5 10t20.5 10l7 -70q-18 -11 -58.5 -22t-97.5 -11
q-104 0 -156.5 50t-52.5 128zM392 596l-100 -74l-29 41l145 124l94 -132l-39 -37z" />
    <glyph glyph-name="Cdotaccent" unicode="&#x10a;" 
d="M279 -13q-88 0 -139 58t-51 157q0 79 23 156.5t66.5 138.5t105.5 98.5t140 37.5q60 0 96.5 -16t53.5 -30l-39 -66q-17 15 -49.5 27t-67.5 12q-58 0 -103.5 -30t-77 -79t-48.5 -110.5t-17 -125.5q0 -72 32 -113.5t93 -41.5q48 0 85 12.5t55 23.5l9 -70q-6 -5 -21.5 -11.5
t-37 -12.5t-49.5 -10.5t-59 -4.5zM423 687q-21 0 -34.5 12.5t-13.5 35.5q0 29 17.5 45t40.5 16q20 0 34.5 -13t14.5 -36q0 -27 -19 -43.5t-40 -16.5z" />
    <glyph glyph-name="cdotaccent" unicode="&#x10b;" 
d="M71 166q0 61 20.5 117t60 99t97 68.5t132.5 25.5q41 0 72 -5.5t58 -16.5l-31 -70q-17 8 -40.5 15t-65.5 7q-51 0 -92 -19.5t-69.5 -52t-43.5 -74t-15 -86.5q0 -23 6 -43.5t22 -36.5t43.5 -25t69.5 -9q22 0 43 3t39 8t31.5 10t20.5 10l7 -70q-18 -11 -58.5 -22t-97.5 -11
q-104 0 -156.5 50t-52.5 128zM396 548q-21 0 -34.5 12.5t-13.5 35.5q0 29 17.5 45t40.5 16q20 0 34.5 -13t14.5 -36q0 -27 -19 -43.5t-40 -16.5z" />
    <glyph glyph-name="Ccaron" unicode="&#x10c;" 
d="M279 -13q-88 0 -139 58t-51 157q0 79 23 156.5t66.5 138.5t105.5 98.5t140 37.5q60 0 96.5 -16t53.5 -30l-39 -66q-17 15 -49.5 27t-67.5 12q-58 0 -103.5 -30t-77 -79t-48.5 -110.5t-17 -125.5q0 -72 32 -113.5t93 -41.5q48 0 85 12.5t55 23.5l9 -70q-6 -5 -21.5 -11.5
t-37 -12.5t-49.5 -10.5t-59 -4.5zM436 752l100 74l30 -40l-145 -125l-95 133l40 36z" />
    <glyph glyph-name="ccaron" unicode="&#x10d;" 
d="M71 166q0 61 20.5 117t60 99t97 68.5t132.5 25.5q41 0 72 -5.5t58 -16.5l-31 -70q-17 8 -40.5 15t-65.5 7q-51 0 -92 -19.5t-69.5 -52t-43.5 -74t-15 -86.5q0 -23 6 -43.5t22 -36.5t43.5 -25t69.5 -9q22 0 43 3t39 8t31.5 10t20.5 10l7 -70q-18 -11 -58.5 -22t-97.5 -11
q-104 0 -156.5 50t-52.5 128zM393 613l100 74l30 -40l-145 -125l-95 133l40 36z" />
    <glyph glyph-name="Dcaron" unicode="&#x10e;" 
d="M523 405q0 -79 -21 -153t-65 -131t-112 -91.5t-162 -34.5q-32 0 -65 3t-62 11l143 601q66 15 127 15q102 0 159.5 -57.5t57.5 -162.5zM132 71q8 -2 22 -3.5t26 -1.5q56 0 103.5 24t82.5 67.5t54.5 104.5t19.5 134q0 76 -35 117t-110 41q-27 0 -49 -3zM373 752l100 74
l30 -40l-145 -125l-95 133l40 36z" />
    <glyph glyph-name="dcaron" unicode="&#x10f;" 
d="M371 92q0 -21 3.5 -41.5t12.5 -45.5l-74 -10q-9 18 -15 47q-18 -18 -47 -35.5t-76 -17.5q-33 0 -56.5 13t-39.5 34.5t-23.5 49t-7.5 56.5q0 61 18 121t54 106.5t90.5 75.5t127.5 29q8 0 17.5 -0.5t17.5 -2.5l50 208l85 14l-126 -522q-5 -21 -8 -39.5t-3 -39.5zM191 57
q35 0 60.5 16t42.5 38q1 15 3 34t7 36l54 219q-3 2 -13.5 3.5t-16.5 1.5q-45 0 -82 -21t-62.5 -56t-39.5 -80.5t-14 -94.5q0 -16 3 -33t10 -31t19 -23t29 -9zM646 693l-73 -198h-54l47 198h80z" />
    <glyph glyph-name="Dcroat" unicode="&#x110;" 
d="M522 405q0 -79 -19.5 -153t-60.5 -131t-104.5 -91.5t-150.5 -34.5q-29 0 -60 3t-57 11l66 280h-71l17 67h71l60 254q61 15 117 15q90 0 141 -57.5t51 -162.5zM167 71q6 -2 17 -3.5t20 -1.5q50 0 93 24t74.5 67.5t49.5 104.5t18 134q0 76 -29 117t-91 41q-22 0 -38 -3
l-46 -195h80l-17 -67h-79z" />
    <glyph glyph-name="dcroat" unicode="&#x111;" 
d="M292 610h168l17 69l85 14l-21 -83h67l-15 -62h-66l-91 -377q-5 -21 -8.5 -39.5t-3.5 -39.5t4 -41.5t12 -45.5l-73 -10q-5 9 -9 21t-6 26q-19 -18 -51 -35.5t-81 -17.5q-72 0 -106 46t-34 120q0 60 19.5 117.5t57.5 102t95.5 72t134.5 27.5q8 0 19 -0.5t21 -2.5l19 77
h-169zM236 57q35 0 63.5 16t47.5 38q1 15 3.5 34t6.5 36l55 219q-5 2 -17 3.5t-19 1.5q-48 0 -87.5 -20t-67.5 -53.5t-43 -77t-15 -90.5q0 -23 3.5 -42.5t11.5 -33.5t22.5 -22.5t35.5 -8.5z" />
    <glyph glyph-name="Emacron" unicode="&#x112;" 
d="M71 0l150 619h346l-17 -70h-264l-46 -190h232l-17 -70h-232l-52 -219h286l-17 -70h-369zM304 774h250l-15 -64h-250z" />
    <glyph glyph-name="emacron" unicode="&#x113;" 
d="M162 244q60 1 108 5.5t81.5 16.5t51.5 33.5t18 54.5q0 8 -3.5 17t-12 17t-23.5 13t-37 5q-34 0 -63.5 -13.5t-53.5 -36t-40.5 -51.5t-25.5 -61zM263 -12q-49 0 -85 14.5t-60 38.5t-35.5 55.5t-11.5 65.5q0 63 19.5 120t56.5 99.5t89.5 68t118.5 25.5q39 0 67 -9.5t46 -25
t26.5 -36.5t8.5 -44q0 -63 -32 -98t-83 -52.5t-113.5 -22.5t-122.5 -7q-6 -63 33 -91.5t103 -28.5q21 0 43.5 3.5t42 8t34.5 10t21 9.5l7 -70q-19 -10 -62 -21.5t-111 -11.5zM270 635h250l-15 -64h-250z" />
    <glyph glyph-name="Ebreve" unicode="&#x114;" 
d="M71 0l150 619h346l-17 -70h-264l-46 -190h232l-17 -70h-232l-52 -219h286l-17 -70h-369zM419 684q-27 0 -46.5 8t-31.5 21.5t-18 30.5t-6 36q0 14 3 28h52q-1 -3 -1 -11q0 -55 55 -55q19 0 32.5 6.5t22 16.5t13.5 21.5t8 21.5h56q-8 -60 -45 -92t-94 -32z" />
    <glyph glyph-name="ebreve" unicode="&#x115;" 
d="M162 244q60 1 108 5.5t81.5 16.5t51.5 33.5t18 54.5q0 8 -3.5 17t-12 17t-23.5 13t-37 5q-34 0 -63.5 -13.5t-53.5 -36t-40.5 -51.5t-25.5 -61zM263 -12q-49 0 -85 14.5t-60 38.5t-35.5 55.5t-11.5 65.5q0 63 19.5 120t56.5 99.5t89.5 68t118.5 25.5q39 0 67 -9.5t46 -25
t26.5 -36.5t8.5 -44q0 -63 -32 -98t-83 -52.5t-113.5 -22.5t-122.5 -7q-6 -63 33 -91.5t103 -28.5q21 0 43.5 3.5t42 8t34.5 10t21 9.5l7 -70q-19 -10 -62 -21.5t-111 -11.5zM385 545q-27 0 -46.5 8t-31.5 21.5t-18 30.5t-6 36q0 14 3 28h52q-1 -3 -1 -11q0 -55 55 -55
q19 0 32.5 6.5t22 16.5t13.5 21.5t8 21.5h56q-8 -60 -45 -92t-94 -32z" />
    <glyph glyph-name="Edotaccent" unicode="&#x116;" 
d="M71 0l150 619h346l-17 -70h-264l-46 -190h232l-17 -70h-232l-52 -219h286l-17 -70h-369zM414 687q-21 0 -34.5 12.5t-13.5 35.5q0 29 17.5 45t40.5 16q20 0 34.5 -13t14.5 -36q0 -27 -19 -43.5t-40 -16.5z" />
    <glyph glyph-name="edotaccent" unicode="&#x117;" 
d="M162 244q60 1 108 5.5t81.5 16.5t51.5 33.5t18 54.5q0 8 -3.5 17t-12 17t-23.5 13t-37 5q-34 0 -63.5 -13.5t-53.5 -36t-40.5 -51.5t-25.5 -61zM263 -12q-49 0 -85 14.5t-60 38.5t-35.5 55.5t-11.5 65.5q0 63 19.5 120t56.5 99.5t89.5 68t118.5 25.5q39 0 67 -9.5t46 -25
t26.5 -36.5t8.5 -44q0 -63 -32 -98t-83 -52.5t-113.5 -22.5t-122.5 -7q-6 -63 33 -91.5t103 -28.5q21 0 43.5 3.5t42 8t34.5 10t21 9.5l7 -70q-19 -10 -62 -21.5t-111 -11.5zM380 548q-21 0 -34.5 12.5t-13.5 35.5q0 29 17.5 45t40.5 16q20 0 34.5 -13t14.5 -36
q0 -27 -19 -43.5t-40 -16.5z" />
    <glyph glyph-name="Eogonek" unicode="&#x118;" 
d="M356 -167q-50 0 -69.5 15.5t-19.5 40.5q0 24 16 46.5t38 40.5q9 8 16.5 13.5t14.5 10.5h-281l150 619h346l-17 -70h-264l-46 -190h232l-17 -70h-232l-52 -219h286l-17 -70q-12 -6 -25.5 -14.5t-27.5 -19.5q-11 -8 -26 -23t-15 -33q0 -9 7.5 -14.5t25.5 -5.5q8 0 17.5 2
t17.5 4l-7 -53q-22 -10 -51 -10z" />
    <glyph glyph-name="eogonek" unicode="&#x119;" 
d="M326 -167q-50 0 -69.5 15.5t-19.5 40.5q0 24 16 46.5t38 40.5l16 14q-11 -1 -22 -1.5t-22 -0.5q-49 0 -85 14.5t-60 38.5t-35.5 55.5t-11.5 65.5q0 63 19.5 120t56.5 99.5t89.5 68t118.5 25.5q39 0 67 -9.5t46 -25t26.5 -36.5t8.5 -44q0 -63 -32 -98t-83 -52.5
t-113.5 -22.5t-122.5 -7q-6 -63 33 -91.5t103 -28.5q21 0 43.5 3.5t42 8t34.5 10t21 9.5l7 -70q-6 -4 -16 -10.5t-21 -14t-22.5 -15.5t-19.5 -15q-11 -8 -26 -23t-15 -33q0 -9 7.5 -14.5t25.5 -5.5q8 0 17.5 2t17.5 4l-7 -53q-22 -10 -51 -10zM162 244q60 1 108 5.5
t81.5 16.5t51.5 33.5t18 54.5q0 8 -3.5 17t-12 17t-23.5 13t-37 5q-34 0 -63.5 -13.5t-53.5 -36t-40.5 -51.5t-25.5 -61z" />
    <glyph glyph-name="Ecaron" unicode="&#x11a;" 
d="M71 0l150 619h346l-17 -70h-264l-46 -190h232l-17 -70h-232l-52 -219h286l-17 -70h-369zM427 752l100 74l30 -40l-145 -125l-95 133l40 36z" />
    <glyph glyph-name="ecaron" unicode="&#x11b;" 
d="M162 244q60 1 108 5.5t81.5 16.5t51.5 33.5t18 54.5q0 8 -3.5 17t-12 17t-23.5 13t-37 5q-34 0 -63.5 -13.5t-53.5 -36t-40.5 -51.5t-25.5 -61zM263 -12q-49 0 -85 14.5t-60 38.5t-35.5 55.5t-11.5 65.5q0 63 19.5 120t56.5 99.5t89.5 68t118.5 25.5q39 0 67 -9.5t46 -25
t26.5 -36.5t8.5 -44q0 -63 -32 -98t-83 -52.5t-113.5 -22.5t-122.5 -7q-6 -63 33 -91.5t103 -28.5q21 0 43.5 3.5t42 8t34.5 10t21 9.5l7 -70q-19 -10 -62 -21.5t-111 -11.5zM383 613l100 74l30 -40l-145 -125l-95 133l40 36z" />
    <glyph glyph-name="Gcircumflex" unicode="&#x11c;" 
d="M265 -13q-42 0 -76.5 15t-58.5 43t-37 68t-13 89q0 79 23 156.5t66.5 138.5t105.5 98.5t140 37.5q31 0 54 -4.5t40 -11.5t29 -15t20 -15l-39 -66q-17 15 -45 27.5t-65 12.5q-58 0 -103.5 -30t-77 -79t-48.5 -111t-17 -126q0 -72 32 -114t93 -42q25 0 43.5 3.5t29.5 7.5
l56 234h82l-69 -290q-8 -3 -24.5 -7.5t-38.5 -9t-48.5 -7.5t-53.5 -3zM426 735l-100 -74l-29 41l145 124l94 -132l-39 -37z" />
    <glyph glyph-name="gcircumflex" unicode="&#x11d;" 
d="M179 -98q74 0 114.5 32.5t53.5 96.5l4 17q-18 -10 -50.5 -19.5t-64.5 -9.5q-73 0 -111.5 36t-38.5 101q0 60 19.5 117t59.5 102t100 72t140 27q12 0 29 -1t34.5 -3.5t34 -7t28.5 -11.5l-103 -411q-12 -48 -29 -86.5t-46.5 -65.5t-75.5 -41.5t-116 -14.5q-38 0 -76 10
t-64 26l32 69q20 -15 54 -25t72 -10zM254 87q18 0 35 4t32.5 10t28 12.5t20.5 12.5l65 274q-9 2 -22.5 3.5t-24.5 1.5q-48 0 -88.5 -20t-70 -53t-45.5 -75t-16 -85q0 -48 21 -66.5t65 -18.5zM402 596l-100 -74l-29 41l145 124l94 -132l-39 -37z" />
    <glyph glyph-name="Gbreve" unicode="&#x11e;" 
d="M265 -13q-42 0 -76.5 15t-58.5 43t-37 68t-13 89q0 79 23 156.5t66.5 138.5t105.5 98.5t140 37.5q31 0 54 -4.5t40 -11.5t29 -15t20 -15l-39 -66q-17 15 -45 27.5t-65 12.5q-58 0 -103.5 -30t-77 -79t-48.5 -111t-17 -126q0 -72 32 -114t93 -42q25 0 43.5 3.5t29.5 7.5
l56 234h82l-69 -290q-8 -3 -24.5 -7.5t-38.5 -9t-48.5 -7.5t-53.5 -3zM419 684q-27 0 -46.5 8t-31.5 21.5t-18 30.5t-6 36q0 14 3 28h52q-1 -3 -1 -11q0 -55 55 -55q19 0 32.5 6.5t22 16.5t13.5 21.5t8 21.5h56q-8 -60 -45 -92t-94 -32z" />
    <glyph glyph-name="gbreve" unicode="&#x11f;" 
d="M179 -98q74 0 114.5 32.5t53.5 96.5l4 17q-18 -10 -50.5 -19.5t-64.5 -9.5q-73 0 -111.5 36t-38.5 101q0 60 19.5 117t59.5 102t100 72t140 27q12 0 29 -1t34.5 -3.5t34 -7t28.5 -11.5l-103 -411q-12 -48 -29 -86.5t-46.5 -65.5t-75.5 -41.5t-116 -14.5q-38 0 -76 10
t-64 26l32 69q20 -15 54 -25t72 -10zM254 87q18 0 35 4t32.5 10t28 12.5t20.5 12.5l65 274q-9 2 -22.5 3.5t-24.5 1.5q-48 0 -88.5 -20t-70 -53t-45.5 -75t-16 -85q0 -48 21 -66.5t65 -18.5zM395 545q-27 0 -46.5 8t-31.5 21.5t-18 30.5t-6 36q0 14 3 28h52q-1 -3 -1 -11
q0 -55 55 -55q19 0 32.5 6.5t22 16.5t13.5 21.5t8 21.5h56q-8 -60 -45 -92t-94 -32z" />
    <glyph glyph-name="Gdotaccent" unicode="&#x120;" 
d="M265 -13q-42 0 -76.5 15t-58.5 43t-37 68t-13 89q0 79 23 156.5t66.5 138.5t105.5 98.5t140 37.5q31 0 54 -4.5t40 -11.5t29 -15t20 -15l-39 -66q-17 15 -45 27.5t-65 12.5q-58 0 -103.5 -30t-77 -79t-48.5 -111t-17 -126q0 -72 32 -114t93 -42q25 0 43.5 3.5t29.5 7.5
l56 234h82l-69 -290q-8 -3 -24.5 -7.5t-38.5 -9t-48.5 -7.5t-53.5 -3zM414 687q-21 0 -34.5 12.5t-13.5 35.5q0 29 17.5 45t40.5 16q20 0 34.5 -13t14.5 -36q0 -27 -19 -43.5t-40 -16.5z" />
    <glyph glyph-name="gdotaccent" unicode="&#x121;" 
d="M179 -98q74 0 114.5 32.5t53.5 96.5l4 17q-18 -10 -50.5 -19.5t-64.5 -9.5q-73 0 -111.5 36t-38.5 101q0 60 19.5 117t59.5 102t100 72t140 27q12 0 29 -1t34.5 -3.5t34 -7t28.5 -11.5l-103 -411q-12 -48 -29 -86.5t-46.5 -65.5t-75.5 -41.5t-116 -14.5q-38 0 -76 10
t-64 26l32 69q20 -15 54 -25t72 -10zM254 87q18 0 35 4t32.5 10t28 12.5t20.5 12.5l65 274q-9 2 -22.5 3.5t-24.5 1.5q-48 0 -88.5 -20t-70 -53t-45.5 -75t-16 -85q0 -48 21 -66.5t65 -18.5zM396 548q-21 0 -34.5 12.5t-13.5 35.5q0 29 17.5 45t40.5 16q20 0 34.5 -13
t14.5 -36q0 -27 -19 -43.5t-40 -16.5z" />
    <glyph glyph-name="Gcommaaccent" unicode="&#x122;" 
d="M265 -13q-42 0 -76.5 15t-58.5 43t-37 68t-13 89q0 79 23 156.5t66.5 138.5t105.5 98.5t140 37.5q31 0 54 -4.5t40 -11.5t29 -15t20 -15l-39 -66q-17 15 -45 27.5t-65 12.5q-58 0 -103.5 -30t-77 -79t-48.5 -111t-17 -126q0 -72 32 -114t93 -42q25 0 43.5 3.5t29.5 7.5
l56 234h82l-69 -290q-8 -3 -24.5 -7.5t-38.5 -9t-48.5 -7.5t-53.5 -3zM209 -45h80q-1 -5 -1.5 -10.5t-1.5 -9.5q-14 -57 -50.5 -81t-82.5 -24q-19 0 -40 6l11 48h15q33 0 46 14.5t20 43.5z" />
    <glyph glyph-name="gcommaaccent" unicode="&#x123;" 
d="M179 -98q74 0 114.5 32.5t53.5 96.5l4 17q-18 -10 -50.5 -19.5t-64.5 -9.5q-73 0 -111.5 36t-38.5 101q0 60 19.5 117t59.5 102t100 72t140 27q12 0 29 -1t34.5 -3.5t34 -7t28.5 -11.5l-103 -411q-12 -48 -29 -86.5t-46.5 -65.5t-75.5 -41.5t-116 -14.5q-38 0 -76 10
t-64 26l32 69q20 -15 54 -25t72 -10zM254 87q18 0 35 4t32.5 10t28 12.5t20.5 12.5l65 274q-9 2 -22.5 3.5t-24.5 1.5q-48 0 -88.5 -20t-70 -53t-45.5 -75t-16 -85q0 -48 21 -66.5t65 -18.5zM360 544q6 63 41 102.5t91 50.5l25 -40q-32 -14 -49.5 -37.5t-27.5 -75.5h-80z
" />
    <glyph glyph-name="Hcircumflex" unicode="&#x124;" 
d="M495 619h82l-149 -619h-82l69 288h-228l-70 -288h-81l148 619h82l-62 -261h228zM408 735l-100 -74l-29 41l145 124l94 -132l-39 -37z" />
    <glyph glyph-name="hcircumflex" unicode="&#x125;" 
d="M45 0l160 669l86 14l-55 -226q20 8 43 12.5t46 4.5q40 0 69 -11t47 -30.5t26.5 -46.5t8.5 -59q0 -21 -4 -44t-10 -47l-57 -236h-82l52 218q6 25 12.5 51.5t6.5 50.5q0 35 -20 58.5t-73 23.5q-45 0 -80 -14l-95 -388h-81zM410 735l-33 -36l-64 58l-88 -57l-24 42l122 88z
" />
    <glyph glyph-name="Hbar" unicode="&#x126;" 
d="M125 530h64l22 89h82l-22 -89h176l21 89h82l-21 -89h64l-15 -63h-65l-112 -467h-82l69 288h-175l-69 -288h-81l111 467h-65zM431 467h-175l-26 -109h175z" />
    <glyph glyph-name="hbar" unicode="&#x127;" 
d="M80 0l132 548h-66l14 62h66l17 69l86 14l-21 -83h145l-15 -62h-145l-22 -91q20 8 40.5 12.5t42.5 4.5q75 0 107.5 -41t32.5 -106q0 -21 -4 -44t-10 -47l-57 -236h-82l52 218q6 25 12.5 51.5t6.5 50.5q0 35 -17.5 58.5t-64.5 23.5q-40 0 -74 -14l-94 -388h-82z" />
    <glyph glyph-name="Itilde" unicode="&#x128;" 
d="M405 549l-116 -479h120l-17 -70h-321l17 70h119l115 479h-119l17 70h321l-17 -70h-119zM413 770q14 -7 24 -11.5t21 -4.5q19 0 31.5 14t22.5 29l42 -26q-18 -37 -43 -57t-64 -20q-18 0 -31.5 5.5t-26.5 13.5q-14 8 -24.5 12t-21.5 4q-19 0 -31 -13.5t-22 -29.5l-42 26
q18 37 42.5 57.5t64.5 20.5q18 0 31.5 -6t26.5 -14z" />
    <glyph glyph-name="itilde" unicode="&#x129;" 
d="M305 205q-5 -20 -8.5 -38t-3.5 -35q0 -28 14.5 -46.5t55.5 -18.5q17 0 33 2.5t30 6.5l-5 -70q-7 -2 -25.5 -5.5t-52.5 -3.5q-37 0 -62.5 10t-41 27t-22 40t-6.5 50q0 21 3.5 43t8.5 45l45 183h-134l16 69h216zM360 631q14 -7 24 -11.5t21 -4.5q19 0 31.5 14t22.5 29
l42 -26q-18 -37 -43 -57t-64 -20q-18 0 -31.5 5.5t-26.5 13.5q-14 8 -24.5 12t-21.5 4q-19 0 -31 -13.5t-22 -29.5l-42 26q18 37 42.5 57.5t64.5 20.5q18 0 31.5 -6t26.5 -14z" />
    <glyph glyph-name="Imacron" unicode="&#x12a;" 
d="M405 549l-116 -479h120l-17 -70h-321l17 70h119l115 479h-119l17 70h321l-17 -70h-119zM295 774h250l-15 -64h-250z" />
    <glyph glyph-name="imacron" unicode="&#x12b;" 
d="M305 205q-5 -20 -8.5 -38t-3.5 -35q0 -28 14.5 -46.5t55.5 -18.5q17 0 33 2.5t30 6.5l-5 -70q-7 -2 -25.5 -5.5t-52.5 -3.5q-37 0 -62.5 10t-41 27t-22 40t-6.5 50q0 21 3.5 43t8.5 45l45 183h-134l16 69h216zM233 635h250l-15 -64h-250z" />
    <glyph glyph-name="Ibreve" unicode="&#x12c;" 
d="M405 549l-116 -479h120l-17 -70h-321l17 70h119l115 479h-119l17 70h321l-17 -70h-119zM401 684q-27 0 -46.5 8t-31.5 21.5t-18 30.5t-6 36q0 14 3 28h52q-1 -3 -1 -11q0 -55 55 -55q19 0 32.5 6.5t22 16.5t13.5 21.5t8 21.5h56q-8 -60 -45 -92t-94 -32z" />
    <glyph glyph-name="ibreve" unicode="&#x12d;" 
d="M305 205q-5 -20 -8.5 -38t-3.5 -35q0 -28 14.5 -46.5t55.5 -18.5q17 0 33 2.5t30 6.5l-5 -70q-7 -2 -25.5 -5.5t-52.5 -3.5q-37 0 -62.5 10t-41 27t-22 40t-6.5 50q0 21 3.5 43t8.5 45l45 183h-134l16 69h216zM348 545q-27 0 -46.5 8t-31.5 21.5t-18 30.5t-6 36
q0 14 3 28h52q-1 -3 -1 -11q0 -55 55 -55q19 0 32.5 6.5t22 16.5t13.5 21.5t8 21.5h56q-8 -60 -45 -92t-94 -32z" />
    <glyph glyph-name="Iogonek" unicode="&#x12e;" 
d="M193 -167q-50 0 -69.5 15.5t-19.5 40.5q0 24 16 46.5t38 40.5q9 8 16.5 13.5t14.5 10.5h-118l17 70h119l115 479h-119l17 70h321l-17 -70h-119l-116 -479h120l-17 -70h-121q-11 -7 -22.5 -15.5t-24.5 -19.5q-11 -8 -26 -22.5t-15 -32.5q0 -9 7.5 -14.5t25.5 -5.5
q8 0 17.5 2t17.5 4l-7 -53q-22 -10 -51 -10z" />
    <glyph glyph-name="iogonek" unicode="&#x12f;" 
d="M334 -167q-50 0 -69.5 15.5t-19.5 40.5q0 24 16 46.5t38 40.5q8 7 14.5 12t12.5 10q-32 2 -54 12.5t-35.5 27.5t-19.5 39t-6 47q0 21 3.5 43t8.5 45l45 183h-134l16 69h216l-61 -259q-5 -20 -8.5 -38t-3.5 -35q0 -28 14.5 -46.5t55.5 -18.5q17 0 33 2.5t30 6.5l-5 -70
q-11 -8 -25.5 -17t-30.5 -23q-11 -8 -26 -23t-15 -33q0 -9 7.5 -14.5t25.5 -5.5q8 0 17.5 2t17.5 4l-7 -53q-22 -10 -51 -10zM330 536q-26 0 -43 15t-17 44q0 35 22 55t49 20q26 0 43.5 -16t17.5 -45q0 -17 -6.5 -30t-17 -23t-23 -15t-25.5 -5z" />
    <glyph glyph-name="Idotaccent" unicode="&#x130;" 
d="M405 549l-116 -479h120l-17 -70h-321l17 70h119l115 479h-119l17 70h321l-17 -70h-119zM396 687q-21 0 -34.5 12.5t-13.5 35.5q0 29 17.5 45t40.5 16q20 0 34.5 -13t14.5 -36q0 -27 -19 -43.5t-40 -16.5z" />
    <glyph glyph-name="dotlessi" unicode="&#x131;" 
d="M305 205q-5 -20 -8.5 -38t-3.5 -35q0 -28 14.5 -46.5t55.5 -18.5q17 0 33 2.5t30 6.5l-5 -70q-7 -2 -25.5 -5.5t-52.5 -3.5q-37 0 -62.5 10t-41 27t-22 40t-6.5 50q0 21 3.5 43t8.5 45l45 183h-134l16 69h216z" />
    <glyph glyph-name="IJ" unicode="&#x132;" 
d="M102 0h-81l147 619h82zM597 619l-108 -448q-23 -98 -70.5 -141t-134.5 -43q-35 0 -67 12.5t-54 37.5l50 67q13 -19 33 -32.5t54 -13.5q39 0 66 27t41 87l107 447h83z" />
    <glyph glyph-name="ij" unicode="&#x133;" 
d="M179 0h-83l112 464h82zM274 542q-23 0 -38 14t-15 39q0 32 20 50t45 18q23 0 38.5 -14t15.5 -40q0 -30 -21 -48.5t-45 -18.5zM387 18q-12 -50 -27 -85t-36.5 -57.5t-52.5 -33t-75 -10.5q-15 0 -34 4t-30 12l19 69q21 -13 58 -13q41 0 62 31t34 82l107 447h82zM478 542
q-23 0 -38.5 14t-15.5 39q0 32 20 50t45 18q24 0 39.5 -14t15.5 -40q0 -30 -21 -48.5t-45 -18.5z" />
    <glyph glyph-name="Jcircumflex" unicode="&#x134;" 
d="M554 619l-100 -420q-11 -43 -25 -81.5t-39.5 -67.5t-65 -46t-99.5 -17q-31 0 -56.5 6t-46 14.5t-34.5 18.5t-21 18l43 65q7 -7 18 -16t26 -16.5t33 -13t40 -5.5q60 0 93.5 35.5t52.5 113.5l82 342h-210l16 70h293zM443 735l-100 -74l-29 41l145 124l94 -132l-39 -37z" />
    <glyph glyph-name="jcircumflex" unicode="&#x135;" 
d="M191 395l16 69h270l-110 -458q-23 -96 -77 -135t-136 -39q-75 0 -133 36l32 69q10 -8 23.5 -14t28.5 -10.5t30 -7t28 -2.5q52 0 80 23t42 82l94 387h-188zM390 596l-100 -74l-29 41l145 124l94 -132l-39 -37z" />
    <glyph glyph-name="Kcommaaccent" unicode="&#x136;" 
d="M588 619q-36 -38 -71.5 -74t-72.5 -72t-76 -73.5t-84 -77.5q21 -24 45.5 -57.5t48.5 -75t47 -89.5t42 -100h-89q-38 106 -83 178.5t-97 119.5l-71 -298h-82l148 619h82l-65 -271q84 75 151.5 141.5t124.5 129.5h102zM192 -45h80q-1 -5 -1.5 -10.5t-1.5 -9.5
q-14 -57 -50.5 -81t-82.5 -24q-19 0 -40 6l11 48h15q33 0 46 14.5t20 43.5z" />
    <glyph glyph-name="kcommaaccent" unicode="&#x137;" 
d="M63 0l163 679l86 14l-101 -416q60 44 122.5 92.5t113.5 94.5h98q-25 -26 -58.5 -55t-69 -57.5t-69.5 -54.5t-60 -45q23 -20 47.5 -49t47 -63t42 -70t31.5 -70h-89q-32 72 -75 133t-91 99l-56 -232h-82zM209 -45h80q-1 -5 -1.5 -10.5t-1.5 -9.5q-14 -57 -50.5 -81
t-82.5 -24q-19 0 -40 6l11 48h15q33 0 46 14.5t20 43.5z" />
    <glyph glyph-name="kgreenlandic" unicode="&#x138;" 
d="M63 0l111 464h82l-45 -189q30 22 62.5 46.5t64 49t59.5 48.5t50 45h98q-21 -23 -54.5 -52t-70 -58.5t-72.5 -56t-62 -45.5q24 -21 49.5 -50t49 -62.5t43.5 -69.5t32 -70h-97q-28 72 -71 133t-91 99l-56 -232h-82z" />
    <glyph glyph-name="Lacute" unicode="&#x139;" 
d="M421 70l-16 -70h-351l149 619h82l-132 -549h268zM421 765l-151 -114l-35 44l141 135z" />
    <glyph glyph-name="lacute" unicode="&#x13a;" 
d="M311 608h-134l17 70h216l-118 -489q-5 -20 -8 -38.5t-3 -34.5q0 -29 14 -43t52 -14q26 0 51 9t39 17l6 -70q-14 -8 -45.5 -17t-73.5 -9q-66 0 -95.5 28.5t-29.5 85.5q0 41 13 93zM461 766l-154 -55l-15 45l150 74z" />
    <glyph glyph-name="Lcommaaccent" unicode="&#x13b;" 
d="M421 70l-16 -70h-351l149 619h82l-132 -549h268zM209 -45h80q-1 -5 -1.5 -10.5t-1.5 -9.5q-14 -57 -50.5 -81t-82.5 -24q-19 0 -40 6l11 48h15q33 0 46 14.5t20 43.5z" />
    <glyph glyph-name="lcommaaccent" unicode="&#x13c;" 
d="M313 618h-134l17 70h216l-120 -499q-5 -20 -8 -38.5t-3 -34.5q0 -29 14 -43t52 -14q26 0 51 9t39 17l6 -70q-14 -8 -45.5 -17t-73.5 -9q-66 0 -95.5 28.5t-29.5 85.5q0 41 13 93zM263 -45h80q-1 -5 -1.5 -10.5t-1.5 -9.5q-14 -57 -50.5 -81t-82.5 -24q-19 0 -40 6l11 48
h15q33 0 46 14.5t20 43.5z" />
    <glyph glyph-name="Lcaron" unicode="&#x13d;" 
d="M421 70l-16 -70h-351l149 619h82l-132 -549h268zM444 621l-72 -198h-54l47 198h79z" />
    <glyph glyph-name="lcaron" unicode="&#x13e;" 
d="M313 618h-134l17 70h216l-120 -499q-5 -20 -8 -38.5t-3 -34.5q0 -29 14 -43t52 -14q26 0 51 9t39 17l6 -70q-14 -8 -45.5 -17t-73.5 -9q-66 0 -95.5 28.5t-29.5 85.5q0 41 13 93zM562 693l-72 -198h-54l47 198h79z" />
    <glyph glyph-name="Ldot" unicode="&#x13f;" 
d="M421 70l-16 -70h-351l149 619h82l-132 -549h268zM397 270q-21 0 -34.5 12.5t-13.5 35.5q0 29 17.5 45t40.5 16q20 0 34.5 -13t14.5 -36q0 -27 -19 -43.5t-40 -16.5z" />
    <glyph glyph-name="ldot" unicode="&#x140;" 
d="M313 618h-134l17 70h216l-120 -499q-5 -20 -8 -38.5t-3 -34.5q0 -29 14 -43t52 -14q26 0 51 9t39 17l6 -70q-14 -8 -45.5 -17t-73.5 -9q-66 0 -95.5 28.5t-29.5 85.5q0 41 13 93zM520 270q-21 0 -34.5 12.5t-13.5 35.5q0 29 17.5 45t40.5 16q20 0 34.5 -13t14.5 -36
q0 -27 -19 -43.5t-40 -16.5z" />
    <glyph glyph-name="Lslash" unicode="&#x141;" 
d="M421 70l-17 -70h-339l60 251l-66 -31l-14 61l99 48l70 290h82l-61 -254l119 56l14 -61l-151 -72l-53 -218h257z" />
    <glyph glyph-name="lslash" unicode="&#x142;" 
d="M238 305l-64 -30l-14 62l96 45l57 236h-134l17 70h216l-66 -270l69 32l15 -62l-102 -48l-36 -151q-5 -20 -8 -38.5t-3 -34.5q0 -29 14 -43t52 -14q26 0 51 9t39 17l6 -70q-14 -8 -45.5 -17t-73.5 -9q-66 0 -95.5 28.5t-29.5 85.5q0 41 13 93z" />
    <glyph glyph-name="Nacute" unicode="&#x143;" 
d="M349 0q-14 83 -27 151t-27.5 128t-29.5 114t-31 110l-119 -503h-75l149 619h81q23 -75 39.5 -132t30 -110.5t25 -110.5t24.5 -132l115 485h75l-149 -619h-81zM527 765l-151 -114l-35 44l141 135z" />
    <glyph glyph-name="nacute" unicode="&#x144;" 
d="M145 0h-82l107 447q41 12 88 19.5t85 7.5q40 0 69 -11t47 -30.5t26.5 -46.5t8.5 -59q0 -21 -4 -43.5t-10 -45.5l-57 -238h-82l53 220q6 25 12 50.5t6 49.5q0 35 -20 58.5t-73 23.5q-23 0 -44.5 -2.5t-35.5 -7.5zM491 626l-151 -114l-35 44l141 135z" />
    <glyph glyph-name="Ncommaaccent" unicode="&#x145;" 
d="M349 0q-14 83 -27 151t-27.5 128t-29.5 114t-31 110l-119 -503h-75l149 619h81q23 -75 39.5 -132t30 -110.5t25 -110.5t24.5 -132l115 485h75l-149 -619h-81zM192 -45h80q-1 -5 -1.5 -10.5t-1.5 -9.5q-14 -57 -50.5 -81t-82.5 -24q-19 0 -40 6l11 48h15q33 0 46 14.5
t20 43.5z" />
    <glyph glyph-name="ncommaaccent" unicode="&#x146;" 
d="M145 0h-82l107 447q41 12 88 19.5t85 7.5q40 0 69 -11t47 -30.5t26.5 -46.5t8.5 -59q0 -21 -4 -43.5t-10 -45.5l-57 -238h-82l53 220q6 25 12 50.5t6 49.5q0 35 -20 58.5t-73 23.5q-23 0 -44.5 -2.5t-35.5 -7.5zM192 -45h80q-1 -5 -1.5 -10.5t-1.5 -9.5
q-14 -57 -50.5 -81t-82.5 -24q-19 0 -40 6l11 48h15q33 0 46 14.5t20 43.5z" />
    <glyph glyph-name="Ncaron" unicode="&#x147;" 
d="M349 0q-14 83 -27 151t-27.5 128t-29.5 114t-31 110l-119 -503h-75l149 619h81q23 -75 39.5 -132t30 -110.5t25 -110.5t24.5 -132l115 485h75l-149 -619h-81zM409 752l100 74l30 -40l-145 -125l-95 133l40 36z" />
    <glyph glyph-name="ncaron" unicode="&#x148;" 
d="M145 0h-82l107 447q41 12 88 19.5t85 7.5q40 0 69 -11t47 -30.5t26.5 -46.5t8.5 -59q0 -21 -4 -43.5t-10 -45.5l-57 -238h-82l53 220q6 25 12 50.5t6 49.5q0 35 -20 58.5t-73 23.5q-23 0 -44.5 -2.5t-35.5 -7.5zM373 613l100 74l30 -40l-145 -125l-95 133l40 36z" />
    <glyph glyph-name="napostrophe" unicode="&#x149;" 
d="M145 0h-82l107 447q41 12 88 19.5t85 7.5q40 0 69 -11t47 -30.5t26.5 -46.5t8.5 -59q0 -21 -4 -43.5t-10 -45.5l-57 -238h-82l53 220q6 25 12 50.5t6 49.5q0 35 -20 58.5t-73 23.5q-23 0 -44.5 -2.5t-35.5 -7.5zM278 693q-13 -56 -42 -106.5t-60 -81.5l-52 20
q27 42 45 83.5t24 84.5h85z" />
    <glyph glyph-name="Eng" unicode="&#x14a;" 
d="M359 19q-17 83 -33.5 149t-32 123t-30 108t-29.5 104l-119 -503h-75l149 619h84q23 -75 40 -130t30.5 -105t25.5 -102t25 -119l110 456h75l-149 -619q-10 -41 -22.5 -72.5t-31 -52.5t-46 -31.5t-68.5 -10.5q-13 0 -26.5 2.5t-21.5 4.5l24 65q5 -2 14.5 -3t22.5 -1
q34 0 50 21.5t26 62.5z" />
    <glyph glyph-name="eng" unicode="&#x14b;" 
d="M145 0h-82l107 447q41 12 86 19.5t83 7.5q82 0 118.5 -39.5t36.5 -103.5q0 -21 -4 -44.5t-10 -48.5l-58 -243q-19 -80 -55 -121t-105 -41q-31 0 -65 7l24 65q19 -4 37 -4q21 0 34.5 7t22.5 20t14.5 30.5t10.5 37.5l54 224q5 22 11.5 47t6.5 48q0 18 -4 34t-14.5 27.5
t-28.5 18.5t-46 7q-23 0 -44.5 -2.5t-35.5 -7.5z" />
    <glyph glyph-name="Omacron" unicode="&#x14c;" 
d="M369 562q-49 0 -87.5 -36.5t-64.5 -92t-40 -121t-14 -122.5q0 -71 24 -101.5t67 -30.5q49 0 87 36.5t64 92t39.5 121t13.5 122.5q0 70 -23.5 101t-65.5 31zM379 633q72 0 117 -47.5t45 -149.5q0 -37 -7 -84.5t-22 -97.5t-38.5 -98t-56.5 -85.5t-76 -60.5t-97 -23
q-73 0 -118.5 47.5t-45.5 149.5q0 37 7 84.5t22 97.5t39 98t57 85.5t76.5 60.5t97.5 23zM295 774h250l-15 -64h-250z" />
    <glyph glyph-name="omacron" unicode="&#x14d;" 
d="M237 -11q-74 0 -115.5 43t-41.5 119q0 52 14.5 109t47 105t83.5 79t123 31q74 0 115.5 -43t41.5 -119q0 -52 -14.5 -109t-47 -105t-83.5 -79t-123 -31zM251 63q40 0 72 22.5t54 57.5t33.5 78.5t11.5 84.5q0 45 -20 70.5t-68 25.5q-40 0 -72 -22.5t-54 -58t-33.5 -79
t-11.5 -84.5q0 -45 20 -70t68 -25zM268 635h250l-15 -64h-250z" />
    <glyph glyph-name="Obreve" unicode="&#x14e;" 
d="M369 562q-49 0 -87.5 -36.5t-64.5 -92t-40 -121t-14 -122.5q0 -71 24 -101.5t67 -30.5q49 0 87 36.5t64 92t39.5 121t13.5 122.5q0 70 -23.5 101t-65.5 31zM379 633q72 0 117 -47.5t45 -149.5q0 -37 -7 -84.5t-22 -97.5t-38.5 -98t-56.5 -85.5t-76 -60.5t-97 -23
q-73 0 -118.5 47.5t-45.5 149.5q0 37 7 84.5t22 97.5t39 98t57 85.5t76.5 60.5t97.5 23zM410 684q-27 0 -46.5 8t-31.5 21.5t-18 30.5t-6 36q0 14 3 28h52q-1 -3 -1 -11q0 -55 55 -55q19 0 32.5 6.5t22 16.5t13.5 21.5t8 21.5h56q-8 -60 -45 -92t-94 -32z" />
    <glyph glyph-name="obreve" unicode="&#x14f;" 
d="M237 -11q-74 0 -115.5 43t-41.5 119q0 52 14.5 109t47 105t83.5 79t123 31q74 0 115.5 -43t41.5 -119q0 -52 -14.5 -109t-47 -105t-83.5 -79t-123 -31zM251 63q40 0 72 22.5t54 57.5t33.5 78.5t11.5 84.5q0 45 -20 70.5t-68 25.5q-40 0 -72 -22.5t-54 -58t-33.5 -79
t-11.5 -84.5q0 -45 20 -70t68 -25zM383 545q-27 0 -46.5 8t-31.5 21.5t-18 30.5t-6 36q0 14 3 28h52q-1 -3 -1 -11q0 -55 55 -55q19 0 32.5 6.5t22 16.5t13.5 21.5t8 21.5h56q-8 -60 -45 -92t-94 -32z" />
    <glyph glyph-name="Ohungarumlaut" unicode="&#x150;" 
d="M369 562q-49 0 -87.5 -36.5t-64.5 -92t-40 -121t-14 -122.5q0 -71 24 -101.5t67 -30.5q49 0 87 36.5t64 92t39.5 121t13.5 122.5q0 70 -23.5 101t-65.5 31zM379 633q72 0 117 -47.5t45 -149.5q0 -37 -7 -84.5t-22 -97.5t-38.5 -98t-56.5 -85.5t-76 -60.5t-97 -23
q-73 0 -118.5 47.5t-45.5 149.5q0 37 7 84.5t22 97.5t39 98t57 85.5t76.5 60.5t97.5 23zM446 772l-135 -115l-35 40l125 133zM596 770l-135 -113l-35 38l125 133z" />
    <glyph glyph-name="ohungarumlaut" unicode="&#x151;" 
d="M237 -11q-74 0 -115.5 43t-41.5 119q0 52 14.5 109t47 105t83.5 79t123 31q74 0 115.5 -43t41.5 -119q0 -52 -14.5 -109t-47 -105t-83.5 -79t-123 -31zM251 63q40 0 72 22.5t54 57.5t33.5 78.5t11.5 84.5q0 45 -20 70.5t-68 25.5q-40 0 -72 -22.5t-54 -58t-33.5 -79
t-11.5 -84.5q0 -45 20 -70t68 -25zM402 633l-135 -115l-35 40l125 133zM552 631l-135 -113l-35 38l125 133z" />
    <glyph glyph-name="OE" unicode="&#x152;" 
d="M377 547q-11 3 -21 5t-20 2q-31 0 -57.5 -16.5t-48 -44t-37.5 -64t-27 -77t-16.5 -82.5t-5.5 -80q0 -56 18 -90.5t57 -34.5q20 0 31 3t13 4zM202 -6q-37 0 -63.5 14t-44 39.5t-25.5 60.5t-8 77q0 66 17 143t52.5 143t91 110t132.5 44q12 0 26 -2l28 -4h193l-17 -70h-128
l-45 -190h104l-17 -70h-104l-53 -219h141l-17 -70h-206q-30 -6 -57 -6z" />
    <glyph glyph-name="oe" unicode="&#x153;" 
d="M374 -12q-32 0 -58.5 23.5t-31.5 57.5q-21 -40 -52.5 -60.5t-69.5 -20.5q-57 0 -82 44t-25 118q0 56 13 114t38.5 105t62.5 76.5t85 29.5q22 0 37 -6.5t25.5 -17t17 -23t11.5 -23.5q23 33 52 51.5t71 18.5q35 0 60.5 -25t25.5 -79q0 -31 -11.5 -62.5t-36.5 -58
t-64.5 -45.5t-95.5 -25q-1 -4 -1.5 -9.5t-0.5 -16.5q0 -48 11 -70t39 -22q31 0 72 23l8 -64q-20 -15 -47.5 -24t-52.5 -9zM475 356q0 25 -8.5 37t-22.5 12q-23 0 -49.5 -38.5t-40.5 -117.5q33 1 56.5 11.5t37.5 25.5t20.5 33.5t6.5 36.5zM138 129q0 -31 9.5 -50.5
t24.5 -19.5q16 0 34.5 17.5t34.5 52.5t27 87t11 121q0 30 -10 49.5t-25 19.5q-16 0 -34.5 -17.5t-34.5 -52t-26.5 -86.5t-10.5 -121z" />
    <glyph glyph-name="Racute" unicode="&#x154;" 
d="M528 477q0 -85 -45 -140t-119 -78q13 -27 24.5 -52t21.5 -54.5t20 -66.5t21 -86h-84q-11 53 -21.5 90.5t-20.5 65t-20 48t-20 40.5h-100l-59 -244h-81l145 610q16 4 35.5 7t39.5 4.5t39.5 2.5t35.5 1q98 0 143 -40.5t45 -107.5zM334 555q-23 0 -44.5 -1t-31.5 -3
l-57 -239h50q40 0 75.5 6.5t62 24t42 47t15.5 74.5q0 48 -31 69.5t-81 21.5zM509 765l-151 -114l-35 44l141 135z" />
    <glyph glyph-name="racute" unicode="&#x155;" 
d="M89 0l106 440q106 34 213 34q31 0 55 -2.5t59 -9.5l-31 -73q-15 4 -27.5 6.5t-23.5 4t-22.5 2t-26.5 0.5q-31 0 -63.5 -4t-64.5 -12l-92 -386h-82zM511 626l-151 -114l-35 44l141 135z" />
    <glyph glyph-name="Rcommaaccent" unicode="&#x156;" 
d="M528 477q0 -85 -45 -140t-119 -78q13 -27 24.5 -52t21.5 -54.5t20 -66.5t21 -86h-84q-11 53 -21.5 90.5t-20.5 65t-20 48t-20 40.5h-100l-59 -244h-81l145 610q16 4 35.5 7t39.5 4.5t39.5 2.5t35.5 1q98 0 143 -40.5t45 -107.5zM334 555q-23 0 -44.5 -1t-31.5 -3
l-57 -239h50q40 0 75.5 6.5t62 24t42 47t15.5 74.5q0 48 -31 69.5t-81 21.5zM192 -45h80q-1 -5 -1.5 -10.5t-1.5 -9.5q-14 -57 -50.5 -81t-82.5 -24q-19 0 -40 6l11 48h15q33 0 46 14.5t20 43.5z" />
    <glyph glyph-name="rcommaaccent" unicode="&#x157;" 
d="M89 0l106 440q106 34 213 34q31 0 55 -2.5t59 -9.5l-31 -73q-15 4 -27.5 6.5t-23.5 4t-22.5 2t-26.5 0.5q-31 0 -63.5 -4t-64.5 -12l-92 -386h-82zM76 -45h80q-1 -5 -1.5 -10.5t-1.5 -9.5q-14 -57 -50.5 -81t-82.5 -24q-19 0 -40 6l11 48h15q33 0 46 14.5t20 43.5z" />
    <glyph glyph-name="Rcaron" unicode="&#x158;" 
d="M528 477q0 -85 -45 -140t-119 -78q13 -27 24.5 -52t21.5 -54.5t20 -66.5t21 -86h-84q-11 53 -21.5 90.5t-20.5 65t-20 48t-20 40.5h-100l-59 -244h-81l145 610q16 4 35.5 7t39.5 4.5t39.5 2.5t35.5 1q98 0 143 -40.5t45 -107.5zM334 555q-23 0 -44.5 -1t-31.5 -3
l-57 -239h50q40 0 75.5 6.5t62 24t42 47t15.5 74.5q0 48 -31 69.5t-81 21.5zM373 752l100 74l30 -40l-145 -125l-95 133l40 36z" />
    <glyph glyph-name="rcaron" unicode="&#x159;" 
d="M89 0l106 440q106 34 213 34q31 0 55 -2.5t59 -9.5l-31 -73q-15 4 -27.5 6.5t-23.5 4t-22.5 2t-26.5 0.5q-31 0 -63.5 -4t-64.5 -12l-92 -386h-82zM403 613l100 74l30 -40l-145 -125l-95 133l40 36z" />
    <glyph glyph-name="Sacute" unicode="&#x15a;" 
d="M238 59q27 0 53.5 6t47.5 19.5t33.5 36t12.5 55.5q0 22 -8.5 38.5t-23 30t-34 25t-42.5 23.5q-21 11 -41 24t-35 30.5t-24.5 42t-9.5 59.5q0 81 56.5 132.5t171.5 51.5q25 0 49 -4t43.5 -10t34.5 -12.5t23 -11.5l-39 -66q-15 13 -48 22.5t-78 9.5q-28 0 -51.5 -6
t-41 -18.5t-27.5 -32.5t-10 -47q0 -23 7 -39t19 -28t29.5 -22t38.5 -21q26 -14 49 -27.5t39.5 -32t26 -43.5t9.5 -60q0 -49 -17.5 -86t-49 -61.5t-75.5 -37t-98 -12.5q-69 0 -113 16t-61 28l38 68q17 -11 53 -25.5t93 -14.5zM509 765l-151 -114l-35 44l141 135z" />
    <glyph glyph-name="sacute" unicode="&#x15b;" 
d="M242 58q22 0 43.5 3.5t38.5 11.5t27.5 22t10.5 34q0 28 -23.5 44t-65.5 36q-20 10 -39 20t-33.5 23t-23.5 31.5t-9 44.5q0 67 52 107t147 40q47 0 81.5 -8t51.5 -17l-31 -70q-15 9 -45.5 17t-68.5 8q-20 0 -39.5 -3.5t-34.5 -11.5t-24 -21t-9 -33q0 -24 24.5 -40.5
t61.5 -32.5q23 -9 43 -20t34.5 -25.5t22.5 -33.5t8 -45q0 -38 -15 -66.5t-42 -47t-64.5 -28t-82.5 -9.5q-57 0 -98.5 13t-60.5 24l33 70q16 -11 50 -24t80 -13zM491 626l-151 -114l-35 44l141 135z" />
    <glyph glyph-name="Scircumflex" unicode="&#x15c;" 
d="M238 59q27 0 53.5 6t47.5 19.5t33.5 36t12.5 55.5q0 22 -8.5 38.5t-23 30t-34 25t-42.5 23.5q-21 11 -41 24t-35 30.5t-24.5 42t-9.5 59.5q0 81 56.5 132.5t171.5 51.5q25 0 49 -4t43.5 -10t34.5 -12.5t23 -11.5l-39 -66q-15 13 -48 22.5t-78 9.5q-28 0 -51.5 -6
t-41 -18.5t-27.5 -32.5t-10 -47q0 -23 7 -39t19 -28t29.5 -22t38.5 -21q26 -14 49 -27.5t39.5 -32t26 -43.5t9.5 -60q0 -49 -17.5 -86t-49 -61.5t-75.5 -37t-98 -12.5q-69 0 -113 16t-61 28l38 68q17 -11 53 -25.5t93 -14.5zM408 735l-100 -74l-29 41l145 124l94 -132
l-39 -37z" />
    <glyph glyph-name="scircumflex" unicode="&#x15d;" 
d="M242 58q22 0 43.5 3.5t38.5 11.5t27.5 22t10.5 34q0 28 -23.5 44t-65.5 36q-20 10 -39 20t-33.5 23t-23.5 31.5t-9 44.5q0 67 52 107t147 40q47 0 81.5 -8t51.5 -17l-31 -70q-15 9 -45.5 17t-68.5 8q-20 0 -39.5 -3.5t-34.5 -11.5t-24 -21t-9 -33q0 -24 24.5 -40.5
t61.5 -32.5q23 -9 43 -20t34.5 -25.5t22.5 -33.5t8 -45q0 -38 -15 -66.5t-42 -47t-64.5 -28t-82.5 -9.5q-57 0 -98.5 13t-60.5 24l33 70q16 -11 50 -24t80 -13zM390 596l-100 -74l-29 41l145 124l94 -132l-39 -37z" />
    <glyph glyph-name="Scedilla" unicode="&#x15e;" 
d="M240 -34q18 -10 27 -21.5t9 -32.5q0 -39 -28 -60t-76 -21q-26 0 -43.5 4t-28.5 10l20 49q8 -4 19.5 -7t28.5 -3q15 0 24.5 4.5t9.5 17.5q0 15 -11.5 22t-24.5 10q6 11 14.5 24t17.5 26q-56 4 -93 18t-51 25l38 68q17 -11 53 -25.5t93 -14.5q27 0 53.5 6t47.5 19.5
t33.5 36t12.5 55.5q0 22 -8.5 38.5t-23 30t-34 25t-42.5 23.5q-21 11 -41 24t-35 30.5t-24.5 42t-9.5 59.5q0 81 56.5 132.5t171.5 51.5q25 0 49 -4t43.5 -10t34.5 -12.5t23 -11.5l-39 -66q-15 13 -48 22.5t-78 9.5q-28 0 -51.5 -6t-41 -18.5t-27.5 -32.5t-10 -47
q0 -23 7 -39t19 -28t29.5 -22t38.5 -21q26 -14 49 -27.5t39.5 -32t26 -43.5t9.5 -60q0 -46 -15.5 -81.5t-43 -60t-66.5 -38t-87 -16.5z" />
    <glyph glyph-name="scedilla" unicode="&#x15f;" 
d="M250 -34q18 -10 27 -21.5t9 -32.5q0 -39 -28 -60t-76 -21q-26 0 -43.5 4t-28.5 10l20 49q8 -4 19.5 -7t28.5 -3q15 0 24.5 4.5t9.5 17.5q0 15 -11.5 22t-24.5 10q6 11 15 24.5t18 26.5q-47 4 -80 15.5t-50 20.5l33 70q16 -11 50 -24t80 -13q22 0 43.5 3.5t38.5 11.5
t27.5 22t10.5 34q0 28 -23.5 44t-65.5 36q-20 10 -39 20t-33.5 23t-23.5 31.5t-9 44.5q0 67 52 107t147 40q47 0 81.5 -8t51.5 -17l-31 -70q-15 9 -45.5 17t-68.5 8q-20 0 -39.5 -3.5t-34.5 -11.5t-24 -21t-9 -33q0 -24 24.5 -40.5t61.5 -32.5q23 -9 43 -20t34.5 -25.5
t22.5 -33.5t8 -45q0 -70 -48 -107t-127 -43z" />
    <glyph glyph-name="Scaron" unicode="&#x160;" 
d="M238 59q27 0 53.5 6t47.5 19.5t33.5 36t12.5 55.5q0 22 -8.5 38.5t-23 30t-34 25t-42.5 23.5q-21 11 -41 24t-35 30.5t-24.5 42t-9.5 59.5q0 81 56.5 132.5t171.5 51.5q25 0 49 -4t43.5 -10t34.5 -12.5t23 -11.5l-39 -66q-15 13 -48 22.5t-78 9.5q-28 0 -51.5 -6
t-41 -18.5t-27.5 -32.5t-10 -47q0 -23 7 -39t19 -28t29.5 -22t38.5 -21q26 -14 49 -27.5t39.5 -32t26 -43.5t9.5 -60q0 -49 -17.5 -86t-49 -61.5t-75.5 -37t-98 -12.5q-69 0 -113 16t-61 28l38 68q17 -11 53 -25.5t93 -14.5zM416 752l100 74l30 -40l-145 -125l-95 133l40 36
z" />
    <glyph glyph-name="scaron" unicode="&#x161;" 
d="M242 58q22 0 43.5 3.5t38.5 11.5t27.5 22t10.5 34q0 28 -23.5 44t-65.5 36q-20 10 -39 20t-33.5 23t-23.5 31.5t-9 44.5q0 67 52 107t147 40q47 0 81.5 -8t51.5 -17l-31 -70q-15 9 -45.5 17t-68.5 8q-20 0 -39.5 -3.5t-34.5 -11.5t-24 -21t-9 -33q0 -24 24.5 -40.5
t61.5 -32.5q23 -9 43 -20t34.5 -25.5t22.5 -33.5t8 -45q0 -38 -15 -66.5t-42 -47t-64.5 -28t-82.5 -9.5q-57 0 -98.5 13t-60.5 24l33 70q16 -11 50 -24t80 -13zM400 613l100 74l30 -40l-145 -125l-95 133l40 36z" />
    <glyph glyph-name="uni0162" unicode="&#x162;" 
d="M228 -34q18 -10 27 -21.5t9 -32.5q0 -39 -28 -60t-76 -21q-26 0 -43.5 4t-28.5 10l20 49q8 -4 19.5 -7t28.5 -3q15 0 24.5 4.5t9.5 17.5q0 11 -7.5 18.5t-28.5 13.5q8 13 19 30.5t22 31.5h-7l133 549h-169l17 70h420l-17 -70h-169l-132 -549h-18z" />
    <glyph glyph-name="uni0163" unicode="&#x163;" 
d="M287 -34q18 -10 27 -21.5t9 -32.5q0 -39 -28 -60t-76 -21q-26 0 -43.5 4t-28.5 10l20 49q8 -4 19.5 -7t28.5 -3q15 0 24.5 4.5t9.5 17.5q0 15 -11.5 22t-24.5 10q6 11 16.5 26.5t20.5 29.5q-39 8 -63 34.5t-24 80.5q0 22 3.5 46t9.5 49l47 191h-98l16 69h99l31 130l86 14
l-35 -144h178l-16 -69h-179l-47 -199q-5 -19 -9 -37t-4 -35q0 -38 17.5 -50.5t49.5 -12.5q31 0 60.5 6.5t55.5 16.5l-2 -71q-28 -10 -58 -16.5t-64 -7.5z" />
    <glyph glyph-name="Tcaron" unicode="&#x164;" 
d="M589 619l-17 -70h-169l-132 -549h-83l133 549h-169l17 70h420zM409 752l100 74l30 -40l-145 -125l-95 133l40 36z" />
    <glyph glyph-name="tcaron" unicode="&#x165;" 
d="M439 13q-29 -10 -60.5 -17t-66.5 -7q-29 0 -53.5 6t-43 19.5t-29 36.5t-10.5 58q0 22 3.5 46t9.5 49l47 191h-98l16 69h99l31 130l86 14l-35 -144h178l-16 -69h-179l-47 -199q-5 -19 -9 -37t-4 -35q0 -38 17.5 -50.5t49.5 -12.5q31 0 60.5 6.5t55.5 16.5zM541 693
l-66 -173h-58l42 173h82z" />
    <glyph glyph-name="Tbar" unicode="&#x166;" 
d="M589 619l-17 -70h-169l-48 -198h96l-16 -67h-97l-67 -284h-83l68 284h-92l16 67h92l49 198h-169l17 70h420z" />
    <glyph glyph-name="tbar" unicode="&#x167;" 
d="M438 13q-29 -10 -60.5 -17t-66.5 -7q-29 0 -53.5 6t-43 19.5t-29 36.5t-10.5 58q0 22 3.5 46t9.5 49l2 7h-97l15 62h97l30 122h-98l17 69h98l31 130l86 14l-35 -144h179l-17 -69h-179l-29 -122h178l-15 -62h-178l-3 -15q-5 -19 -9 -37t-4 -35q0 -38 17.5 -50.5
t49.5 -12.5q31 0 60.5 6.5t55.5 16.5z" />
    <glyph glyph-name="Utilde" unicode="&#x168;" 
d="M237 -13q-41 0 -70 14t-48.5 37.5t-28.5 54.5t-9 65q0 30 8 64l95 397h82l-95 -396q-8 -34 -8 -63q0 -21 4.5 -39.5t14.5 -32.5t26.5 -22t40.5 -8q27 0 49 6.5t40 23.5t32 47t26 77l98 407h82l-100 -417q-12 -51 -29.5 -91t-45 -67.5t-67.5 -42t-97 -14.5zM413 770
q14 -7 24 -11.5t21 -4.5q19 0 31.5 14t22.5 29l42 -26q-18 -37 -43 -57t-64 -20q-18 0 -31.5 5.5t-26.5 13.5q-14 8 -24.5 12t-21.5 4q-19 0 -31 -13.5t-22 -29.5l-42 26q18 37 42.5 57.5t64.5 20.5q18 0 31.5 -6t26.5 -14z" />
    <glyph glyph-name="utilde" unicode="&#x169;" 
d="M222 -10q-39 0 -65 11.5t-42.5 31t-23.5 46t-7 56.5q0 23 4 46t9 46l57 237h83l-53 -219q-5 -21 -11.5 -48.5t-6.5 -55.5q0 -16 3 -30.5t11 -26t22 -18t36 -6.5q38 0 68 16.5t49 38.5q1 14 2.5 29.5t6.5 33.5l69 286h82l-70 -293q-5 -21 -8 -40t-3 -40t3.5 -41t12.5 -45
l-73 -10q-5 10 -9.5 22.5t-6.5 26.5q-20 -18 -54 -36t-85 -18zM377 631q14 -7 24 -11.5t21 -4.5q19 0 31.5 14t22.5 29l42 -26q-18 -37 -43 -57t-64 -20q-18 0 -31.5 5.5t-26.5 13.5q-14 8 -24.5 12t-21.5 4q-19 0 -31 -13.5t-22 -29.5l-42 26q18 37 42.5 57.5t64.5 20.5
q18 0 31.5 -6t26.5 -14z" />
    <glyph glyph-name="Umacron" unicode="&#x16a;" 
d="M237 -13q-41 0 -70 14t-48.5 37.5t-28.5 54.5t-9 65q0 30 8 64l95 397h82l-95 -396q-8 -34 -8 -63q0 -21 4.5 -39.5t14.5 -32.5t26.5 -22t40.5 -8q27 0 49 6.5t40 23.5t32 47t26 77l98 407h82l-100 -417q-12 -51 -29.5 -91t-45 -67.5t-67.5 -42t-97 -14.5zM286 774h250
l-15 -64h-250z" />
    <glyph glyph-name="umacron" unicode="&#x16b;" 
d="M222 -10q-39 0 -65 11.5t-42.5 31t-23.5 46t-7 56.5q0 23 4 46t9 46l57 237h83l-53 -219q-5 -21 -11.5 -48.5t-6.5 -55.5q0 -16 3 -30.5t11 -26t22 -18t36 -6.5q38 0 68 16.5t49 38.5q1 14 2.5 29.5t6.5 33.5l69 286h82l-70 -293q-5 -21 -8 -40t-3 -40t3.5 -41t12.5 -45
l-73 -10q-5 10 -9.5 22.5t-6.5 26.5q-20 -18 -54 -36t-85 -18zM250 635h250l-15 -64h-250z" />
    <glyph glyph-name="Ubreve" unicode="&#x16c;" 
d="M237 -13q-41 0 -70 14t-48.5 37.5t-28.5 54.5t-9 65q0 30 8 64l95 397h82l-95 -396q-8 -34 -8 -63q0 -21 4.5 -39.5t14.5 -32.5t26.5 -22t40.5 -8q27 0 49 6.5t40 23.5t32 47t26 77l98 407h82l-100 -417q-12 -51 -29.5 -91t-45 -67.5t-67.5 -42t-97 -14.5zM401 684
q-27 0 -46.5 8t-31.5 21.5t-18 30.5t-6 36q0 14 3 28h52q-1 -3 -1 -11q0 -55 55 -55q19 0 32.5 6.5t22 16.5t13.5 21.5t8 21.5h56q-8 -60 -45 -92t-94 -32z" />
    <glyph glyph-name="ubreve" unicode="&#x16d;" 
d="M222 -10q-39 0 -65 11.5t-42.5 31t-23.5 46t-7 56.5q0 23 4 46t9 46l57 237h83l-53 -219q-5 -21 -11.5 -48.5t-6.5 -55.5q0 -16 3 -30.5t11 -26t22 -18t36 -6.5q38 0 68 16.5t49 38.5q1 14 2.5 29.5t6.5 33.5l69 286h82l-70 -293q-5 -21 -8 -40t-3 -40t3.5 -41t12.5 -45
l-73 -10q-5 10 -9.5 22.5t-6.5 26.5q-20 -18 -54 -36t-85 -18zM365 545q-27 0 -46.5 8t-31.5 21.5t-18 30.5t-6 36q0 14 3 28h52q-1 -3 -1 -11q0 -55 55 -55q19 0 32.5 6.5t22 16.5t13.5 21.5t8 21.5h56q-8 -60 -45 -92t-94 -32z" />
    <glyph glyph-name="Uring" unicode="&#x16e;" 
d="M237 -13q-41 0 -70 14t-48.5 37.5t-28.5 54.5t-9 65q0 30 8 64l95 397h82l-95 -396q-8 -34 -8 -63q0 -21 4.5 -39.5t14.5 -32.5t26.5 -22t40.5 -8q27 0 49 6.5t40 23.5t32 47t26 77l98 407h82l-100 -417q-12 -51 -29.5 -91t-45 -67.5t-67.5 -42t-97 -14.5zM495 744
q0 -43 -27.5 -67.5t-64.5 -24.5t-64.5 24.5t-27.5 67.5q0 42 27.5 66.5t64.5 24.5t64.5 -24.5t27.5 -66.5zM450 744q0 23 -13.5 36t-33.5 13t-33.5 -13t-13.5 -36q0 -24 13.5 -37t33.5 -13t33.5 13t13.5 37z" />
    <glyph glyph-name="uring" unicode="&#x16f;" 
d="M222 -10q-39 0 -65 11.5t-42.5 31t-23.5 46t-7 56.5q0 23 4 46t9 46l57 237h83l-53 -219q-5 -21 -11.5 -48.5t-6.5 -55.5q0 -16 3 -30.5t11 -26t22 -18t36 -6.5q38 0 68 16.5t49 38.5q1 14 2.5 29.5t6.5 33.5l69 286h82l-70 -293q-5 -21 -8 -40t-3 -40t3.5 -41t12.5 -45
l-73 -10q-5 10 -9.5 22.5t-6.5 26.5q-20 -18 -54 -36t-85 -18zM459 605q0 -43 -27.5 -67.5t-64.5 -24.5t-64.5 24.5t-27.5 67.5q0 42 27.5 66.5t64.5 24.5t64.5 -24.5t27.5 -66.5zM414 605q0 23 -13.5 36t-33.5 13t-33.5 -13t-13.5 -36q0 -24 13.5 -37t33.5 -13t33.5 13
t13.5 37z" />
    <glyph glyph-name="Uhungarumlaut" unicode="&#x170;" 
d="M237 -13q-41 0 -70 14t-48.5 37.5t-28.5 54.5t-9 65q0 30 8 64l95 397h82l-95 -396q-8 -34 -8 -63q0 -21 4.5 -39.5t14.5 -32.5t26.5 -22t40.5 -8q27 0 49 6.5t40 23.5t32 47t26 77l98 407h82l-100 -417q-12 -51 -29.5 -91t-45 -67.5t-67.5 -42t-97 -14.5zM429 772
l-135 -115l-35 40l125 133zM579 770l-135 -113l-35 38l125 133z" />
    <glyph glyph-name="uhungarumlaut" unicode="&#x171;" 
d="M222 -10q-39 0 -65 11.5t-42.5 31t-23.5 46t-7 56.5q0 23 4 46t9 46l57 237h83l-53 -219q-5 -21 -11.5 -48.5t-6.5 -55.5q0 -16 3 -30.5t11 -26t22 -18t36 -6.5q38 0 68 16.5t49 38.5q1 14 2.5 29.5t6.5 33.5l69 286h82l-70 -293q-5 -21 -8 -40t-3 -40t3.5 -41t12.5 -45
l-73 -10q-5 10 -9.5 22.5t-6.5 26.5q-20 -18 -54 -36t-85 -18zM384 633l-135 -115l-35 40l125 133zM534 631l-135 -113l-35 38l125 133z" />
    <glyph glyph-name="Uogonek" unicode="&#x172;" 
d="M237 -13q-41 0 -70 14t-48.5 37.5t-28.5 54.5t-9 65q0 30 8 64l95 397h82l-95 -396q-8 -34 -8 -63q0 -21 4.5 -39.5t14.5 -32.5t26.5 -22t40.5 -8q27 0 49 6.5t40 23.5t32 47t26 77l98 407h82l-100 -417q-14 -58 -34 -101.5t-59 -71.5q-23 -17 -47.5 -35t-37.5 -29
l-12.5 -10t-14 -13t-11 -15t-4.5 -17t7.5 -14.5t25.5 -5.5q8 0 18.5 2t18.5 4l-8 -53q-22 -10 -51 -10q-50 0 -69.5 15.5t-19.5 40.5q0 15 6.5 30t17 27.5t22.5 23t24 18.5z" />
    <glyph glyph-name="uogonek" unicode="&#x173;" 
d="M222 -10q-39 0 -65 11.5t-42.5 31t-23.5 46t-7 56.5q0 23 4 46t9 46l57 237h83l-53 -219q-5 -21 -11.5 -48.5t-6.5 -55.5q0 -16 3 -30.5t11 -26t22 -18t36 -6.5q38 0 68 16.5t49 38.5q1 14 2.5 29.5t6.5 33.5l69 286h82l-70 -293q-5 -21 -8 -40t-3 -40t3.5 -41t12.5 -45
q-11 -8 -25 -17t-30 -23q-11 -8 -26 -22.5t-15 -32.5q0 -9 7.5 -14.5t25.5 -5.5q8 0 17.5 2t17.5 4l-7 -53q-22 -10 -51 -10q-50 0 -69.5 15.5t-19.5 40.5q0 24 16 46.5t38 40.5q25 21 42 31q-3 8 -5.5 17t-4.5 20q-20 -18 -54 -36t-85 -18z" />
    <glyph glyph-name="Wcircumflex" unicode="&#x174;" 
d="M306 309l-170 -309h-77q6 64 17 137.5t25 153t30 162.5l32 166h81q-12 -52 -26.5 -116t-30 -133t-31 -138.5t-28.5 -131.5q15 28 34.5 62.5t40.5 72t42 75.5t41 74h71q2 -34 5 -72.5t6.5 -76.5t6.5 -73t6 -62q18 64 37 132.5t37.5 136.5t35 132t30.5 118h79
q-44 -156 -90 -306.5t-105 -312.5h-76zM408 735l-100 -74l-29 41l145 124l94 -132l-39 -37z" />
    <glyph glyph-name="wcircumflex" unicode="&#x175;" 
d="M372 107q42 97 73 186.5t56 170.5h77q-17 -50 -37.5 -107.5t-44 -117.5t-49.5 -121t-53 -118h-68q-5 30 -8.5 57.5t-7 56t-6.5 59.5t-6 69q-24 -41 -42.5 -72t-35.5 -58.5t-34 -54t-38 -57.5h-68q2 123 12 243.5t24 220.5h78q-7 -39 -12.5 -77t-10.5 -80.5t-10 -92.5
t-10 -113q25 42 43.5 73.5t34.5 59t31 55t34 62.5h58q1 -36 3 -63t4.5 -53.5t6 -56t6.5 -71.5zM390 596l-100 -74l-29 41l145 124l94 -132l-39 -37z" />
    <glyph glyph-name="Ycircumflex" unicode="&#x176;" 
d="M622 619q-60 -98 -133.5 -194.5t-154.5 -192.5l-56 -232h-82l55 230q-37 100 -63.5 195.5t-40.5 193.5h82q9 -81 31 -167.5t45 -158.5q30 39 61 81t60.5 84.5t56.5 83.5t50 77h89zM417 735l-100 -74l-29 41l145 124l94 -132l-39 -37z" />
    <glyph glyph-name="ycircumflex" unicode="&#x177;" 
d="M283 75q34 54 61.5 111.5t48.5 110t35.5 96.5t20.5 71h87q-10 -34 -28 -84.5t-43.5 -109t-57.5 -120t-69 -116.5q-28 -42 -56.5 -79t-61 -64.5t-72 -43t-88.5 -15.5q-25 0 -46 6t-32 14l29 68q8 -8 23.5 -12.5t34.5 -4.5q52 0 87 21t69 70q-33 109 -58 228t-30 242h84
q1 -40 6 -88t13.5 -99t19.5 -103t23 -99zM363 596l-100 -74l-29 41l145 124l94 -132l-39 -37z" />
    <glyph glyph-name="Ydieresis" unicode="&#x178;" 
d="M622 619q-60 -98 -133.5 -194.5t-154.5 -192.5l-56 -232h-82l55 230q-37 100 -63.5 195.5t-40.5 193.5h82q9 -81 31 -167.5t45 -158.5q30 39 61 81t60.5 84.5t56.5 83.5t50 77h89zM314 689q-20 0 -33.5 12.5t-13.5 33.5q0 26 18 42.5t38 16.5t34 -12.5t14 -34.5
q0 -26 -18.5 -42t-38.5 -16zM483 689q-20 0 -33 12.5t-13 33.5q0 26 17.5 42.5t38.5 16.5q20 0 33.5 -12.5t13.5 -34.5q0 -26 -18 -42t-39 -16z" />
    <glyph glyph-name="Zacute" unicode="&#x179;" 
d="M556 550q-42 -44 -96.5 -104.5t-111.5 -126t-110 -130.5t-92 -119h304l-16 -70h-398l16 68q47 61 98.5 124.5t104 125.5t105 121t100.5 110h-281l17 70h376zM527 765l-151 -114l-35 44l141 135z" />
    <glyph glyph-name="zacute" unicode="&#x17a;" 
d="M494 405q-26 -23 -70 -65.5t-91.5 -91.5t-91.5 -96.5t-70 -81.5h250l-16 -70h-347l13 54q27 39 67.5 86.5t85 95t87.5 89.5t75 70h-221l18 69h326zM491 626l-151 -114l-35 44l141 135z" />
    <glyph glyph-name="Zdotaccent" unicode="&#x17b;" 
d="M556 550q-42 -44 -96.5 -104.5t-111.5 -126t-110 -130.5t-92 -119h304l-16 -70h-398l16 68q47 61 98.5 124.5t104 125.5t105 121t100.5 110h-281l17 70h376zM396 687q-21 0 -34.5 12.5t-13.5 35.5q0 29 17.5 45t40.5 16q20 0 34.5 -13t14.5 -36q0 -27 -19 -43.5
t-40 -16.5z" />
    <glyph glyph-name="zdotaccent" unicode="&#x17c;" 
d="M494 405q-26 -23 -70 -65.5t-91.5 -91.5t-91.5 -96.5t-70 -81.5h250l-16 -70h-347l13 54q27 39 67.5 86.5t85 95t87.5 89.5t75 70h-221l18 69h326zM378 548q-21 0 -34.5 12.5t-13.5 35.5q0 29 17.5 45t40.5 16q20 0 34.5 -13t14.5 -36q0 -27 -19 -43.5t-40 -16.5z" />
    <glyph glyph-name="Zcaron" unicode="&#x17d;" 
d="M556 550q-42 -44 -96.5 -104.5t-111.5 -126t-110 -130.5t-92 -119h304l-16 -70h-398l16 68q47 61 98.5 124.5t104 125.5t105 121t100.5 110h-281l17 70h376zM409 752l100 74l30 -40l-145 -125l-95 133l40 36z" />
    <glyph glyph-name="zcaron" unicode="&#x17e;" 
d="M494 405q-26 -23 -70 -65.5t-91.5 -91.5t-91.5 -96.5t-70 -81.5h250l-16 -70h-347l13 54q27 39 67.5 86.5t85 95t87.5 89.5t75 70h-221l18 69h326zM373 613l100 74l30 -40l-145 -125l-95 133l40 36z" />
    <glyph glyph-name="longs" unicode="&#x17f;" 
d="M263 18q-11 -50 -25.5 -85.5t-36.5 -58t-53.5 -32.5t-74.5 -10q-15 0 -34 4t-30 12l19 69q21 -13 58 -13q40 0 62 31t33 82l104 489q19 90 67.5 138.5t144.5 48.5q31 0 59 -6t42 -14l-33 -66q-8 4 -24.5 9.5t-51.5 5.5q-29 0 -49.5 -8.5t-35 -24t-23 -37t-14.5 -47.5z
" />
    <glyph glyph-name="uni0180" unicode="&#x180;" 
d="M213 610l17 69l86 14l-20 -83h153l-15 -62h-153l-24 -102q21 13 47.5 21t56.5 8q39 0 67.5 -12.5t47.5 -34.5t28.5 -52.5t9.5 -65.5q0 -62 -19.5 -119.5t-59.5 -102t-100.5 -71.5t-141.5 -27q-27 0 -62 6.5t-60 21.5l127 530h-65l14 62h66zM340 405q-26 0 -53 -9t-50 -26
l-73 -303q9 -2 22 -3.5t24 -1.5q51 0 92 20t70 53.5t44.5 76.5t15.5 89q0 20 -4.5 39t-15 33.5t-28 23t-44.5 8.5z" />
    <glyph glyph-name="uni0181" unicode="&#x181;" 
d="M296 357h42q54 0 83 33t29 87q0 46 -24 63t-62 17q-5 0 -9.5 -0.5t-9.5 -1.5zM263 554q-44 -4 -69 -27.5t-25 -79.5l-67 -8q-1 4 -1 8v6q0 61 25.5 96t63 51.5t80 20.5t76.5 4q89 0 137.5 -32t48.5 -108q0 -52 -27 -94t-87 -65q41 -13 59 -44.5t18 -69.5
q0 -62 -19.5 -104t-53.5 -67.5t-80.5 -36t-100.5 -10.5q-26 0 -56 3.5t-53 12.5zM280 289l-53 -223q4 -1 19 -2t23 -1q30 0 56.5 8.5t46 26.5t30.5 46t11 68q0 22 -8.5 37t-22 24t-31 12.5t-35.5 3.5h-36z" />
    <glyph glyph-name="uni0182" unicode="&#x182;" 
d="M198 619h324l-16 -70h-242l-40 -166h60q101 0 151 -37.5t50 -120.5q0 -58 -19.5 -101.5t-54.5 -72t-85.5 -42.5t-111.5 -14q-19 0 -40 0.5t-42.5 2.5t-41.5 4.5t-36 7.5zM148 68q7 -2 27 -3t43 -1q38 0 71.5 8.5t59 26.5t40 47.5t14.5 71.5q0 53 -36 75.5t-92 22.5h-66z
" />
    <glyph glyph-name="uni0183" unicode="&#x183;" 
d="M247 445q21 13 48 21.5t57 8.5q39 0 67.5 -12.5t47.5 -34.5t28.5 -52.5t9.5 -65.5q0 -62 -19.5 -119.5t-59.5 -102t-100.5 -71.5t-141.5 -27q-27 0 -62 6.5t-59 21.5l159 671h322l-16 -70h-239zM331 405q-26 0 -53 -9.5t-50 -26.5l-73 -302q9 -2 22 -3.5t24 -1.5
q51 0 92 19.5t69.5 52.5t44 76.5t15.5 90.5q0 20 -3.5 39t-13.5 33.5t-28 23t-46 8.5z" />
    <glyph glyph-name="uni0184" unicode="&#x184;" 
d="M257 446q21 13 47.5 21t57.5 8q39 0 67.5 -12.5t47 -34t28 -51.5t9.5 -65q0 -62 -19.5 -120t-59.5 -103t-100.5 -72t-141.5 -27q-27 0 -62 6.5t-60 21.5l132 547l-47 67q36 19 77 35t83 26zM341 405q-27 0 -54 -9t-50 -26l-73 -303q20 -5 44 -5q51 0 92.5 20t70.5 53.5
t45 77t16 90.5q0 20 -4 38.5t-14.5 32.5t-28 22.5t-44.5 8.5z" />
    <glyph glyph-name="uni0185" unicode="&#x185;" 
d="M141 563q36 19 75.5 35t83.5 27l-55 -231q11 2 25.5 2h31.5q201 0 201 -164q0 -58 -20.5 -102.5t-56.5 -74.5t-86 -45t-108 -15q-38 0 -83 3t-78 12l116 486zM166 68q7 -2 26.5 -3t43.5 -1q38 0 71.5 9.5t59 29t40 50t14.5 72.5q0 54 -35.5 79.5t-92.5 25.5
q-16 0 -30.5 -0.5t-33.5 -1.5z" />
    <glyph glyph-name="uni0186" unicode="&#x186;" 
d="M87 94q29 -19 57 -26.5t56 -7.5q61 0 107 30.5t77 79.5t46.5 111t15.5 126q0 79 -33.5 116t-88.5 37q-27 0 -60 -6.5t-71 -26.5l-6 65q35 21 79 31t80 10q34 0 67.5 -12t60 -39t42.5 -70t16 -105q0 -81 -22 -156.5t-64.5 -134t-106 -94t-146.5 -35.5q-44 0 -79 9.5
t-64 29.5z" />
    <glyph glyph-name="uni0187" unicode="&#x187;" 
d="M503 530q-46 30 -91 30q-47 0 -90 -26t-76.5 -71t-53.5 -106.5t-20 -132.5q0 -87 33 -125.5t86 -38.5q26 0 56.5 7.5t65.5 26.5l5 -68q-36 -22 -72.5 -30.5t-77.5 -8.5q-36 0 -68.5 14t-57 41.5t-39 67.5t-14.5 92q0 92 26.5 171t72 136.5t105.5 90.5t127 33q36 0 61 -11
q25 49 50.5 64.5t60.5 15.5q10 0 26.5 -4t24.5 -9l-28 -61q-15 9 -30 9q-26 0 -41 -25.5t-41 -81.5z" />
    <glyph glyph-name="uni0188" unicode="&#x188;" 
d="M360 475q11 0 24.5 -1t19.5 -3q23 53 54 72t72 19q21 0 36 -4t23 -9l-26 -59q-6 3 -15.5 5.5t-20.5 2.5q-20 0 -33.5 -9t-23.5 -24t-17.5 -34.5t-15.5 -40.5q-13 6 -33 10.5t-52 4.5q-44 0 -79 -19.5t-59.5 -51.5t-37.5 -73.5t-13 -86.5q0 -23 5 -44t17.5 -36.5t33.5 -25
t53 -9.5q16 0 34 3t33.5 7.5t27.5 9.5t17 9l7 -68q-17 -11 -53 -21.5t-81 -10.5q-43 0 -76 13t-55.5 37t-34 56.5t-11.5 71.5q0 61 18.5 116.5t54 98.5t87.5 68.5t120 25.5z" />
    <glyph glyph-name="uni0189" unicode="&#x189;" 
d="M522 405q0 -79 -19.5 -153t-60.5 -131t-104.5 -91.5t-150.5 -34.5q-29 0 -60 3t-57 11l66 280h-71l17 67h71l60 254q61 15 117 15q90 0 141 -57.5t51 -162.5zM167 71q6 -2 17 -3.5t20 -1.5q50 0 93 24t74.5 67.5t49.5 104.5t18 134q0 76 -29 117t-91 41q-22 0 -38 -3
l-46 -195h80l-17 -67h-79z" />
    <glyph glyph-name="uni018A" unicode="&#x18a;" 
d="M263 554q-44 -4 -69 -27.5t-25 -79.5l-67 -8q-1 4 -1 8v6q0 38 12.5 69.5t39.5 54.5t70.5 35.5t105.5 12.5q111 0 161 -58.5t50 -169.5q0 -76 -19.5 -148t-58.5 -128.5t-97 -91t-135 -34.5q-23 0 -47.5 3t-50.5 11zM228 68q13 -3 27 -3q51 0 89 34t63 84.5t37.5 107.5
t12.5 103q0 80 -25.5 120t-85.5 40z" />
    <glyph glyph-name="uni018B" unicode="&#x18b;" 
d="M78 154q0 57 20.5 99.5t57 71.5t87.5 43.5t112 14.5h78l40 166h-267l15 70h351l-148 -610q-17 -5 -37.5 -7.5t-41 -4t-40 -2t-34.5 -0.5q-94 0 -143.5 40.5t-49.5 118.5zM285 64q27 0 45 1.5t27 2.5l60 248h-66q-38 0 -72.5 -8t-60.5 -26t-42 -47.5t-16 -72.5
q0 -55 32.5 -76.5t92.5 -21.5z" />
    <glyph glyph-name="uni018C" unicode="&#x18c;" 
d="M455 171q-5 -21 -8.5 -39.5t-3.5 -39.5t3.5 -41.5t12.5 -45.5l-73 -10q-9 16 -15 46q-20 -18 -55 -35t-83 -17q-78 0 -115 46t-37 120q0 60 20 117.5t60.5 102t101 72t141.5 27.5q19 0 42 -3l35 148h-236l17 70h318zM250 57q37 0 66.5 16.5t49.5 37.5q1 14 2.5 30.5
t6.5 36.5l55 222q-8 2 -19.5 3.5t-20.5 1.5q-52 0 -94 -20t-71.5 -53.5t-45.5 -77t-16 -90.5q0 -48 19.5 -77.5t67.5 -29.5z" />
    <glyph glyph-name="uni018D" unicode="&#x18d;" 
d="M505 297q0 -32 -10.5 -67t-33 -68t-58 -61t-86.5 -47q21 -17 34.5 -39t13.5 -54q0 -59 -45.5 -94t-140.5 -35q-48 0 -84.5 10t-56.5 21l29 65q5 -4 16.5 -9t27.5 -10t35 -8.5t39 -3.5q45 0 73 13t28 40q0 30 -18 46.5t-41 32.5q-35 25 -59 46.5t-39 44t-21.5 48.5
t-6.5 59q0 45 14 89t44 79.5t76.5 57.5t110.5 22q41 0 71 -13.5t49.5 -37.5t29 -56.5t9.5 -70.5zM182 219q0 -48 23.5 -75.5t53.5 -47.5q45 14 76.5 36.5t51 49.5t28.5 56t9 55q0 21 -5 41t-16 35.5t-27.5 25t-40.5 9.5q-38 0 -67 -17t-48 -43.5t-28.5 -59.5t-9.5 -65z" />
    <glyph glyph-name="uni018E" unicode="&#x18e;" 
d="M550 619l-149 -619h-369l17 70h287l52 219h-232l17 70h232l46 190h-264l17 70h346z" />
    <glyph glyph-name="uni018F" unicode="&#x18f;" 
d="M74 182q0 25 7 66.5t21 81.5h347q6 33 6 65q0 35 -7 65.5t-22 53.5t-38.5 36t-56.5 13q-52 0 -89 -14t-54 -24l-6 68q6 4 20.5 11t36 13.5t48.5 11t57 4.5q51 0 87.5 -18.5t59.5 -50.5t34 -74.5t11 -90.5q0 -70 -18.5 -143t-55.5 -133t-93 -98t-131 -38q-72 0 -118 48
t-46 147zM246 56q38 0 68 16.5t53 45t39.5 65.5t28.5 78h-269q-5 -18 -8.5 -38.5t-3.5 -41.5q0 -57 24.5 -91t67.5 -34z" />
    <glyph glyph-name="uni0190" unicode="&#x190;" 
d="M422 630q27 0 51 -4t44.5 -10t35 -13t22.5 -13l-41 -62q-20 12 -52.5 22t-77.5 10q-68 0 -108.5 -31.5t-40.5 -85.5q0 -23 10 -38.5t27 -25t39 -13.5t46 -4h70l-17 -70h-55q-28 0 -64.5 -5t-69 -20.5t-55 -43.5t-22.5 -74t36.5 -68.5t93.5 -22.5q61 0 103.5 14.5
t62.5 23.5l9 -71q-8 -5 -25 -11t-42 -12t-55.5 -10t-64.5 -4q-95 0 -147.5 39.5t-52.5 114.5q0 78 46.5 124t119.5 66q-75 34 -75 113q0 48 22 83t57.5 57.5t80 33.5t89.5 11z" />
    <glyph glyph-name="uni0191" unicode="&#x191;" 
d="M154 0q-10 -41 -20.5 -72.5t-28 -52.5t-45.5 -31.5t-72 -10.5q-13 0 -30 3.5t-25 8.5l21 62q6 -2 15.5 -4.5t22.5 -2.5q35 0 50.5 22t25.5 63l153 634h351l-17 -70h-269l-47 -193h237l-17 -69h-237z" />
    <glyph glyph-name="florin" unicode="&#x192;" 
d="M344 395l-81 -377q-11 -50 -25.5 -85.5t-36.5 -58t-53.5 -32.5t-74.5 -10q-15 0 -35 5t-29 10l19 70q23 -13 58 -13q40 0 62 31t33 82l80 378h-100l17 69h98l9 42q19 90 67.5 138.5t144.5 48.5q31 0 59 -6t42 -14l-33 -66q-8 4 -24.5 9.5t-51.5 5.5q-29 0 -49.5 -8.5
t-35 -24t-23 -37t-14.5 -47.5l-9 -41h188l-17 -69h-185z" />
    <glyph glyph-name="uni0193" unicode="&#x193;" 
d="M163 224q0 -165 125 -165q24 0 42.5 3.5t29.5 7.5l56 234h82l-69 -290q-8 -3 -23.5 -7.5t-36.5 -9t-46 -7.5t-52 -3q-46 0 -81.5 16.5t-60 45.5t-37 68t-12.5 85q0 103 26 183t69.5 135t101 84t119.5 29q19 0 38 -2.5t38 -8.5q25 49 50.5 64.5t60.5 15.5q11 0 27 -4
t24 -9l-28 -61q-15 9 -30 9q-13 0 -22.5 -6t-18 -19t-18.5 -33.5t-23 -48.5q-25 16 -49.5 23t-48.5 7q-47 0 -89 -22.5t-74 -65t-51 -105t-19 -143.5z" />
    <glyph glyph-name="uni0194" unicode="&#x194;" 
d="M615 619q-33 -56 -73 -120t-80 -127t-77.5 -119.5t-66.5 -96.5q12 -29 20 -57.5t13 -53t7.5 -44t2.5 -31.5q0 -26 -9.5 -50t-28.5 -43t-46 -30t-62 -11q-34 0 -55 10t-33 25.5t-16 33t-4 32.5q0 43 32.5 96.5t96.5 127.5q-15 58 -30 122.5t-28 126t-23 116t-14 93.5h86
q5 -41 11.5 -88t14.5 -96.5t17.5 -99t19.5 -95.5q54 77 116.5 176.5t121.5 202.5h87zM284 -34q0 22 -4.5 46.5t-17.5 69.5q-44 -47 -61 -82t-17 -53q0 -15 7.5 -29t33.5 -14q18 0 29.5 6.5t18 16.5t9 20.5t2.5 18.5z" />
    <glyph glyph-name="uni0195" unicode="&#x195;" 
d="M321 -10q-53 0 -74 28.5t-21 72.5q0 33 8.5 71t18.5 75t18.5 70t8.5 56q0 17 -7 28.5t-24 11.5q-8 0 -21.5 -3t-28.5 -11l-94 -389h-78l161 679l83 14l-57 -235q11 8 31.5 12t32.5 4q48 0 64 -26.5t16 -68.5q0 -24 -9 -58.5t-19.5 -71.5t-19.5 -73t-9 -63t8 -39t25 -12
q16 0 26.5 6t18.5 22t15.5 44.5t18.5 73.5l62 256h79l-62 -267q-11 -47 -22.5 -85.5t-30 -65.5t-46.5 -41.5t-72 -14.5z" />
    <glyph glyph-name="uni0196" unicode="&#x196;" 
d="M301 549h-111l16 70h322l-16 -70h-129l-92 -384q-8 -32 -8 -53q0 -28 16 -42t58 -14q26 0 48.5 7.5t35.5 13.5l-1 -66q-14 -9 -47 -16.5t-65 -7.5q-71 0 -99 28.5t-28 80.5q0 40 14 98z" />
    <glyph glyph-name="uni0197" unicode="&#x197;" 
d="M405 549l-46 -194h91l-16 -65h-91l-53 -220h120l-17 -70h-322l17 70h120l53 220h-92l16 65h92l46 194h-119l17 70h321l-17 -70h-120z" />
    <glyph glyph-name="uni0198" unicode="&#x198;" 
d="M410 559q62 71 127 71q28 0 47 -8t43 -31l-43 -56q-14 12 -25 18t-25 6q-20 0 -35 -11t-26 -24q-24 -26 -41.5 -45.5t-37 -41t-45 -48.5t-65.5 -67q21 -24 45.5 -57.5t48.5 -75t47 -89.5t42 -100h-89q-38 106 -83 178.5t-97 119.5l-71 -298h-82l148 619h82l-65 -271
q39 39 65.5 66t48.5 50t41.5 45t44.5 50z" />
    <glyph glyph-name="uni0199" unicode="&#x199;" 
d="M211 277q60 44 122.5 92.5t113.5 94.5h98q-25 -26 -58.5 -55t-69 -57.5t-69.5 -54.5t-60 -45q23 -20 47.5 -49t47 -63t42 -70t31.5 -70h-89q-32 72 -75 133t-91 99l-56 -232h-82l126 527q10 41 21 72t28.5 52t45.5 31.5t72 10.5q13 0 30.5 -3.5t25.5 -8.5l-22 -62
q-5 2 -15.5 4.5t-23.5 2.5q-35 0 -51 -24t-26 -64z" />
    <glyph glyph-name="uni019A" unicode="&#x19a;" 
d="M243 328h-134l15 62h134l55 228h-134l17 70h216l-72 -298h132l-15 -62h-132l-33 -139q-5 -20 -8 -38.5t-3 -34.5q0 -29 14 -43t52 -14q26 0 51 9t39 17l6 -70q-14 -8 -45.5 -17t-73.5 -9q-66 0 -95.5 28.5t-29.5 85.5q0 41 13 93z" />
    <glyph glyph-name="uni019B" unicode="&#x19b;" 
d="M211 487l-7 56l98 31q-11 28 -26.5 40t-44.5 12q-13 0 -25.5 -1.5t-23.5 -6.5l4 67q13 5 28.5 6.5t32.5 1.5q57 0 85.5 -25t42.5 -70l110 35l7 -56l-104 -34q30 -155 43 -291.5t18 -251.5h-81q-1 38 -2.5 78.5t-4.5 86.5t-8 99t-14 116q-35 -45 -67.5 -93t-61 -96.5
t-52.5 -97t-42 -93.5h-84q48 122 125 242t167 230l-9 48h-1z" />
    <glyph glyph-name="uni019C" unicode="&#x19c;" 
d="M435 12q-64 -25 -114 -25q-28 0 -49.5 8t-35.5 25q-24 -18 -48.5 -25.5t-47.5 -7.5q-24 0 -40.5 8t-26.5 21.5t-14.5 31t-4.5 36.5q0 25 6 49l115 486h75l-116 -489q-5 -18 -5 -33q0 -17 8 -29t31 -12q26 0 50 21v4q0 11 2 24t5 28l59 251h75l-60 -253q-5 -23 -5 -36
q0 -18 8.5 -28.5t28.5 -10.5q9 0 19.5 2.5t22.5 6.5l132 554h75z" />
    <glyph glyph-name="uni019D" unicode="&#x19d;" 
d="M116 0q-8 -36 -18 -66.5t-27.5 -53t-45.5 -35t-72 -12.5q-13 0 -30.5 3.5t-25.5 8.5l22 62q5 -2 14.5 -4.5t22.5 -2.5q36 0 53.5 22t28.5 63l151 634h85q18 -59 35.5 -119t33.5 -118.5t29.5 -114t21.5 -104.5l110 456h75l-149 -619h-75q-4 46 -16.5 107.5t-30 128.5
t-37 136t-37.5 131z" />
    <glyph glyph-name="uni019E" unicode="&#x19e;" 
d="M145 0h-82l107 447q41 12 88 19.5t85 7.5q40 0 69 -11t47 -30.5t26.5 -46.5t8.5 -59q0 -21 -4 -43.5t-10 -45.5l-97 -403h-82l93 385q6 25 12 50.5t6 49.5q0 35 -20 58.5t-73 23.5q-23 0 -44.5 -2.5t-35.5 -7.5z" />
    <glyph glyph-name="uni019F" unicode="&#x19f;" 
d="M374 633q73 0 118 -47.5t45 -149.5q0 -37 -7 -84.5t-22 -97.5t-38.5 -98t-56.5 -85.5t-76.5 -60.5t-97.5 -23q-72 0 -117.5 47.5t-45.5 149.5q0 37 7 84.5t22 97.5t38.5 98t56.5 85.5t76.5 60.5t97.5 23zM249 58q34 0 63 18t52 49t40.5 70.5t28.5 83.5h-267
q-4 -23 -5.5 -45.5t-1.5 -43.5q0 -71 24 -101.5t66 -30.5zM364 562q-34 0 -62.5 -18t-51.5 -48t-40.5 -69.5t-29.5 -81.5h267q3 21 5 43t2 42q0 70 -23.5 101t-66.5 31z" />
    <glyph glyph-name="Ohorn" unicode="&#x1a0;" 
d="M357 562q-48 0 -84.5 -36.5t-62 -92t-38.5 -121t-13 -122.5q0 -71 22 -101.5t61 -30.5q48 0 85 36.5t62 92t38 121t13 122.5q0 70 -21.5 101t-61.5 31zM479 585q18 14 28.5 30t16.5 33.5t8.5 34.5t4.5 32h83q-6 -60 -34 -108t-76 -78q13 -38 13 -93q0 -37 -7 -84.5
t-21.5 -97.5t-37.5 -98t-55 -85.5t-74.5 -60.5t-95.5 -23q-69 0 -112.5 47.5t-43.5 149.5q0 37 7 84.5t21.5 97.5t37.5 98t55.5 85.5t74.5 60.5t95 23q35 0 63.5 -11.5t48.5 -36.5z" />
    <glyph glyph-name="ohorn" unicode="&#x1a1;" 
d="M339 475q70 0 108 -45q18 14 28.5 30.5t16 34t8 34.5t4.5 32h82q-6 -60 -33.5 -107.5t-75.5 -77.5q5 -14 7.5 -29t2.5 -34q0 -52 -14.5 -109t-45.5 -105t-80 -79t-119 -31q-69 0 -108.5 43t-39.5 119q0 52 14.5 109t45.5 105t80 79t119 31zM242 63q38 0 68.5 22.5
t51.5 57.5t32 78.5t11 84.5q0 45 -18.5 70.5t-61.5 25.5q-38 0 -68 -22.5t-51 -58t-32 -79t-11 -84.5q0 -45 18 -70t61 -25z" />
    <glyph glyph-name="uni01A2" unicode="&#x1a2;" 
d="M56 143q0 41 6 93t18 106.5t31.5 107t46.5 93t61.5 65.5t78.5 25q22 0 40.5 -7.5t32.5 -26.5q23 17 46.5 25t52.5 8q51 0 69 -27.5t18 -66.5q0 -20 -2.5 -41.5t-7.5 -41.5l-109 -455h-78l105 439q2 9 8 32t6 45q0 27 -11 37t-26 10q-11 0 -24 -5.5t-24 -14.5
q2 -14 3.5 -29.5t1.5 -34.5q0 -41 -6 -93.5t-18 -107t-31.5 -107t-46.5 -93t-62 -65.5t-78 -25q-21 0 -39.5 7t-32 25t-21.5 48t-8 75zM286 563q-21 0 -40.5 -20.5t-36.5 -55t-31 -79.5t-24 -93t-15.5 -95.5t-5.5 -87.5q0 -74 37 -74q21 0 40 21t36 55.5t31 79t24 92.5
t15.5 95.5t5.5 87.5q0 74 -36 74z" />
    <glyph glyph-name="uni01A3" unicode="&#x1a3;" 
d="M54 137q0 26 4 61.5t13 73t23.5 74t35.5 65.5t49 46.5t65 17.5q21 0 40.5 -8t34.5 -26q18 12 47 23t55 11q54 0 73 -28.5t19 -72.5q0 -26 -5 -59t-11 -57l-102 -423h-79l98 405q9 36 15 65t6 50q0 50 -40 50q-11 0 -25.5 -5.5t-25.5 -14.5q5 -28 5 -57q0 -26 -4 -61.5
t-13 -73.5t-23.5 -74.5t-35.5 -65.5t-49 -46.5t-64 -17.5q-21 0 -40 7t-34 24.5t-23.5 46t-8.5 70.5zM232 405q-26 0 -45 -30t-32 -73t-19 -90.5t-6 -81.5q0 -71 41 -71q26 0 45 30t31.5 73t18.5 90t6 81q0 35 -9 53.5t-31 18.5z" />
    <glyph glyph-name="uni01A4" unicode="&#x1a4;" 
d="M283 301h45q67 0 104.5 43t37.5 120q0 26 -7 43.5t-19 28t-27.5 15t-32.5 4.5q-10 0 -19 -0.5t-19 -2.5zM129 0l134 554q-44 -4 -69 -27.5t-25 -79.5l-67 -8q-1 4 -1 8v6q0 61 25.5 96t63.5 51.5t82.5 20.5t82.5 4q97 0 146 -40t49 -122q0 -51 -17.5 -93.5t-49 -73
t-74 -48t-92.5 -17.5h-50l-56 -231h-82z" />
    <glyph glyph-name="uni01A5" unicode="&#x1a5;" 
d="M252 468q23 3 44.5 5t40.5 2q43 0 75 -12.5t52.5 -34t30.5 -51.5t10 -65q0 -62 -18.5 -120t-57.5 -103t-98.5 -72.5t-140.5 -27.5q-10 0 -26.5 2.5t-25.5 4.5l-38 -161h-82l165 691q10 41 20.5 72.5t28 52.5t45 31.5t71.5 10.5q13 0 30.5 -3.5t25.5 -8.5l-22 -62
q-5 2 -14.5 4.5t-22.5 2.5q-35 0 -51 -22.5t-25 -62.5zM156 68q9 -2 23.5 -3.5t24.5 -1.5q51 0 91.5 19.5t69 52.5t43.5 76.5t15 90.5q0 20 -4.5 38.5t-16.5 33t-33 23t-53 8.5q-22 0 -45 -4t-36 -7z" />
    <glyph glyph-name="uni01A6" unicode="&#x1a6;" 
d="M275 622q15 2 33 2.5t32 0.5q98 0 143 -40.5t45 -107.5q0 -85 -44.5 -140t-118.5 -78q16 -30 32 -70.5t31.5 -87.5t29.5 -97.5t25 -100.5h-84q-11 53 -25.5 105t-30 97t-30.5 81.5t-27 57.5h-101l-59 -244h-81l166 693h81zM334 555q-23 0 -44.5 -1t-31.5 -3l-57 -239h50
q40 0 75.5 6.5t62 24t42 47t15.5 74.5q0 48 -31 69.5t-81 21.5z" />
    <glyph glyph-name="uni01A7" unicode="&#x1a7;" 
d="M263 -13q-97 0 -141.5 38.5t-44.5 104.5q0 51 19 87t50.5 61t71.5 42t81 31q36 11 64.5 23.5t48.5 28t30.5 36t10.5 48.5q0 34 -22.5 54.5t-70.5 20.5q-54 0 -91 -14t-59 -26l-12 71q12 7 31.5 14t42.5 13t48 9.5t48 3.5q86 0 126 -37.5t40 -96.5q0 -47 -15 -80t-41 -57
t-62.5 -41.5t-79.5 -32.5q-34 -12 -66 -24.5t-56.5 -29t-39.5 -39.5t-15 -56q0 -45 30 -63t81 -18q65 0 106.5 14t61.5 24l7 -73q-8 -5 -25 -11t-41 -11.5t-54 -9.5t-62 -4z" />
    <glyph glyph-name="uni01A8" unicode="&#x1a8;" 
d="M265 266q29 8 54 16t43 18t28.5 23.5t10.5 32.5q0 15 -7.5 25t-20.5 15.5t-29 8t-33 2.5q-49 0 -86.5 -11t-53.5 -17l-4 69q19 9 62 18.5t93 9.5q72 0 115.5 -28.5t43.5 -82.5q0 -41 -17.5 -67.5t-45 -45t-62.5 -30.5t-70 -23q-21 -6 -43.5 -13t-40.5 -17t-29.5 -24.5
t-11.5 -34.5q0 -29 27.5 -41t80.5 -12q27 0 50 3.5t42 8.5t32.5 9.5t19.5 7.5l4 -70q-7 -3 -22 -8t-35.5 -9.5t-45.5 -7.5t-52 -3q-89 0 -136 28t-47 85q0 38 16 65t42.5 46t59.5 31.5t68 22.5z" />
    <glyph glyph-name="uni01A9" unicode="&#x1a9;" 
d="M32 62q22 28 53 60.5t65.5 66.5t71 68t69.5 65q-21 39 -41.5 77.5t-37.5 72t-29.5 59.5t-17.5 38l13 50h400l-17 -70h-303q23 -54 56 -113.5t68 -122.5q-64 -60 -127.5 -119t-125.5 -124h317l-17 -70h-411z" />
    <glyph glyph-name="uni01AA" unicode="&#x1aa;" 
d="M324 693q66 0 92 -31t26 -82q0 -16 -2.5 -33.5t-7.5 -34.5l-111 -467q-5 -20 -9.5 -38.5t-4.5 -35.5q0 -26 15.5 -45t58.5 -19h40l-18 -71q-8 -1 -17.5 -1h-17.5q-32 0 -58.5 5.5t-45.5 19.5t-29 38.5t-10 63.5q0 20 3.5 42.5t9.5 46.5l100 412q-20 -13 -40 -18.5
t-36 -5.5q-27 0 -45.5 8.5t-30 22.5t-16.5 32.5t-5 39.5q0 31 10.5 58.5t30.5 48t49.5 32.5t68.5 12zM280 500q22 0 39 9.5t36 26.5q6 19 7.5 30t1.5 16q0 49 -52 49q-35 0 -58.5 -24.5t-23.5 -59.5q0 -21 12 -34t38 -13z" />
    <glyph glyph-name="uni01AB" unicode="&#x1ab;" 
d="M447 72q-4 -42 -9.5 -84.5t-21.5 -77t-47 -56t-86 -21.5q-15 0 -32.5 3.5t-25.5 8.5l21 59q6 -2 15.5 -4.5t22.5 -2.5q21 0 36.5 9t25 23.5t14.5 32t7 35.5q-15 -2 -29.5 -1.5t-29.5 0.5q-29 0 -55 4.5t-46 17.5t-32 34.5t-12 56.5q0 22 4 46t10 49l46 191h-116l17 69
h116l31 130l86 14l-35 -144h206l-17 -69h-206l-47 -199q-5 -19 -8.5 -37t-3.5 -35q0 -19 6 -31t16 -19t23.5 -10t29.5 -3q19 0 35 0.5t30.5 1.5t29 3t31.5 6z" />
    <glyph glyph-name="uni01AC" unicode="&#x1ac;" 
d="M283 549q-27 0 -45 -8t-28.5 -21.5t-15 -32t-4.5 -40.5l-67 -8q-1 4 -1 8v6q0 50 17 82t44 51t59.5 26t62.5 7h293l-17 -70h-160l-133 -549h-82l132 549h-55z" />
    <glyph glyph-name="uni01AD" unicode="&#x1ad;" 
d="M427 13q-29 -10 -60.5 -17t-66.5 -7q-29 0 -53.5 6t-43.5 19.5t-29.5 36.5t-10.5 58q0 22 4 46t10 49l46 191h-98l17 69h98l10 42q11 45 28 80t43.5 58.5t63.5 36t87 12.5q34 0 64 -6t45 -14l-31 -64q-8 3 -27.5 8.5t-57.5 5.5q-32 0 -54 -8.5t-37.5 -24t-25 -37.5
t-16.5 -48l-10 -41h179l-17 -69h-179l-47 -199q-5 -19 -8.5 -37t-3.5 -35q0 -38 19 -50.5t51 -12.5q31 0 59 6.5t54 16.5z" />
    <glyph glyph-name="uni01AE" unicode="&#x1ae;" 
d="M267 -15q-3 -13 -5 -24t-2 -20q0 -41 46 -41q8 0 20 1.5t20 3.5l-7 -64q-8 -3 -23.5 -5.5t-32.5 -2.5q-59 0 -82 25.5t-23 70.5q0 27 10 71l133 549h-169l17 70h420l-17 -70h-169z" />
    <glyph glyph-name="Uhorn" unicode="&#x1af;" 
d="M504 619q24 0 39 9.5t23.5 23.5t12.5 31t5 32h83q-3 -28 -11.5 -54t-25.5 -47t-43.5 -35.5t-64.5 -19.5l-86 -357q-12 -51 -28 -91t-42 -67.5t-64 -42t-92 -14.5q-38 0 -65.5 12t-45.5 34t-27 51t-9 64q0 17 1.5 35.5t6.5 38.5l95 397h82l-95 -396q-5 -18 -7.5 -36
t-2.5 -35q0 -40 17.5 -67t61.5 -27q25 0 45 6.5t36.5 23.5t29 47t22.5 77l99 407h50z" />
    <glyph glyph-name="uhorn" unicode="&#x1b0;" 
d="M455 464q20 0 32.5 9.5t20 24.5t10.5 32t4 32h81q-2 -28 -10 -54t-23.5 -47t-39 -35.5t-56.5 -20.5l-56 -234q-5 -21 -8 -40t-3 -40t4 -41t12 -45l-73 -10q-5 10 -9 22.5t-7 26.5q-18 -18 -49.5 -36t-79.5 -18q-36 0 -61 11.5t-40.5 31t-22 46t-6.5 56.5q0 23 4 46t9 46
l58 237h82l-53 -219q-5 -21 -11.5 -48.5t-6.5 -55.5q0 -16 3 -30.5t10 -26t19.5 -18t31.5 -6.5q35 0 62.5 16.5t45.5 38.5q1 14 2.5 29.5t6.5 33.5l68 286h49z" />
    <glyph glyph-name="uni01B1" unicode="&#x1b1;" 
d="M595 549h-102q17 -37 26 -82t9 -93q0 -93 -23.5 -165t-63 -121.5t-91 -75.5t-106.5 -26q-80 0 -129 46t-49 143q0 45 11.5 95t32.5 99.5t51.5 95.5t68.5 84h-99l17 70h198l-13 -51q-37 -29 -69.5 -74.5t-57 -98.5t-38.5 -107.5t-14 -100.5q0 -64 28 -94.5t76 -30.5
q37 0 71 21.5t59.5 63.5t41 104t15.5 143q0 53 -11 99t-33 75l12 51h199z" />
    <glyph glyph-name="uni01B2" unicode="&#x1b2;" 
d="M394 622q65 0 100.5 -40.5t35.5 -135.5q0 -82 -20.5 -164t-60.5 -147.5t-99.5 -106.5t-136.5 -41q-40 0 -67.5 11.5t-44 31.5t-23.5 47.5t-7 59.5q0 28 5 58t12 62l87 362h82l-84 -352q-8 -31 -14.5 -64t-6.5 -62q0 -35 15.5 -59t59.5 -24q46 0 87 29.5t71.5 82
t48.5 123.5t18 154q0 34 -5.5 55.5t-16.5 33.5t-27.5 16t-38.5 4q-13 0 -31 -3l7 62q11 2 27 4.5t27 2.5z" />
    <glyph glyph-name="uni01B3" unicode="&#x1b3;" 
d="M170 0l55 230q-35 99 -63 194.5t-41 194.5h83q3 -35 10 -75.5t17 -82t21 -82.5t22 -78q47 71 84.5 127.5t66.5 101.5q18 29 34 48t31.5 30t31.5 15.5t33 4.5q26 0 45.5 -12t33.5 -31l-46 -52q-20 27 -43 27q-15 0 -26.5 -15t-34.5 -50q-30 -48 -77.5 -117t-99.5 -151
l-55 -227h-82z" />
    <glyph glyph-name="uni01B4" unicode="&#x1b4;" 
d="M512 476q34 0 62 -14l-19 -63q-9 5 -17.5 7.5t-22.5 2.5q-25 0 -36 -14t-23 -44q-24 -60 -45.5 -107t-42 -87.5t-42 -78t-46.5 -78.5q-22 -36 -45.5 -66.5t-50.5 -53t-59 -35.5t-71 -13q-23 0 -47.5 5t-34.5 13l26 66q8 -8 28 -10.5t37 -2.5q38 0 69 28t60 69
q-33 109 -46.5 225t-18.5 239h85q1 -40 2.5 -87t5 -97t11 -101t19.5 -98q41 75 70 144t62 144q13 28 24.5 48.5t26 33.5t33.5 19t46 6z" />
    <glyph glyph-name="uni01B5" unicode="&#x1b5;" 
d="M556 550q-36 -38 -82 -88t-95 -107h111l-16 -66h-153q-50 -59 -95.5 -115t-79.5 -104h304l-16 -70h-398l16 68q42 54 86.5 109.5t91.5 111.5h-92l16 66h132q45 53 88.5 101.5t85.5 92.5h-281l17 70h376z" />
    <glyph glyph-name="uni01B6" unicode="&#x1b6;" 
d="M494 405q-23 -20 -58.5 -54.5t-77.5 -76.5h99l-14 -59h-142q-40 -41 -74 -79t-56 -66h250l-16 -70h-347l13 54q24 35 59 76.5t74 84.5h-69l14 59h111q35 36 67.5 67t58.5 54h-221l18 69h326z" />
    <glyph glyph-name="uni01B7" unicode="&#x1b7;" 
d="M238 349q28 25 58 52.5t58 54.5t53 51t44 42h-269l16 70h374l-12 -49q-18 -20 -44 -46t-56.5 -55t-63 -58.5t-63.5 -56.5q79 -12 114.5 -47.5t35.5 -95.5q0 -59 -23 -101.5t-61 -69.5t-88 -40t-105 -13q-47 0 -88.5 9.5t-81.5 31.5l39 64q17 -11 49.5 -22.5t84.5 -11.5
q92 0 141.5 34.5t49.5 105.5q0 54 -35.5 79t-121.5 25h-17z" />
    <glyph glyph-name="uni01B8" unicode="&#x1b8;" 
d="M399 297h-21q-51 0 -89.5 -11.5t-64.5 -31t-39.5 -45.5t-13.5 -55q0 -44 32.5 -70t101.5 -26q21 0 43 3t42 8t36.5 11t26.5 11l9 -68q-10 -5 -28.5 -11.5t-42 -12t-50.5 -9t-54 -3.5q-52 0 -89.5 13.5t-62 36.5t-36 55t-11.5 68q0 33 13 65t41 58.5t72 45.5t106 27
q-15 27 -31.5 55.5t-32 56.5t-29 53.5t-23.5 45.5l11 52h361l-16 -70h-265q7 -18 21 -44t30 -54.5t33 -57t31 -50.5z" />
    <glyph glyph-name="uni01B9" unicode="&#x1b9;" 
d="M382 142h-15q-36 0 -74 -5.5t-68.5 -21.5t-50.5 -44.5t-20 -73.5t33 -69t95 -24q42 0 71.5 10t52.5 21l6 -68q-25 -11 -61.5 -21.5t-86.5 -10.5q-90 0 -141 41.5t-51 111.5q0 52 20 91.5t52 66.5t73.5 42t84.5 19q-33 51 -62 107t-49 102l12 48h330l-17 -69h-238
q7 -18 20.5 -44t30 -54t33.5 -56t32 -50z" />
    <glyph glyph-name="uni01BA" unicode="&#x1ba;" 
d="M496 408q-31 -32 -81 -74.5t-107 -87.5q67 -5 100 -37.5t33 -83.5q0 -40 -16 -68t-43.5 -47.5t-64.5 -31.5t-78 -21q-34 -8 -60.5 -13t-45 -13.5t-28 -22.5t-9.5 -38q0 -11 1.5 -16.5t2.5 -7.5l-66 -14q-2 9 -3.5 21t-1.5 20q0 39 12 63t33.5 39t51 23.5t64.5 15.5
q34 7 65 15.5t55 20.5t38.5 29t14.5 43q0 38 -34.5 59.5t-116.5 17.5l13 56q54 39 99 74.5t77 65.5h-241l16 69h333z" />
    <glyph glyph-name="uni01BB" unicode="&#x1bb;" 
d="M517 493q0 -58 -26 -99t-61 -72h76l-15 -65h-136q-68 -46 -119.5 -93t-65.5 -94h270l-17 -70h-362q7 45 23.5 82t40.5 68t54 57t63 50h-96l16 65h166q46 35 76.5 72t30.5 88q0 36 -19 58.5t-70 22.5q-25 0 -47.5 -6t-40.5 -15t-32 -19t-22 -18l-28 61q12 12 31 23.5
t42.5 21.5t50.5 16t56 6q43 0 74 -12t50 -31.5t28 -45t9 -51.5z" />
    <glyph glyph-name="uni01BC" unicode="&#x1bc;" 
d="M558 619l-18 -70h-218q-5 -18 -12.5 -41t-15 -46.5t-14 -45t-10.5 -36.5q107 -6 158.5 -50.5t51.5 -120.5q0 -45 -15.5 -85t-48 -70.5t-83 -48.5t-120.5 -18q-27 0 -51.5 4t-45 9t-34.5 11t-19 10l29 69l18 -9t29.5 -11t38.5 -9t45 -4q36 0 67.5 10t55 28.5t37 45.5
t13.5 60q0 65 -53 90.5t-172 27.5q23 65 40.5 119t34.5 111h-82l18 70h376z" />
    <glyph glyph-name="uni01BD" unicode="&#x1bd;" 
d="M454 154q0 -45 -18 -76t-48.5 -51t-72 -29t-88.5 -9q-46 0 -82 6.5t-56 17.5l25 68q16 -8 44 -15t79 -7q27 0 51.5 4t43 14.5t30 28.5t11.5 45q0 18 -8.5 32t-29 24t-53.5 15.5t-81 5.5h-37q18 50 31 88.5t26 81.5h-68l15 66h337l-15 -66h-195q-4 -11 -8.5 -25.5
t-9.5 -29.5l-9.5 -28.5t-8.5 -23.5q56 -2 93.5 -12.5t60 -28.5t32 -42.5t9.5 -53.5z" />
    <glyph glyph-name="uni01BE" unicode="&#x1be;" 
d="M223 395h-98l17 69h98l31 130l86 14l-35 -144h179l-17 -69h-179l-3 -11q-6 -25 -7 -41.5t4 -28t17 -20t31 -16.5q26 -12 48.5 -24t39 -27t25.5 -35t9 -48q0 -38 -16 -67t-45.5 -49t-70 -30t-89.5 -10q-61 0 -100.5 13t-59.5 24l33 70q17 -11 49.5 -24t81.5 -13
q25 0 49.5 3.5t43.5 12.5t31 23.5t12 36.5q0 31 -26.5 49.5t-74.5 39.5q-19 9 -35 20.5t-26 30.5t-12 46.5t7 66.5z" />
    <glyph glyph-name="uni01BF" unicode="&#x1bf;" 
d="M503 310q0 -125 -90.5 -216.5t-286.5 -141.5l-28 -117h-83l145 603q27 11 74.5 23.5t104.5 12.5q44 0 75.5 -12.5t51 -35t28.5 -52.5t9 -64zM321 402q-34 0 -56 -5t-35 -10l-85 -360q74 22 126.5 51t85.5 63.5t48 74.5t15 85q0 19 -4 37t-15 32t-30 23t-50 9z" />
    <glyph glyph-name="uni01C0" unicode="&#x1c0;" 
d="M361 699h78l-208 -864h-78z" />
    <glyph glyph-name="uni01C1" unicode="&#x1c1;" 
d="M449 699h78l-208 -864h-78zM270 699h78l-208 -864h-78z" />
    <glyph glyph-name="uni01C2" unicode="&#x1c2;" 
d="M109 389h176l75 310h76l-74 -310h176l-16 -66h-176l-26 -105h177l-17 -66h-176l-76 -317h-76l76 317h-176l16 66h176l26 105h-177z" />
    <glyph glyph-name="uni01C3" unicode="&#x1c3;" 
d="M374 451q-9 -37 -17.5 -68t-17.5 -59t-18.5 -55.5t-19.5 -57.5h-57q4 30 7.5 57.5t8 55.5t10.5 59t15 68l40 168h89zM232 -12q-26 0 -42.5 15t-16.5 45q0 36 20.5 56t49.5 20q26 0 43.5 -15.5t17.5 -45.5q0 -35 -22.5 -55t-49.5 -20z" />
    <glyph glyph-name="uni01C4" unicode="&#x1c4;" 
d="M453 783l32 28l68 -78l96 73l23 -31l-132 -113zM247 625q60 0 87 -43t27 -114q0 -27 -5.5 -73t-18.5 -98.5t-33.5 -106t-50.5 -97t-69.5 -71t-89.5 -27.5q-17 0 -36.5 2t-36.5 7l146 611q24 6 43 8t37 2zM106 67q5 -1 9 -1h9q21 0 41.5 21t38.5 55t34 77.5t27 88.5
t17.5 87t6.5 74q0 16 -1.5 33t-8.5 30t-20 20t-35 3zM604 555q-23 -44 -54 -104.5t-63.5 -126.5t-64 -132.5t-56.5 -121.5h122l-17 -70h-194l13 54q34 73 62.5 134t56.5 118.5t57 116t64 126.5h-99l17 70h172z" />
    <glyph glyph-name="uni01C5" unicode="&#x1c5;" 
d="M511 524l-76 89l36 32l53 -55l78 56l26 -33zM245 625q30 0 51 -11.5t35 -32t20.5 -49.5t6.5 -64q0 -27 -5.5 -73t-18.5 -98.5t-33.5 -106t-50 -97t-69 -71t-90.5 -27.5q-17 0 -36.5 2t-36.5 7l146 611q24 6 43.5 8t37.5 2zM104 67q5 -1 8.5 -1h8.5q21 0 41.5 21t39 55
t34 77.5t27 88.5t18 87t6.5 74q0 15 -1.5 30.5t-7 28t-15.5 20.5t-28 8h-6.5t-7.5 -1zM575 400q-30 -51 -54 -91t-45 -77t-41.5 -75.5t-44.5 -86.5h113l-17 -70h-185l13 54q33 66 57 111t45 82t41 71t45 77h-99l17 69h171z" />
    <glyph glyph-name="uni01C6" unicode="&#x1c6;" 
d="M528 524l-76 89l36 32l53 -55l78 56l26 -33zM574 400q-30 -51 -54 -91t-45 -77t-41.5 -75.5t-44.5 -86.5h113l-17 -70h-185l13 54q33 66 57 111t45 82t41 71t45 77h-99l17 69h171zM245 8q-38 -13 -68 -16.5t-49 -3.5q-28 0 -48 11.5t-33 30.5t-19.5 44t-6.5 53
q0 61 15 123t42.5 112t67.5 81.5t91 31.5q11 0 22 -2t23 -5l51 211l77 14zM268 406q-17 10 -34 10q-28 0 -53 -27t-44 -70.5t-30 -98.5t-11 -111q0 -27 12.5 -44t35.5 -17q17 0 40 10z" />
    <glyph glyph-name="uni01C7" unicode="&#x1c7;" 
d="M244 70l-16 -70h-215l147 619h82l-131 -549h133zM284 69q39 0 61.5 9t35.5 25t19.5 38.5t12.5 49.5l102 428h82l-111 -465q-9 -38 -23 -66.5t-37 -48t-56 -29.5t-80 -10h-22z" />
    <glyph glyph-name="uni01C8" unicode="&#x1c8;" 
d="M280 70l-17 -70h-242l148 619h82l-131 -549h160zM427 18q-12 -50 -27 -85t-36.5 -57.5t-52.5 -33t-74 -10.5q-16 0 -35 4t-30 12l19 69q21 -13 58 -13q41 0 62.5 31t33.5 82l107 447h82zM518 542q-23 0 -38.5 14t-15.5 39q0 32 20.5 50t45.5 18q23 0 38.5 -14t15.5 -40
q0 -30 -21 -48.5t-45 -18.5z" />
    <glyph glyph-name="uni01C9" unicode="&#x1c9;" 
d="M357 18q-12 -50 -27 -85t-36.5 -57.5t-52.5 -33t-74 -10.5q-16 0 -34.5 4t-29.5 12l18 69q23 -13 58 -13q41 0 62.5 31t33.5 82l107 447h82zM448 542q-23 0 -38 14t-15 39q0 32 20 50t45 18q23 0 38.5 -14t15.5 -40q0 -30 -21 -48.5t-45 -18.5zM188 -4q-59 10 -81 43.5
t-22 81.5q0 21 3.5 43.5t9.5 46.5l113 468l86 14l-117 -489q-5 -19 -9 -38t-4 -36q0 -23 9.5 -39t33.5 -24z" />
    <glyph glyph-name="uni01CA" unicode="&#x1ca;" 
d="M309 69q31 0 50 7.5t31 22.5t19 38t14 54l103 428h71l-111 -465q-18 -75 -63 -114.5t-131 -39.5zM135 251l-61 -251h-61l148 619h66l14 -436l35 183l61 253h62l-149 -619h-66l-14 436z" />
    <glyph glyph-name="uni01CB" unicode="&#x1cb;" 
d="M144 251l-61 -251h-62l149 619h66l14 -436l35 183l61 253h62l-149 -619h-66l-14 436zM447 18q-12 -50 -27.5 -85t-37 -57.5t-52.5 -33t-74 -10.5q-13 0 -28.5 4t-26.5 12l19 69q21 -13 58 -13q40 0 61.5 31t33.5 82l107 447h74zM538 542q-24 0 -39 14t-15 39q0 32 20 50
t45 18q23 0 39 -14t16 -40q0 -30 -21 -48.5t-45 -18.5z" />
    <glyph glyph-name="uni01CC" unicode="&#x1cc;" 
d="M98 0h-73l107 447q29 12 62 19.5t59 7.5q62 0 84.5 -28.5t22.5 -71.5q0 -21 -3.5 -43.5t-9.5 -45.5l-68 -285h-74l67 280l10.5 45.5t4.5 33.5q0 26 -13 34.5t-42 8.5q-8 0 -20 -3t-19 -7zM447 18q-12 -50 -27.5 -85t-37 -57.5t-52.5 -33t-74 -10.5q-13 0 -28.5 4
t-26.5 12l19 69q21 -13 58 -13q40 0 61.5 31t33.5 82l107 447h74zM538 542q-24 0 -39 14t-15 39q0 32 20 50t45 18q23 0 39 -14t16 -40q0 -30 -21 -48.5t-45 -18.5z" />
    <glyph glyph-name="uni01CD" unicode="&#x1cd;" 
d="M383 0l1 162h-238l-76 -162h-83q33 66 73 143t83.5 158t90 162.5t93.5 155.5h98q11 -74 18.5 -155.5t12.5 -162.5t8 -158t5 -143h-86zM357 547q-38 -63 -84 -146t-92 -171h200q-2 90 -9 173.5t-15 143.5zM395 752l100 74l30 -40l-145 -125l-95 133l40 36z" />
    <glyph glyph-name="uni01CE" unicode="&#x1ce;" 
d="M376 -5q-5 10 -9 21.5t-6 25.5q-20 -18 -55.5 -35.5t-83.5 -17.5q-78 0 -114.5 47t-36.5 119q0 60 20 117t60.5 102t101.5 72.5t142 27.5q12 0 27.5 -1t31.5 -4t31.5 -7.5t27.5 -10.5l-68 -280q-5 -21 -8.5 -39.5t-3.5 -39.5t4 -41.5t12 -45.5zM239 57q38 0 67.5 16
t49.5 38q1 15 3.5 34t6.5 36l55 219q-5 2 -19 3.5t-22 1.5q-51 0 -92.5 -20t-71.5 -53.5t-46 -77t-16 -90.5q0 -23 4 -42.5t13.5 -33.5t26 -22.5t41.5 -8.5zM393 613l100 74l30 -40l-145 -125l-95 133l40 36z" />
    <glyph glyph-name="uni01CF" unicode="&#x1cf;" 
d="M405 549l-116 -479h120l-17 -70h-321l17 70h119l115 479h-119l17 70h321l-17 -70h-119zM400 752l100 74l30 -40l-145 -125l-95 133l40 36z" />
    <glyph glyph-name="uni01D0" unicode="&#x1d0;" 
d="M305 205q-5 -20 -8.5 -38t-3.5 -35q0 -28 14.5 -46.5t55.5 -18.5q17 0 33 2.5t30 6.5l-5 -70q-7 -2 -25.5 -5.5t-52.5 -3.5q-37 0 -62.5 10t-41 27t-22 40t-6.5 50q0 21 3.5 43t8.5 45l45 183h-134l16 69h216zM339 613l100 74l30 -40l-145 -125l-95 133l40 36z" />
    <glyph glyph-name="uni01D1" unicode="&#x1d1;" 
d="M369 562q-49 0 -87.5 -36.5t-64.5 -92t-40 -121t-14 -122.5q0 -71 24 -101.5t67 -30.5q49 0 87 36.5t64 92t39.5 121t13.5 122.5q0 70 -23.5 101t-65.5 31zM379 633q72 0 117 -47.5t45 -149.5q0 -37 -7 -84.5t-22 -97.5t-38.5 -98t-56.5 -85.5t-76 -60.5t-97 -23
q-73 0 -118.5 47.5t-45.5 149.5q0 37 7 84.5t22 97.5t39 98t57 85.5t76.5 60.5t97.5 23zM409 752l100 74l30 -40l-145 -125l-95 133l40 36z" />
    <glyph glyph-name="uni01D2" unicode="&#x1d2;" 
d="M237 -11q-74 0 -115.5 43t-41.5 119q0 52 14.5 109t47 105t83.5 79t123 31q74 0 115.5 -43t41.5 -119q0 -52 -14.5 -109t-47 -105t-83.5 -79t-123 -31zM251 63q40 0 72 22.5t54 57.5t33.5 78.5t11.5 84.5q0 45 -20 70.5t-68 25.5q-40 0 -72 -22.5t-54 -58t-33.5 -79
t-11.5 -84.5q0 -45 20 -70t68 -25zM373 613l100 74l30 -40l-145 -125l-95 133l40 36z" />
    <glyph glyph-name="uni01D3" unicode="&#x1d3;" 
d="M237 -13q-41 0 -70 14t-48.5 37.5t-28.5 54.5t-9 65q0 30 8 64l95 397h82l-95 -396q-8 -34 -8 -63q0 -21 4.5 -39.5t14.5 -32.5t26.5 -22t40.5 -8q27 0 49 6.5t40 23.5t32 47t26 77l98 407h82l-100 -417q-12 -51 -29.5 -91t-45 -67.5t-67.5 -42t-97 -14.5zM401 752
l100 74l30 -40l-145 -125l-95 133l40 36z" />
    <glyph glyph-name="uni01D4" unicode="&#x1d4;" 
d="M222 -10q-39 0 -65 11.5t-42.5 31t-23.5 46t-7 56.5q0 23 4 46t9 46l57 237h83l-53 -219q-5 -21 -11.5 -48.5t-6.5 -55.5q0 -16 3 -30.5t11 -26t22 -18t36 -6.5q38 0 68 16.5t49 38.5q1 14 2.5 29.5t6.5 33.5l69 286h82l-70 -293q-5 -21 -8 -40t-3 -40t3.5 -41t12.5 -45
l-73 -10q-5 10 -9.5 22.5t-6.5 26.5q-20 -18 -54 -36t-85 -18zM365 613l100 74l30 -40l-145 -125l-95 133l40 36z" />
    <glyph glyph-name="uni01D5" unicode="&#x1d5;" 
d="M237 -13q-41 0 -70 14t-48.5 37.5t-28.5 54.5t-9 65q0 30 8 64l90 377h82l-90 -376q-8 -34 -8 -63q0 -21 4.5 -39.5t14.5 -32.5t26.5 -22t40.5 -8q27 0 49 6.5t40 23.5t32 47t26 77l93 387h82l-95 -397q-12 -51 -29.5 -91t-45 -67.5t-67.5 -42t-97 -14.5zM310 829h227
l-13 -57h-227zM295 647q-18 0 -30.5 11.5t-12.5 30.5q0 26 16.5 41t36.5 15q18 0 31 -11.5t13 -31.5q0 -24 -17.5 -39.5t-36.5 -15.5zM476 647q-18 0 -30 11.5t-12 30.5q0 26 16 41t36 15q18 0 31 -11.5t13 -31.5q0 -24 -17.5 -39.5t-36.5 -15.5z" />
    <glyph glyph-name="uni01D6" unicode="&#x1d6;" 
d="M222 -10q-39 0 -65 11.5t-42.5 31t-23.5 46t-7 56.5q0 23 4 46t9 46l57 237h83l-53 -219q-5 -21 -11.5 -48.5t-6.5 -55.5q0 -16 3 -30.5t11 -26t22 -18t36 -6.5q38 0 68 16.5t49 38.5q1 14 2.5 29.5t6.5 33.5l69 286h82l-70 -293q-5 -21 -8 -40t-3 -40t3.5 -41t12.5 -45
l-73 -10q-5 10 -9.5 22.5t-6.5 26.5q-20 -18 -54 -36t-85 -18zM274 716h227l-13 -57h-227zM258 524q-18 0 -30.5 11.5t-12.5 30.5q0 26 16.5 41t36.5 15q18 0 31 -11.5t13 -31.5q0 -24 -17.5 -39.5t-36.5 -15.5zM439 524q-18 0 -30 11.5t-12 30.5q0 26 16 41t36 15
q18 0 31 -11.5t13 -31.5q0 -24 -17.5 -39.5t-36.5 -15.5z" />
    <glyph glyph-name="uni01D7" unicode="&#x1d7;" 
d="M237 -13q-41 0 -70 14t-48.5 37.5t-28.5 54.5t-9 65q0 30 8 64l95 397h82l-95 -396q-8 -34 -8 -63q0 -21 4.5 -39.5t14.5 -32.5t26.5 -22t40.5 -8q27 0 49 6.5t40 23.5t32 47t26 77l98 407h82l-100 -417q-12 -51 -29.5 -91t-45 -67.5t-67.5 -42t-97 -14.5zM478 783
l-91 -92l-38 30l76 109zM267 657q-18 0 -30.5 11.5t-12.5 30.5q0 26 16.5 41t36.5 15q18 0 31 -12t13 -31q0 -25 -17.5 -40t-36.5 -15zM510 657q-18 0 -30.5 11.5t-12.5 30.5q0 26 16.5 41t36.5 15q18 0 31 -12t13 -31q0 -25 -17.5 -40t-36.5 -15z" />
    <glyph glyph-name="uni01D8" unicode="&#x1d8;" 
d="M222 -10q-39 0 -65 11.5t-42.5 31t-23.5 46t-7 56.5q0 23 4 46t9 46l57 237h83l-53 -219q-5 -21 -11.5 -48.5t-6.5 -55.5q0 -16 3 -30.5t11 -26t22 -18t36 -6.5q38 0 68 16.5t49 38.5q1 14 2.5 29.5t6.5 33.5l69 286h82l-70 -293q-5 -21 -8 -40t-3 -40t3.5 -41t12.5 -45
l-73 -10q-5 10 -9.5 22.5t-6.5 26.5q-20 -18 -54 -36t-85 -18zM258 524q-18 0 -30.5 11.5t-12.5 30.5q0 26 16.5 41t36.5 15q18 0 31 -11.5t13 -31.5q0 -24 -17.5 -39.5t-36.5 -15.5zM447 524q-18 0 -30 11.5t-12 30.5q0 26 16 41t36 15q18 0 31 -11.5t13 -31.5
q0 -24 -17.5 -39.5t-36.5 -15.5zM471 715l-107 -110l-37 30l91 128z" />
    <glyph glyph-name="uni01D9" unicode="&#x1d9;" 
d="M237 -13q-41 0 -70 14t-48.5 37.5t-28.5 54.5t-9 65q0 30 8 64l95 397h82l-95 -396q-8 -34 -8 -63q0 -21 4.5 -39.5t14.5 -32.5t26.5 -22t40.5 -8q27 0 49 6.5t40 23.5t32 47t26 77l98 407h82l-100 -417q-12 -51 -29.5 -91t-45 -67.5t-67.5 -42t-97 -14.5zM267 657
q-18 0 -30.5 11.5t-12.5 30.5q0 26 16.5 41t36.5 15q18 0 31 -12t13 -31q0 -25 -17.5 -40t-36.5 -15zM510 657q-18 0 -30.5 11.5t-12.5 30.5q0 26 16.5 41t36.5 15q18 0 31 -12t13 -31q0 -25 -17.5 -40t-36.5 -15zM321 794l33 36l45 -39l62 39l24 -42l-96 -70z" />
    <glyph glyph-name="uni01DA" unicode="&#x1da;" 
d="M222 -10q-39 0 -65 11.5t-42.5 31t-23.5 46t-7 56.5q0 23 4 46t9 46l57 237h83l-53 -219q-5 -21 -11.5 -48.5t-6.5 -55.5q0 -16 3 -30.5t11 -26t22 -18t36 -6.5q38 0 68 16.5t49 38.5q1 14 2.5 29.5t6.5 33.5l69 286h82l-70 -293q-5 -21 -8 -40t-3 -40t3.5 -41t12.5 -45
l-73 -10q-5 10 -9.5 22.5t-6.5 26.5q-20 -18 -54 -36t-85 -18zM258 524q-18 0 -30.5 11.5t-12.5 30.5q0 26 16.5 41t36.5 15q18 0 31 -11.5t13 -31.5q0 -24 -17.5 -39.5t-36.5 -15.5zM447 524q-18 0 -30 11.5t-12 30.5q0 26 16 41t36 15q18 0 31 -11.5t13 -31.5
q0 -24 -17.5 -39.5t-36.5 -15.5zM272 707l33 36l65 -58l87 57l24 -42l-121 -88z" />
    <glyph glyph-name="uni01DB" unicode="&#x1db;" 
d="M237 -13q-41 0 -70 14t-48.5 37.5t-28.5 54.5t-9 65q0 30 8 64l95 397h82l-95 -396q-8 -34 -8 -63q0 -21 4.5 -39.5t14.5 -32.5t26.5 -22t40.5 -8q27 0 49 6.5t40 23.5t32 47t26 77l98 407h82l-100 -417q-12 -51 -29.5 -91t-45 -67.5t-67.5 -42t-97 -14.5zM266 657
q-18 0 -30.5 11.5t-12.5 30.5q0 26 16.5 41t36.5 15q18 0 31 -12t13 -31q0 -25 -17.5 -40t-36.5 -15zM509 657q-18 0 -30.5 11.5t-12.5 30.5q0 26 16.5 41t36.5 15q18 0 31 -12t13 -31q0 -25 -17.5 -40t-36.5 -15zM389 830l46 -116l-42 -25l-68 104z" />
    <glyph glyph-name="uni01DC" unicode="&#x1dc;" 
d="M222 -10q-39 0 -65 11.5t-42.5 31t-23.5 46t-7 56.5q0 23 4 46t9 46l57 237h83l-53 -219q-5 -21 -11.5 -48.5t-6.5 -55.5q0 -16 3 -30.5t11 -26t22 -18t36 -6.5q38 0 68 16.5t49 38.5q1 14 2.5 29.5t6.5 33.5l69 286h82l-70 -293q-5 -21 -8 -40t-3 -40t3.5 -41t12.5 -45
l-73 -10q-5 10 -9.5 22.5t-6.5 26.5q-20 -18 -54 -36t-85 -18zM258 524q-18 0 -30.5 11.5t-12.5 30.5q0 26 16.5 41t36.5 15q18 0 31 -11.5t13 -31.5q0 -24 -17.5 -39.5t-36.5 -15.5zM447 524q-18 0 -30.5 11.5t-12.5 30.5q0 26 16.5 41t36.5 15q18 0 31 -11.5t13 -31.5
q0 -24 -17.5 -39.5t-36.5 -15.5zM338 763l55 -135l-42 -25l-77 123z" />
    <glyph glyph-name="uni01DD" unicode="&#x1dd;" 
d="M421 220q-60 -1 -108 -6t-81.5 -17t-51.5 -33t-18 -54q0 -8 3.5 -17.5t12 -17.5t23 -13t37.5 -5q34 0 64 13.5t53.5 36t40 52t25.5 61.5zM321 475q48 0 84 -14t60 -38t35.5 -55.5t11.5 -65.5q0 -63 -19.5 -120t-56.5 -100t-89.5 -68.5t-118.5 -25.5q-39 0 -67 9.5
t-46 25.5t-26.5 37t-8.5 44q0 63 32.5 98t83 52.5t113 22t122.5 6.5q3 32 -6 55t-27 37.5t-44.5 21.5t-58.5 7q-21 0 -43.5 -3.5t-42 -8.5t-34.5 -10.5t-21 -9.5l-7 70q19 10 62 21.5t112 11.5z" />
    <glyph glyph-name="uni01DE" unicode="&#x1de;" 
d="M305 829h227l-13 -57h-227zM290 647q-18 0 -30.5 11.5t-12.5 30.5q0 26 16.5 41t36.5 15q18 0 31 -11.5t13 -31.5q0 -24 -17.5 -39.5t-36.5 -15.5zM471 647q-18 0 -30 11.5t-12 30.5q0 26 16 41t36 15q18 0 31 -11.5t13 -31.5q0 -24 -17.5 -39.5t-36.5 -15.5zM383 0
l1 162h-238l-76 -162h-83q33 66 72 140t82 151t89 155.5t93 152.5h98q11 -74 19.5 -152.5t14 -155.5t9 -151t5.5 -140h-86zM353 527q-38 -63 -82 -136t-90 -161h200q-2 90 -11 163.5t-17 133.5z" />
    <glyph glyph-name="uni01DF" unicode="&#x1df;" 
d="M376 -5q-5 10 -9 21.5t-6 25.5q-20 -18 -55.5 -35.5t-83.5 -17.5q-78 0 -114.5 47t-36.5 119q0 60 20 117t60.5 102t101.5 72.5t142 27.5q12 0 27.5 -1t31.5 -4t31.5 -7.5t27.5 -10.5l-68 -280q-5 -21 -8.5 -39.5t-3.5 -39.5t4 -41.5t12 -45.5zM239 57q38 0 67.5 16
t49.5 38q1 15 3.5 34t6.5 36l55 219q-5 2 -19 3.5t-22 1.5q-51 0 -92.5 -20t-71.5 -53.5t-46 -77t-16 -90.5q0 -23 4 -42.5t13.5 -33.5t26 -22.5t41.5 -8.5zM300 716h227l-13 -57h-227zM284 524q-18 0 -30.5 11.5t-12.5 30.5q0 26 16.5 41t36.5 15q18 0 31 -11.5t13 -31.5
q0 -24 -17.5 -39.5t-36.5 -15.5zM465 524q-18 0 -30 11.5t-12 30.5q0 26 16 41t36 15q18 0 31 -11.5t13 -31.5q0 -24 -17.5 -39.5t-36.5 -15.5z" />
    <glyph glyph-name="uni01E0" unicode="&#x1e0;" 
d="M388 647q-19 0 -31.5 11.5t-12.5 31.5q0 26 16.5 41.5t37.5 15.5q18 0 31 -12t13 -32q0 -25 -17.5 -40.5t-36.5 -15.5zM310 829h227l-14 -57h-227zM383 0l1 162h-238l-76 -162h-83q33 66 72 140t82 151t89 155.5t93 152.5h98q11 -74 19.5 -152.5t14 -155.5t9 -151
t5.5 -140h-86zM353 527q-38 -63 -82 -136t-90 -161h200q-2 90 -11 163.5t-17 133.5z" />
    <glyph glyph-name="uni01E1" unicode="&#x1e1;" 
d="M376 -5q-5 10 -9 21.5t-6 25.5q-20 -18 -55.5 -35.5t-83.5 -17.5q-78 0 -114.5 47t-36.5 119q0 60 20 117t60.5 102t101.5 72.5t142 27.5q12 0 27.5 -1t31.5 -4t31.5 -7.5t27.5 -10.5l-68 -280q-5 -21 -8.5 -39.5t-3.5 -39.5t4 -41.5t12 -45.5zM239 57q38 0 67.5 16
t49.5 38q1 15 3.5 34t6.5 36l55 219q-5 2 -19 3.5t-22 1.5q-51 0 -92.5 -20t-71.5 -53.5t-46 -77t-16 -90.5q0 -23 4 -42.5t13.5 -33.5t26 -22.5t41.5 -8.5zM380 524q-19 0 -31.5 11.5t-12.5 31.5q0 26 16.5 41.5t37.5 15.5q18 0 31 -12t13 -32q0 -25 -17.5 -40.5
t-36.5 -15.5zM304 716h227l-14 -57h-227z" />
    <glyph glyph-name="uni01E2" unicode="&#x1e2;" 
d="M245 0l40 162h-121l-76 -162h-80q85 174 168 326.5t172 292.5h253l-17 -70h-128l-45 -190h104l-17 -70h-104l-53 -219h141l-17 -70h-220zM382 566q-50 -88 -97.5 -175t-85.5 -161h102zM375 774h250l-15 -64h-250z" />
    <glyph glyph-name="uni01E3" unicode="&#x1e3;" 
d="M266 79q-11 -21 -26.5 -38t-33.5 -28.5t-37 -17.5t-37 -6q-35 0 -60.5 25t-25.5 79q0 31 13 63.5t39.5 60.5t67.5 46.5t97 20.5q1 7 1 13v14q0 47 -18 69.5t-49 22.5t-72 -23l5 69q22 14 44 20t43 6q18 0 36 -5t34 -15.5t27.5 -27.5t15.5 -42q21 43 57.5 66.5t71.5 23.5
t60.5 -25t25.5 -79q0 -31 -12.5 -63.5t-39.5 -60t-68 -46t-98 -21.5v-26q0 -48 18 -70t49 -22t72 23l-5 -70q-22 -14 -44 -20t-43 -6q-18 0 -35 5t-32 15.5t-26 27.5t-15 42zM156 59q12 0 26.5 10t28.5 29.5t26 48.5t19 68q-37 -2 -62 -12t-40.5 -25t-22 -33t-6.5 -34
q0 -26 8.5 -39t22.5 -13zM435 405q-12 0 -26.5 -10t-28.5 -29.5t-26 -48.5t-19 -68q37 1 62 11.5t40.5 26t22 33t6.5 34.5q0 26 -8.5 38.5t-22.5 12.5zM259 635h250l-15 -64h-250z" />
    <glyph glyph-name="uni01E4" unicode="&#x1e4;" 
d="M412 14q-35 -12 -71 -19t-70 -7q-39 0 -73.5 11t-61 36t-41.5 66t-15 101q0 79 22.5 156.5t64.5 138.5t102 98.5t135 37.5q29 0 51 -4.5t38 -11.5t27.5 -15t19.5 -15l-39 -66q-17 15 -43 27.5t-61 12.5q-55 0 -98.5 -30t-73.5 -79t-46 -111t-16 -126q0 -75 29.5 -115.5
t86.5 -40.5q26 0 64 11l25 104h-72l16 65h71l21 86h82l-21 -86h45l-16 -65h-45z" />
    <glyph glyph-name="uni01E5" unicode="&#x1e5;" 
d="M169 -98q71 0 109.5 32.5t51.5 96.5l3 17q-17 -10 -47 -19.5t-60 -9.5q-68 0 -104 36t-36 101q0 60 19 117t58 102t97 72t136 27q12 0 27.5 -1t32 -3.5t31.5 -7t26 -11.5l-44 -176h62l-14 -61h-63l-44 -174q-12 -48 -28.5 -86.5t-45 -65.5t-73 -41.5t-112.5 -14.5
q-35 0 -70 10t-60 26l32 69q20 -15 50.5 -25t65.5 -10zM244 87q16 0 32.5 4t30.5 10t25.5 12.5t19.5 12.5l20 88h-89l14 61h90l30 125q-8 2 -19.5 3.5t-19.5 1.5q-46 0 -84.5 -20t-66.5 -53t-43.5 -75t-15.5 -85q0 -48 19 -66.5t57 -18.5z" />
    <glyph glyph-name="Gcaron" unicode="&#x1e6;" 
d="M265 -13q-42 0 -76.5 15t-58.5 43t-37 68t-13 89q0 79 23 156.5t66.5 138.5t105.5 98.5t140 37.5q31 0 54 -4.5t40 -11.5t29 -15t20 -15l-39 -66q-17 15 -45 27.5t-65 12.5q-58 0 -103.5 -30t-77 -79t-48.5 -111t-17 -126q0 -72 32 -114t93 -42q25 0 43.5 3.5t29.5 7.5
l56 234h82l-69 -290q-8 -3 -24.5 -7.5t-38.5 -9t-48.5 -7.5t-53.5 -3zM436 752l100 74l30 -40l-145 -125l-95 133l40 36z" />
    <glyph glyph-name="gcaron" unicode="&#x1e7;" 
d="M179 -98q74 0 114.5 32.5t53.5 96.5l4 17q-18 -10 -50.5 -19.5t-64.5 -9.5q-73 0 -111.5 36t-38.5 101q0 60 19.5 117t59.5 102t100 72t140 27q12 0 29 -1t34.5 -3.5t34 -7t28.5 -11.5l-103 -411q-12 -48 -29 -86.5t-46.5 -65.5t-75.5 -41.5t-116 -14.5q-38 0 -76 10
t-64 26l32 69q20 -15 54 -25t72 -10zM254 87q18 0 35 4t32.5 10t28 12.5t20.5 12.5l65 274q-9 2 -22.5 3.5t-24.5 1.5q-48 0 -88.5 -20t-70 -53t-45.5 -75t-16 -85q0 -48 21 -66.5t65 -18.5zM418 613l100 74l30 -40l-145 -125l-95 133l40 36z" />
    <glyph glyph-name="uni01E8" unicode="&#x1e8;" 
d="M588 619q-36 -38 -71.5 -74t-72.5 -72t-76 -73.5t-84 -77.5q21 -24 45.5 -57.5t48.5 -75t47 -89.5t42 -100h-89q-38 106 -83 178.5t-97 119.5l-71 -298h-82l148 619h82l-65 -271q84 75 151.5 141.5t124.5 129.5h102zM392 752l100 74l30 -40l-145 -125l-95 133l40 36z" />
    <glyph glyph-name="uni01E9" unicode="&#x1e9;" 
d="M63 0l156 649l86 14l-94 -386q60 44 122.5 92.5t113.5 94.5h98q-25 -26 -58.5 -55t-69 -57.5t-69.5 -54.5t-60 -45q23 -20 47.5 -49t47 -63t42 -70t31.5 -70h-89q-32 72 -75 133t-91 99l-56 -232h-82zM230 794l33 36l65 -58l87 57l24 -42l-121 -88z" />
    <glyph glyph-name="uni01EA" unicode="&#x1ea;" 
d="M232 -167q-49 0 -68.5 15.5t-19.5 40.5q0 24 16 46.5t37 40.5q5 3 8 6.5t8 5.5q-63 8 -100 55.5t-37 140.5q0 37 7 84.5t22 97.5t38.5 98t56.5 85.5t76.5 60.5t97.5 23q73 0 118 -47.5t45 -149.5q0 -31 -5 -70t-15.5 -81.5t-27 -85t-40 -80t-54 -67.5t-68.5 -47
q-12 -5 -30 -15t-34.5 -23t-28.5 -27.5t-12 -29.5q0 -9 7.5 -14.5t25.5 -5.5q9 0 18.5 2t17.5 4l-7 -53q-22 -10 -52 -10zM364 562q-49 0 -87 -36.5t-64.5 -92t-40 -121t-13.5 -122.5q0 -71 24 -101.5t66 -30.5q49 0 87 36.5t64.5 92t40 121t13.5 122.5q0 70 -23.5 101
t-66.5 31z" />
    <glyph glyph-name="uni01EB" unicode="&#x1eb;" 
d="M251 63q40 0 72 22.5t54 57.5t33.5 78.5t11.5 84.5q0 45 -20 70.5t-68 25.5q-40 0 -72 -22.5t-54 -58t-33.5 -79t-11.5 -84.5q0 -45 20 -70t68 -25zM505 313q0 -43 -9.5 -87.5t-29.5 -85t-50 -74t-70 -53.5q-19 -10 -37 -22t-34 -26q-9 -8 -24 -22.5t-15 -32.5
q0 -9 7.5 -14.5t25.5 -5.5q8 0 18 2t18 4l-8 -53q-22 -10 -51 -10q-50 0 -69.5 15.5t-19.5 40.5q0 24 16 46.5t38 40.5l19 13q-70 1 -110 44t-40 118q0 52 14.5 109t47 105t83.5 79.5t123 31.5q74 0 115.5 -43.5t41.5 -119.5z" />
    <glyph glyph-name="uni01EC" unicode="&#x1ec;" 
d="M232 -167q-49 0 -68.5 15.5t-19.5 40.5q0 24 16 46.5t37 40.5q5 3 8 6.5t8 5.5q-63 8 -100 55.5t-37 140.5q0 37 7 84.5t22 97.5t38.5 98t56.5 85.5t76.5 60.5t97.5 23q73 0 118 -47.5t45 -149.5q0 -31 -5 -70t-15.5 -81.5t-27 -85t-40 -80t-54 -67.5t-68.5 -47
q-12 -5 -30 -15t-34.5 -23t-28.5 -27.5t-12 -29.5q0 -9 7.5 -14.5t25.5 -5.5q9 0 18.5 2t17.5 4l-7 -53q-22 -10 -52 -10zM364 562q-49 0 -87 -36.5t-64.5 -92t-40 -121t-13.5 -122.5q0 -71 24 -101.5t66 -30.5q49 0 87 36.5t64.5 92t40 121t13.5 122.5q0 70 -23.5 101
t-66.5 31zM286 774h250l-15 -64h-250z" />
    <glyph glyph-name="uni01ED" unicode="&#x1ed;" 
d="M251 63q40 0 72 22.5t54 57.5t33.5 78.5t11.5 84.5q0 45 -20 70.5t-68 25.5q-40 0 -72 -22.5t-54 -58t-33.5 -79t-11.5 -84.5q0 -45 20 -70t68 -25zM505 313q0 -43 -9.5 -87.5t-29.5 -85t-50 -74t-70 -53.5q-19 -10 -37 -22t-34 -26q-9 -8 -24 -22.5t-15 -32.5
q0 -9 7.5 -14.5t25.5 -5.5q8 0 18 2t18 4l-8 -53q-22 -10 -51 -10q-50 0 -69.5 15.5t-19.5 40.5q0 24 16 46.5t38 40.5l19 13q-70 1 -110 44t-40 118q0 52 14.5 109t47 105t83.5 79.5t123 31.5q74 0 115.5 -43.5t41.5 -119.5zM268 635h250l-15 -64h-250z" />
    <glyph glyph-name="uni01EE" unicode="&#x1ee;" 
d="M238 349q28 25 58 52.5t58 54.5t53 51t44 42h-269l16 70h374l-12 -49q-18 -20 -44 -46t-56.5 -55t-63 -58.5t-63.5 -56.5q79 -12 114.5 -47.5t35.5 -95.5q0 -59 -23 -101.5t-61 -69.5t-88 -40t-105 -13q-47 0 -88.5 9.5t-81.5 31.5l39 64q17 -11 49.5 -22.5t84.5 -11.5
q92 0 141.5 34.5t49.5 105.5q0 54 -35.5 79t-121.5 25h-17zM401 752l100 74l30 -40l-145 -125l-95 133l40 36z" />
    <glyph glyph-name="uni01EF" unicode="&#x1ef;" 
d="M491 409q-17 -21 -41 -47t-51.5 -53.5t-56.5 -55.5t-57 -52q65 -10 103.5 -47t38.5 -100q0 -106 -65.5 -162.5t-186.5 -56.5q-51 0 -89 10.5t-54 21.5l28 66q18 -10 47 -18.5t77 -8.5q31 0 60 7.5t51.5 24t36.5 43.5t14 66q0 31 -12 50.5t-32.5 30t-48 14.5t-58.5 4h-12
l13 54q25 22 53 48.5t54.5 52.5t50.5 50.5t42 43.5h-238l16 69h331zM373 613l100 74l30 -40l-145 -125l-95 133l40 36z" />
    <glyph glyph-name="uni01F0" unicode="&#x1f0;" 
d="M191 395l16 69h270l-110 -458q-23 -96 -77 -135t-136 -39q-75 0 -133 36l32 69q10 -8 23.5 -14t28.5 -10.5t30 -7t28 -2.5q52 0 80 23t42 82l94 387h-188zM409 613l100 74l30 -40l-145 -125l-95 133l40 36z" />
    <glyph glyph-name="uni01F1" unicode="&#x1f1;" 
d="M247 625q60 0 87 -43t27 -114q0 -27 -5.5 -73t-18.5 -98.5t-33.5 -106t-50.5 -97t-69.5 -71t-89.5 -27.5q-17 0 -36.5 2t-36.5 7l146 611q24 6 43 8t37 2zM106 67q5 -1 9 -1h9q21 0 41.5 21t38.5 55t34 77.5t27 88.5t17.5 87t6.5 74q0 16 -1.5 33t-8.5 30t-20 20t-35 3z
M604 555q-23 -44 -54 -104.5t-63.5 -126.5t-64 -132.5t-56.5 -121.5h122l-17 -70h-194l13 54q34 73 62.5 134t56.5 118.5t57 116t64 126.5h-99l17 70h172z" />
    <glyph glyph-name="uni01F2" unicode="&#x1f2;" 
d="M245 625q30 0 51 -11.5t35 -32t20.5 -49.5t6.5 -64q0 -27 -5.5 -73t-18.5 -98.5t-33.5 -106t-50 -97t-69 -71t-90.5 -27.5q-17 0 -36.5 2t-36.5 7l146 611q24 6 43.5 8t37.5 2zM104 67q5 -1 8.5 -1h8.5q21 0 41.5 21t39 55t34 77.5t27 88.5t18 87t6.5 74q0 15 -1.5 30.5
t-7 28t-15.5 20.5t-28 8h-6.5t-7.5 -1zM575 400q-30 -51 -54 -91t-45 -77t-41.5 -75.5t-44.5 -86.5h113l-17 -70h-185l13 54q33 66 57 111t45 82t41 71t45 77h-99l17 69h171z" />
    <glyph glyph-name="uni01F3" unicode="&#x1f3;" 
d="M574 400q-30 -51 -54 -91t-45 -77t-41.5 -75.5t-44.5 -86.5h113l-17 -70h-185l13 54q33 66 57 111t45 82t41 71t45 77h-99l17 69h171zM245 8q-38 -13 -68 -16.5t-49 -3.5q-28 0 -48 11.5t-33 30.5t-19.5 44t-6.5 53q0 61 15 123t42.5 112t67.5 81.5t91 31.5q11 0 22 -2
t23 -5l51 211l77 14zM268 406q-17 10 -34 10q-28 0 -53 -27t-44 -70.5t-30 -98.5t-11 -111q0 -27 12.5 -44t35.5 -17q17 0 40 10z" />
    <glyph glyph-name="uni01F4" unicode="&#x1f4;" 
d="M265 -13q-42 0 -76.5 15t-58.5 43t-37 68t-13 89q0 79 23 156.5t66.5 138.5t105.5 98.5t140 37.5q31 0 54 -4.5t40 -11.5t29 -15t20 -15l-39 -66q-17 15 -45 27.5t-65 12.5q-58 0 -103.5 -30t-77 -79t-48.5 -111t-17 -126q0 -72 32 -114t93 -42q25 0 43.5 3.5t29.5 7.5
l56 234h82l-69 -290q-8 -3 -24.5 -7.5t-38.5 -9t-48.5 -7.5t-53.5 -3zM509 765l-151 -114l-35 44l141 135z" />
    <glyph glyph-name="uni01F5" unicode="&#x1f5;" 
d="M179 -98q74 0 114.5 32.5t53.5 96.5l4 17q-18 -10 -50.5 -19.5t-64.5 -9.5q-73 0 -111.5 36t-38.5 101q0 60 19.5 117t59.5 102t100 72t140 27q12 0 29 -1t34.5 -3.5t34 -7t28.5 -11.5l-103 -411q-12 -48 -29 -86.5t-46.5 -65.5t-75.5 -41.5t-116 -14.5q-38 0 -76 10
t-64 26l32 69q20 -15 54 -25t72 -10zM254 87q18 0 35 4t32.5 10t28 12.5t20.5 12.5l65 274q-9 2 -22.5 3.5t-24.5 1.5q-48 0 -88.5 -20t-70 -53t-45.5 -75t-16 -85q0 -48 21 -66.5t65 -18.5zM509 626l-151 -114l-35 44l141 135z" />
    <glyph glyph-name="uni01F6" unicode="&#x1f6;" 
d="M346 619h78l-107 -449q-8 -34 -10.5 -56t-0.5 -35t9.5 -18t19.5 -5t22 5.5t20 21t19 43t20 70.5l64 268h79l-70 -291q-11 -47 -24.5 -81.5t-33 -58t-46 -35t-63.5 -11.5q-38 0 -59 14.5t-28.5 43t-3 71t17.5 97.5l18 75h-102l-69 -288h-78l147 619h79l-63 -261h102z" />
    <glyph glyph-name="uni01F7" unicode="&#x1f7;" 
d="M99 -165h-81l179 749q13 7 32 14.5t41.5 13.5t46 9.5t44.5 3.5q88 0 136.5 -40t48.5 -122q0 -91 -32 -165t-87.5 -131.5t-130 -99.5t-158.5 -69zM157 77q53 19 107.5 53t98.5 82t72 108.5t28 134.5q0 51 -28 75.5t-80 24.5q-32 0 -53 -6t-32 -11z" />
    <glyph glyph-name="uni01F8" unicode="&#x1f8;" 
d="M349 0q-14 83 -27 151t-27.5 128t-29.5 114t-31 110l-119 -503h-75l149 619h81q23 -75 39.5 -132t30 -110.5t25 -110.5t24.5 -132l115 485h75l-149 -619h-81zM339 830l114 -143l-44 -39l-130 131z" />
    <glyph glyph-name="uni01F9" unicode="&#x1f9;" 
d="M145 0h-82l107 447q41 12 88 19.5t85 7.5q40 0 69 -11t47 -30.5t26.5 -46.5t8.5 -59q0 -21 -4 -43.5t-10 -45.5l-57 -238h-82l53 220q6 25 12 50.5t6 49.5q0 35 -20 58.5t-73 23.5q-23 0 -44.5 -2.5t-35.5 -7.5zM321 691l114 -143l-44 -39l-130 131z" />
    <glyph glyph-name="Aringacute" unicode="&#x1fa;" 
d="M388 0v162h-237l-77 -162h-82q32 64 70 134t79.5 143t85 146.5t86.5 144.5q-17 22 -17 53q0 38 24 60t59 22q33 0 58 -22t25 -60q0 -23 -9 -40t-25 -27q8 -70 15.5 -142t13.5 -143t10 -139.5t6 -129.5h-85zM359 527q-38 -61 -81 -133t-92 -164h200q-5 92 -11.5 162
t-15.5 135zM487 767l-144 -44l-15 44l140 63zM422 621q0 21 -12.5 32.5t-30.5 11.5t-30.5 -11.5t-12.5 -32.5t12.5 -33t30.5 -12t30.5 12t12.5 33z" />
    <glyph glyph-name="aringacute" unicode="&#x1fb;" 
d="M376 -5q-5 10 -9 21.5t-6 25.5q-20 -18 -55.5 -35.5t-83.5 -17.5q-78 0 -114.5 47t-36.5 119q0 60 20 117t60.5 102t101.5 72.5t142 27.5q12 0 27.5 -1t31.5 -4t31.5 -7.5t27.5 -10.5l-68 -280q-5 -21 -8.5 -39.5t-3.5 -39.5t4 -41.5t12 -45.5zM239 57q38 0 67.5 16
t49.5 38q1 15 3.5 34t6.5 36l55 219q-5 2 -19 3.5t-22 1.5q-51 0 -92.5 -20t-71.5 -53.5t-46 -77t-16 -90.5q0 -23 4 -42.5t13.5 -33.5t26 -22.5t41.5 -8.5zM480 596q0 -38 -25.5 -60.5t-57.5 -22.5q-35 0 -59 22.5t-24 60.5t24 60t59 22q32 0 57.5 -22t25.5 -60zM440 596
q0 20 -12.5 31.5t-30.5 11.5t-30.5 -11.5t-12.5 -31.5q0 -21 12.5 -33t30.5 -12t30.5 12t12.5 33zM507 750l-143 -54l-16 43l141 74z" />
    <glyph glyph-name="AEacute" unicode="&#x1fc;" 
d="M245 0l40 162h-121l-76 -162h-80q85 174 168 326.5t172 292.5h253l-17 -70h-128l-45 -190h104l-17 -70h-104l-53 -219h141l-17 -70h-220zM382 566q-50 -88 -97.5 -175t-85.5 -161h102zM585 765l-151 -114l-35 44l141 135z" />
    <glyph glyph-name="aeacute" unicode="&#x1fd;" 
d="M266 79q-11 -21 -26.5 -38t-33.5 -28.5t-37 -17.5t-37 -6q-35 0 -60.5 25t-25.5 79q0 31 13 63.5t39.5 60.5t67.5 46.5t97 20.5q1 7 1 13v14q0 47 -18 69.5t-49 22.5t-72 -23l5 69q22 14 44 20t43 6q18 0 36 -5t34 -15.5t27.5 -27.5t15.5 -42q21 43 57.5 66.5t71.5 23.5
t60.5 -25t25.5 -79q0 -31 -12.5 -63.5t-39.5 -60t-68 -46t-98 -21.5v-26q0 -48 18 -70t49 -22t72 23l-5 -70q-22 -14 -44 -20t-43 -6q-18 0 -35 5t-32 15.5t-26 27.5t-15 42zM156 59q12 0 26.5 10t28.5 29.5t26 48.5t19 68q-37 -2 -62 -12t-40.5 -25t-22 -33t-6.5 -34
q0 -26 8.5 -39t22.5 -13zM435 405q-12 0 -26.5 -10t-28.5 -29.5t-26 -48.5t-19 -68q37 1 62 11.5t40.5 26t22 33t6.5 34.5q0 26 -8.5 38.5t-22.5 12.5zM491 626l-151 -114l-35 44l141 135z" />
    <glyph glyph-name="Oslashacute" unicode="&#x1fe;" 
d="M370 633q62 0 102 -34l38 52l51 -37l-49 -67q20 -45 20 -111q0 -37 -7 -84.5t-22 -97.5t-38.5 -98t-56.5 -85.5t-76 -60.5t-97 -23q-64 0 -105 34l-39 -54l-50 36l51 70q-10 22 -15.5 49.5t-5.5 61.5q0 37 7 84.5t22 97.5t39 98t57 85.5t76.5 60.5t97.5 23zM453 430
q0 8 -0.5 16.5t-1.5 16.5l-274 -377q24 -28 68 -28q49 0 87.5 36.5t65.5 92t41 121t14 122.5zM360 562q-49 0 -87.5 -36.5t-65.5 -92t-41 -121t-14 -122.5v-16.5t1 -16.5l273 378q-24 27 -66 27zM465 765l-151 -114l-35 44l141 135z" />
    <glyph glyph-name="oslashacute" unicode="&#x1ff;" 
d="M556 457l-66 -67q7 -16 11 -35t4 -42q0 -52 -14.5 -109t-47 -105t-83.5 -79t-123 -31q-69 0 -109 37l-57 -58l-42 39l66 66q-15 34 -15 78q0 52 14.5 109t47 105t83.5 79t123 31q68 0 108 -37l57 58zM159 158v-9.5t1 -9.5l240 242q-21 21 -66 21q-40 0 -72.5 -22.5
t-55 -58t-35 -79t-12.5 -84.5zM251 63q40 0 72.5 22.5t55 57.5t35 78.5t12.5 84.5q0 5 -0.5 9.5t-0.5 9.5l-241 -243q24 -19 67 -19zM465 626l-151 -114l-35 44l141 135z" />
    <glyph glyph-name="uni0200" unicode="&#x200;" 
d="M383 0l1 162h-238l-76 -162h-83q33 66 73 143t83.5 158t90 162.5t93.5 155.5h98q11 -74 18.5 -155.5t12.5 -162.5t8 -158t5 -143h-86zM357 547q-38 -63 -84 -146t-92 -171h200q-2 90 -9 173.5t-15 143.5zM281 830l88 -150l-43 -29l-108 134zM430 829l84 -150l-39 -28
l-107 132z" />
    <glyph glyph-name="uni0201" unicode="&#x201;" 
d="M376 -5q-5 10 -9 21.5t-6 25.5q-20 -18 -55.5 -35.5t-83.5 -17.5q-78 0 -114.5 47t-36.5 119q0 60 20 117t60.5 102t101.5 72.5t142 27.5q12 0 27.5 -1t31.5 -4t31.5 -7.5t27.5 -10.5l-68 -280q-5 -21 -8.5 -39.5t-3.5 -39.5t4 -41.5t12 -45.5zM239 57q38 0 67.5 16
t49.5 38q1 15 3.5 34t6.5 36l55 219q-5 2 -19 3.5t-22 1.5q-51 0 -92.5 -20t-71.5 -53.5t-46 -77t-16 -90.5q0 -23 4 -42.5t13.5 -33.5t26 -22.5t41.5 -8.5zM263 687l88 -150l-43 -29l-108 134zM412 686l84 -150l-39 -28l-107 132z" />
    <glyph glyph-name="uni0202" unicode="&#x202;" 
d="M383 0l1 162h-238l-76 -162h-83q33 66 73 143t83.5 158t90 162.5t93.5 155.5h98q11 -74 18.5 -155.5t12.5 -162.5t8 -158t5 -143h-86zM357 547q-38 -63 -84 -146t-92 -171h200q-2 90 -9 173.5t-15 143.5zM406 812q27 0 46.5 -8t31.5 -21.5t18 -31t6 -36.5q0 -14 -3 -27
h-52q1 2 1 10q0 26 -14 41t-41 15q-19 0 -32.5 -6.5t-22 -16.5t-13.5 -21.5t-8 -21.5h-55q8 59 44.5 91.5t93.5 32.5z" />
    <glyph glyph-name="uni0203" unicode="&#x203;" 
d="M376 -5q-5 10 -9 21.5t-6 25.5q-20 -18 -55.5 -35.5t-83.5 -17.5q-78 0 -114.5 47t-36.5 119q0 60 20 117t60.5 102t101.5 72.5t142 27.5q12 0 27.5 -1t31.5 -4t31.5 -7.5t27.5 -10.5l-68 -280q-5 -21 -8.5 -39.5t-3.5 -39.5t4 -41.5t12 -45.5zM239 57q38 0 67.5 16
t49.5 38q1 15 3.5 34t6.5 36l55 219q-5 2 -19 3.5t-22 1.5q-51 0 -92.5 -20t-71.5 -53.5t-46 -77t-16 -90.5q0 -23 4 -42.5t13.5 -33.5t26 -22.5t41.5 -8.5zM393 669q27 0 46.5 -8t31.5 -21.5t18 -31t6 -36.5q0 -14 -3 -27h-52q1 2 1 10q0 26 -14 41t-41 15
q-19 0 -32.5 -6.5t-22 -16.5t-13.5 -21.5t-8 -21.5h-55q8 59 44.5 91.5t93.5 32.5z" />
    <glyph glyph-name="uni0204" unicode="&#x204;" 
d="M71 0l150 619h346l-17 -70h-264l-46 -190h232l-17 -70h-232l-52 -219h286l-17 -70h-369zM299 830l88 -150l-43 -29l-108 134zM448 829l84 -150l-39 -28l-107 132z" />
    <glyph glyph-name="uni0205" unicode="&#x205;" 
d="M162 244q60 1 108 5.5t81.5 16.5t51.5 33.5t18 54.5q0 8 -3.5 17t-12 17t-23.5 13t-37 5q-34 0 -63.5 -13.5t-53.5 -36t-40.5 -51.5t-25.5 -61zM263 -12q-49 0 -85 14.5t-60 38.5t-35.5 55.5t-11.5 65.5q0 63 19.5 120t56.5 99.5t89.5 68t118.5 25.5q39 0 67 -9.5t46 -25
t26.5 -36.5t8.5 -44q0 -63 -32 -98t-83 -52.5t-113.5 -22.5t-122.5 -7q-6 -63 33 -91.5t103 -28.5q21 0 43.5 3.5t42 8t34.5 10t21 9.5l7 -70q-19 -10 -62 -21.5t-111 -11.5zM263 687l88 -150l-43 -29l-108 134zM412 686l84 -150l-39 -28l-107 132z" />
    <glyph glyph-name="uni0206" unicode="&#x206;" 
d="M71 0l150 619h346l-17 -70h-264l-46 -190h232l-17 -70h-232l-52 -219h286l-17 -70h-369zM429 812q27 0 46.5 -8t31.5 -21.5t18 -31t6 -36.5q0 -14 -3 -27h-52q1 2 1 10q0 26 -14 41t-41 15q-19 0 -32.5 -6.5t-22 -16.5t-13.5 -21.5t-8 -21.5h-55q8 59 44.5 91.5
t93.5 32.5z" />
    <glyph glyph-name="uni0207" unicode="&#x207;" 
d="M162 244q60 1 108 5.5t81.5 16.5t51.5 33.5t18 54.5q0 8 -3.5 17t-12 17t-23.5 13t-37 5q-34 0 -63.5 -13.5t-53.5 -36t-40.5 -51.5t-25.5 -61zM263 -12q-49 0 -85 14.5t-60 38.5t-35.5 55.5t-11.5 65.5q0 63 19.5 120t56.5 99.5t89.5 68t118.5 25.5q39 0 67 -9.5t46 -25
t26.5 -36.5t8.5 -44q0 -63 -32 -98t-83 -52.5t-113.5 -22.5t-122.5 -7q-6 -63 33 -91.5t103 -28.5q21 0 43.5 3.5t42 8t34.5 10t21 9.5l7 -70q-19 -10 -62 -21.5t-111 -11.5zM385 669q27 0 46.5 -8t31.5 -21.5t18 -31t6 -36.5q0 -14 -3 -27h-52q1 2 1 10q0 26 -14 41t-41 15
q-19 0 -32.5 -6.5t-22 -16.5t-13.5 -21.5t-8 -21.5h-55q8 59 44.5 91.5t93.5 32.5z" />
    <glyph glyph-name="uni0208" unicode="&#x208;" 
d="M405 549l-116 -479h120l-17 -70h-321l17 70h119l115 479h-119l17 70h321l-17 -70h-119zM281 830l88 -150l-43 -29l-108 134zM430 829l84 -150l-39 -28l-107 132z" />
    <glyph glyph-name="uni0209" unicode="&#x209;" 
d="M305 205q-5 -20 -8.5 -38t-3.5 -35q0 -28 14.5 -46.5t55.5 -18.5q17 0 33 2.5t30 6.5l-5 -70q-7 -2 -25.5 -5.5t-52.5 -3.5q-37 0 -62.5 10t-41 27t-22 40t-6.5 50q0 21 3.5 43t8.5 45l45 183h-134l16 69h216zM228 687l88 -150l-43 -29l-108 134zM377 686l84 -150
l-39 -28l-107 132z" />
    <glyph glyph-name="uni020A" unicode="&#x20a;" 
d="M405 549l-116 -479h120l-17 -70h-321l17 70h119l115 479h-119l17 70h321l-17 -70h-119zM411 812q27 0 46.5 -8t31.5 -21.5t18 -31t6 -36.5q0 -14 -3 -27h-52q1 2 1 10q0 26 -14 41t-41 15q-19 0 -32.5 -6.5t-22 -16.5t-13.5 -21.5t-8 -21.5h-55q8 59 44.5 91.5t93.5 32.5
z" />
    <glyph glyph-name="uni020B" unicode="&#x20b;" 
d="M305 205q-5 -20 -8.5 -38t-3.5 -35q0 -28 14.5 -46.5t55.5 -18.5q17 0 33 2.5t30 6.5l-5 -70q-7 -2 -25.5 -5.5t-52.5 -3.5q-37 0 -62.5 10t-41 27t-22 40t-6.5 50q0 21 3.5 43t8.5 45l45 183h-134l16 69h216zM349 669q27 0 46.5 -8t31.5 -21.5t18 -31t6 -36.5
q0 -14 -3 -27h-52q1 2 1 10q0 26 -14 41t-41 15q-19 0 -32.5 -6.5t-22 -16.5t-13.5 -21.5t-8 -21.5h-55q8 59 44.5 91.5t93.5 32.5z" />
    <glyph glyph-name="uni020C" unicode="&#x20c;" 
d="M369 562q-49 0 -87.5 -36.5t-64.5 -92t-40 -121t-14 -122.5q0 -71 24 -101.5t67 -30.5q49 0 87 36.5t64 92t39.5 121t13.5 122.5q0 70 -23.5 101t-65.5 31zM379 633q72 0 117 -47.5t45 -149.5q0 -37 -7 -84.5t-22 -97.5t-38.5 -98t-56.5 -85.5t-76 -60.5t-97 -23
q-73 0 -118.5 47.5t-45.5 149.5q0 37 7 84.5t22 97.5t39 98t57 85.5t76.5 60.5t97.5 23zM290 830l88 -150l-43 -29l-108 134zM439 829l84 -150l-39 -28l-107 132z" />
    <glyph glyph-name="uni020D" unicode="&#x20d;" 
d="M237 -11q-74 0 -115.5 43t-41.5 119q0 52 14.5 109t47 105t83.5 79t123 31q74 0 115.5 -43t41.5 -119q0 -52 -14.5 -109t-47 -105t-83.5 -79t-123 -31zM251 63q40 0 72 22.5t54 57.5t33.5 78.5t11.5 84.5q0 45 -20 70.5t-68 25.5q-40 0 -72 -22.5t-54 -58t-33.5 -79
t-11.5 -84.5q0 -45 20 -70t68 -25zM255 687l88 -150l-43 -29l-108 134zM404 686l84 -150l-39 -28l-107 132z" />
    <glyph glyph-name="uni020E" unicode="&#x20e;" 
d="M369 562q-49 0 -87.5 -36.5t-64.5 -92t-40 -121t-14 -122.5q0 -71 24 -101.5t67 -30.5q49 0 87 36.5t64 92t39.5 121t13.5 122.5q0 70 -23.5 101t-65.5 31zM379 633q72 0 117 -47.5t45 -149.5q0 -37 -7 -84.5t-22 -97.5t-38.5 -98t-56.5 -85.5t-76 -60.5t-97 -23
q-73 0 -118.5 47.5t-45.5 149.5q0 37 7 84.5t22 97.5t39 98t57 85.5t76.5 60.5t97.5 23zM420 812q27 0 46.5 -8t31.5 -21.5t18 -31t6 -36.5q0 -14 -3 -27h-52q1 2 1 10q0 26 -14 41t-41 15q-19 0 -32.5 -6.5t-22 -16.5t-13.5 -21.5t-8 -21.5h-55q8 59 44.5 91.5t93.5 32.5z
" />
    <glyph glyph-name="uni020F" unicode="&#x20f;" 
d="M237 -11q-74 0 -115.5 43t-41.5 119q0 52 14.5 109t47 105t83.5 79t123 31q74 0 115.5 -43t41.5 -119q0 -52 -14.5 -109t-47 -105t-83.5 -79t-123 -31zM251 63q40 0 72 22.5t54 57.5t33.5 78.5t11.5 84.5q0 45 -20 70.5t-68 25.5q-40 0 -72 -22.5t-54 -58t-33.5 -79
t-11.5 -84.5q0 -45 20 -70t68 -25zM385 669q27 0 46.5 -8t31.5 -21.5t18 -31t6 -36.5q0 -14 -3 -27h-52q1 2 1 10q0 26 -14 41t-41 15q-19 0 -32.5 -6.5t-22 -16.5t-13.5 -21.5t-8 -21.5h-55q8 59 44.5 91.5t93.5 32.5z" />
    <glyph glyph-name="uni0210" unicode="&#x210;" 
d="M528 477q0 -85 -45 -140t-119 -78q13 -27 24.5 -52t21.5 -54.5t20 -66.5t21 -86h-84q-11 53 -21.5 90.5t-20.5 65t-20 48t-20 40.5h-100l-59 -244h-81l145 610q16 4 35.5 7t39.5 4.5t39.5 2.5t35.5 1q98 0 143 -40.5t45 -107.5zM334 555q-23 0 -44.5 -1t-31.5 -3
l-57 -239h50q40 0 75.5 6.5t62 24t42 47t15.5 74.5q0 48 -31 69.5t-81 21.5zM263 830l88 -150l-43 -29l-108 134zM412 829l84 -150l-39 -28l-107 132z" />
    <glyph glyph-name="uni0211" unicode="&#x211;" 
d="M89 0l106 440q106 34 213 34q31 0 55 -2.5t59 -9.5l-31 -73q-15 4 -27.5 6.5t-23.5 4t-22.5 2t-26.5 0.5q-31 0 -63.5 -4t-64.5 -12l-92 -386h-82zM263 687l88 -150l-43 -29l-108 134zM412 686l84 -150l-39 -28l-107 132z" />
    <glyph glyph-name="uni0212" unicode="&#x212;" 
d="M528 477q0 -85 -45 -140t-119 -78q13 -27 24.5 -52t21.5 -54.5t20 -66.5t21 -86h-84q-11 53 -21.5 90.5t-20.5 65t-20 48t-20 40.5h-100l-59 -244h-81l145 610q16 4 35.5 7t39.5 4.5t39.5 2.5t35.5 1q98 0 143 -40.5t45 -107.5zM334 555q-23 0 -44.5 -1t-31.5 -3
l-57 -239h50q40 0 75.5 6.5t62 24t42 47t15.5 74.5q0 48 -31 69.5t-81 21.5zM411 812q27 0 46.5 -8t31.5 -21.5t18 -31t6 -36.5q0 -14 -3 -27h-52q1 2 1 10q0 26 -14 41t-41 15q-19 0 -32.5 -6.5t-22 -16.5t-13.5 -21.5t-8 -21.5h-55q8 59 44.5 91.5t93.5 32.5z" />
    <glyph glyph-name="uni0213" unicode="&#x213;" 
d="M89 0l106 440q106 34 213 34q31 0 55 -2.5t59 -9.5l-31 -73q-15 4 -27.5 6.5t-23.5 4t-22.5 2t-26.5 0.5q-31 0 -63.5 -4t-64.5 -12l-92 -386h-82zM393 669q27 0 46.5 -8t31.5 -21.5t18 -31t6 -36.5q0 -14 -3 -27h-52q1 2 1 10q0 26 -14 41t-41 15q-19 0 -32.5 -6.5
t-22 -16.5t-13.5 -21.5t-8 -21.5h-55q8 59 44.5 91.5t93.5 32.5z" />
    <glyph glyph-name="uni0214" unicode="&#x214;" 
d="M237 -13q-41 0 -70 14t-48.5 37.5t-28.5 54.5t-9 65q0 30 8 64l95 397h82l-95 -396q-8 -34 -8 -63q0 -21 4.5 -39.5t14.5 -32.5t26.5 -22t40.5 -8q27 0 49 6.5t40 23.5t32 47t26 77l98 407h82l-100 -417q-12 -51 -29.5 -91t-45 -67.5t-67.5 -42t-97 -14.5zM281 830
l88 -150l-43 -29l-108 134zM430 829l84 -150l-39 -28l-107 132z" />
    <glyph glyph-name="uni0215" unicode="&#x215;" 
d="M222 -10q-39 0 -65 11.5t-42.5 31t-23.5 46t-7 56.5q0 23 4 46t9 46l57 237h83l-53 -219q-5 -21 -11.5 -48.5t-6.5 -55.5q0 -16 3 -30.5t11 -26t22 -18t36 -6.5q38 0 68 16.5t49 38.5q1 14 2.5 29.5t6.5 33.5l69 286h82l-70 -293q-5 -21 -8 -40t-3 -40t3.5 -41t12.5 -45
l-73 -10q-5 10 -9.5 22.5t-6.5 26.5q-20 -18 -54 -36t-85 -18zM255 687l88 -150l-43 -29l-108 134zM404 686l84 -150l-39 -28l-107 132z" />
    <glyph glyph-name="uni0216" unicode="&#x216;" 
d="M237 -13q-41 0 -70 14t-48.5 37.5t-28.5 54.5t-9 65q0 30 8 64l95 397h82l-95 -396q-8 -34 -8 -63q0 -21 4.5 -39.5t14.5 -32.5t26.5 -22t40.5 -8q27 0 49 6.5t40 23.5t32 47t26 77l98 407h82l-100 -417q-12 -51 -29.5 -91t-45 -67.5t-67.5 -42t-97 -14.5zM411 812
q27 0 46.5 -8t31.5 -21.5t18 -31t6 -36.5q0 -14 -3 -27h-52q1 2 1 10q0 26 -14 41t-41 15q-19 0 -32.5 -6.5t-22 -16.5t-13.5 -21.5t-8 -21.5h-55q8 59 44.5 91.5t93.5 32.5z" />
    <glyph glyph-name="uni0217" unicode="&#x217;" 
d="M222 -10q-39 0 -65 11.5t-42.5 31t-23.5 46t-7 56.5q0 23 4 46t9 46l57 237h83l-53 -219q-5 -21 -11.5 -48.5t-6.5 -55.5q0 -16 3 -30.5t11 -26t22 -18t36 -6.5q38 0 68 16.5t49 38.5q1 14 2.5 29.5t6.5 33.5l69 286h82l-70 -293q-5 -21 -8 -40t-3 -40t3.5 -41t12.5 -45
l-73 -10q-5 10 -9.5 22.5t-6.5 26.5q-20 -18 -54 -36t-85 -18zM384 669q27 0 46.5 -8t31.5 -21.5t18 -31t6 -36.5q0 -14 -3 -27h-52q1 2 1 10q0 26 -14 41t-41 15q-19 0 -32.5 -6.5t-22 -16.5t-13.5 -21.5t-8 -21.5h-55q8 59 44.5 91.5t93.5 32.5z" />
    <glyph glyph-name="Scommaaccent" unicode="&#x218;" 
d="M238 59q27 0 53.5 6t47.5 19.5t33.5 36t12.5 55.5q0 22 -8.5 38.5t-23 30t-34 25t-42.5 23.5q-21 11 -41 24t-35 30.5t-24.5 42t-9.5 59.5q0 81 56.5 132.5t171.5 51.5q25 0 49 -4t43.5 -10t34.5 -12.5t23 -11.5l-39 -66q-15 13 -48 22.5t-78 9.5q-28 0 -51.5 -6
t-41 -18.5t-27.5 -32.5t-10 -47q0 -23 7 -39t19 -28t29.5 -22t38.5 -21q26 -14 49 -27.5t39.5 -32t26 -43.5t9.5 -60q0 -49 -17.5 -86t-49 -61.5t-75.5 -37t-98 -12.5q-69 0 -113 16t-61 28l38 68q17 -11 53 -25.5t93 -14.5zM174 -45h80q-1 -5 -1.5 -10.5t-1.5 -9.5
q-14 -57 -50.5 -81t-82.5 -24q-19 0 -40 6l11 48h15q33 0 46 14.5t20 43.5z" />
    <glyph glyph-name="scommaaccent" unicode="&#x219;" 
d="M242 58q22 0 43.5 3.5t38.5 11.5t27.5 22t10.5 34q0 28 -23.5 44t-65.5 36q-20 10 -39 20t-33.5 23t-23.5 31.5t-9 44.5q0 67 52 107t147 40q47 0 81.5 -8t51.5 -17l-31 -70q-15 9 -45.5 17t-68.5 8q-20 0 -39.5 -3.5t-34.5 -11.5t-24 -21t-9 -33q0 -24 24.5 -40.5
t61.5 -32.5q23 -9 43 -20t34.5 -25.5t22.5 -33.5t8 -45q0 -38 -15 -66.5t-42 -47t-64.5 -28t-82.5 -9.5q-57 0 -98.5 13t-60.5 24l33 70q16 -11 50 -24t80 -13zM192 -45h80q-1 -5 -1.5 -10.5t-1.5 -9.5q-14 -57 -50.5 -81t-82.5 -24q-19 0 -40 6l11 48h15q33 0 46 14.5
t20 43.5z" />
    <glyph glyph-name="uni021A" unicode="&#x21a;" 
d="M589 619l-17 -70h-169l-132 -549h-83l133 549h-169l17 70h420zM178 -45h80q-1 -5 -1.5 -10.5t-1.5 -9.5q-14 -57 -50.5 -81t-82.5 -24q-19 0 -40 6l11 48h15q33 0 46 14.5t20 43.5z" />
    <glyph glyph-name="uni021B" unicode="&#x21b;" 
d="M439 13q-29 -10 -60.5 -17t-66.5 -7q-29 0 -53.5 6t-43 19.5t-29 36.5t-10.5 58q0 22 3.5 46t9.5 49l47 191h-98l16 69h99l31 130l86 14l-35 -144h178l-16 -69h-179l-47 -199q-5 -19 -9 -37t-4 -35q0 -38 17.5 -50.5t49.5 -12.5q31 0 60.5 6.5t55.5 16.5zM245 -45h80
q-1 -5 -1.5 -10.5t-1.5 -9.5q-14 -57 -50.5 -81t-82.5 -24q-19 0 -40 6l11 48h15q33 0 46 14.5t20 43.5z" />
    <glyph glyph-name="uni021C" unicode="&#x21c;" 
d="M49 -94q68 0 129 11.5t106.5 36.5t72 65t26.5 97q0 33 -16 55t-42.5 35.5t-60 19t-68.5 5.5h-42l16 70h36q42 0 84.5 11t76.5 32.5t55.5 53t21.5 71.5q0 46 -34.5 70t-94.5 24q-52 0 -94 -12t-66 -25l-9 67q26 14 73 26.5t102 12.5q96 0 150.5 -38t54.5 -118
q0 -64 -38.5 -119.5t-119.5 -87.5q52 -21 74.5 -61t22.5 -84q0 -79 -32.5 -134t-89.5 -89.5t-133.5 -50t-164.5 -15.5q-17 0 -39 0.5t-32 2.5l21 70q9 -1 23.5 -1.5t30.5 -0.5z" />
    <glyph glyph-name="uni021D" unicode="&#x21d;" 
d="M481 344q0 -57 -35.5 -98.5t-92.5 -61.5q43 -14 64.5 -42t21.5 -69q0 -68 -37 -114t-97 -73.5t-134.5 -39t-149.5 -11.5l12 69q31 0 67 2.5t72 9t69.5 18t59 30t41 44t15.5 60.5q0 26 -16 41t-40 23t-53 10.5t-54 2.5h-26l17 69q36 0 73.5 6.5t69 21t51.5 38t20 58.5
q0 20 -9 33.5t-24 21t-33.5 10.5t-37.5 3q-24 0 -47 -3t-42.5 -7.5t-33.5 -9.5t-20 -9l-6 71q6 3 22 8t38.5 9.5t49 7.5t53.5 3q83 0 127.5 -33t44.5 -99z" />
    <glyph glyph-name="uni021E" unicode="&#x21e;" 
d="M495 619h82l-149 -619h-82l69 288h-228l-70 -288h-81l148 619h82l-62 -261h228zM400 752l100 74l30 -40l-145 -125l-95 133l40 36z" />
    <glyph glyph-name="uni021F" unicode="&#x21f;" 
d="M45 0l155 649l86 14l-50 -206q20 8 43 12.5t46 4.5q40 0 69 -11t47 -30.5t26.5 -46.5t8.5 -59q0 -21 -4 -44t-10 -47l-57 -236h-82l52 218q6 25 12.5 51.5t6.5 50.5q0 35 -20 58.5t-73 23.5q-45 0 -80 -14l-95 -388h-81zM213 794l33 36l65 -58l87 57l24 -42l-121 -88z
" />
    <glyph glyph-name="uni0220" unicode="&#x220;" 
d="M118 0h-82l145 605q45 13 97 20t94 7q45 0 77.5 -11t52.5 -30.5t29.5 -46.5t9.5 -59q0 -21 -4 -43.5t-9 -45.5l-135 -561h-82l130 543q6 25 12 51t6 49q0 35 -23.5 58.5t-87.5 23.5q-26 0 -53 -2.5t-44 -7.5z" />
    <glyph glyph-name="uni0221" unicode="&#x221;" 
d="M223 9q-31 -17 -62 -17q-49 0 -81 39t-32 117q0 63 16.5 121.5t47.5 104t76.5 73t102.5 27.5h8t12.5 -0.5l13 -1t8.5 -1.5l50 208l86 14l-151 -629q20 14 40.5 19t37.5 5q26 0 44.5 -8.5t30 -22.5t16.5 -32.5t5 -38.5q0 -31 -11 -58.5t-30.5 -48t-47.5 -32.5t-62 -12
q-96 0 -116 77l-85 -80l-37 42l115 108zM186 63q12 0 25.5 2.5t27.5 10.5l79 324q-1 1 -7 1.5t-12.5 1.5t-12.5 1.5t-7 0.5q-38 0 -66 -24t-46.5 -60t-27.5 -78.5t-9 -80.5q0 -49 13 -74t43 -25zM378 28q-23 0 -40 -10t-36 -26l-6 -22q-1 -6 -1.5 -11.5t-0.5 -10.5
q0 -23 13 -37.5t39 -14.5q17 0 31.5 6.5t25.5 18t17.5 27t6.5 33.5q0 21 -11.5 34t-37.5 13z" />
    <glyph glyph-name="uni0222" unicode="&#x222;" 
d="M538 619q-1 -35 -5 -77t-16 -82t-33.5 -73t-57.5 -49q31 -16 51.5 -43.5t20.5 -72.5q0 -44 -15 -85t-46.5 -72.5t-81.5 -50t-119 -18.5q-46 0 -79 11.5t-54.5 31.5t-31.5 45.5t-10 54.5q0 75 40 129.5t109 77.5q-20 14 -29.5 37t-9.5 51q0 38 17 87.5t38 97.5h79
q-19 -45 -35 -92.5t-16 -86.5q0 -69 71 -69q36 0 60.5 18t40 50.5t23.5 78t11 101.5h78zM307 299q-32 0 -61.5 -9.5t-52 -29t-36.5 -48.5t-14 -68q0 -38 30.5 -57.5t78.5 -19.5q35 0 65 9t52 28t34.5 47t12.5 67q0 40 -31 60.5t-78 20.5z" />
    <glyph glyph-name="uni0223" unicode="&#x223;" 
d="M541 546q-12 -51 -39.5 -93.5t-77.5 -60.5q30 -16 49.5 -48.5t19.5 -80.5q0 -52 -14.5 -101.5t-45.5 -88t-79.5 -62t-115.5 -23.5q-37 0 -67 12.5t-51 34t-32.5 51.5t-11.5 65q0 97 41 160t113 90q-21 13 -34 38.5t-13 57.5q0 51 16 102t37 94h79q-20 -44 -36.5 -92
t-16.5 -94q0 -33 16.5 -55t54.5 -22q51 0 82.5 32.5t49.5 104.5q8 32 11 63t5 63h77q-2 -41 -5 -75.5t-12 -71.5zM248 60q42 0 73 17.5t50.5 45.5t29 63.5t9.5 71.5q0 45 -22.5 73.5t-67.5 28.5q-42 0 -73 -17.5t-50.5 -45.5t-29 -63.5t-9.5 -71.5q0 -45 22.5 -73.5
t67.5 -28.5z" />
    <glyph glyph-name="uni0224" unicode="&#x224;" 
d="M556 550q-42 -44 -96.5 -104.5t-111.5 -126t-110 -130.5t-92 -119h304l-16 -70q-9 -40 -20 -71t-28.5 -52.5t-45.5 -32.5t-71 -11q-13 0 -30.5 3.5t-25.5 8.5l22 62q5 -2 14.5 -4.5t22.5 -2.5q37 0 53.5 21.5t24.5 63.5l3 15h-317l16 68q47 61 98.5 124.5t104 125.5
t105 121t100.5 110h-281l17 70h376z" />
    <glyph glyph-name="uni0225" unicode="&#x225;" 
d="M494 405q-26 -23 -70 -65.5t-91.5 -91.5t-91.5 -96.5t-70 -81.5h250l-16 -72q-10 -41 -20.5 -72t-28 -51.5t-44 -31t-67.5 -10.5q-16 0 -33.5 3.5t-24.5 8.5l21 59q5 -2 15 -4.5t23 -2.5q37 0 53.5 22t24.5 60l5 21h-271l13 54q27 39 67.5 86.5t85 95t87.5 89.5t75 70
h-221l18 69h326z" />
    <glyph glyph-name="uni0226" unicode="&#x226;" 
d="M383 0l1 162h-238l-76 -162h-83q33 66 73 143t83.5 158t90 162.5t93.5 155.5h98q11 -74 18.5 -155.5t12.5 -162.5t8 -158t5 -143h-86zM357 547q-38 -63 -84 -146t-92 -171h200q-2 90 -9 173.5t-15 143.5zM391 687q-21 0 -34.5 12.5t-13.5 35.5q0 29 17.5 45t40.5 16
q20 0 34.5 -13t14.5 -36q0 -27 -19 -43.5t-40 -16.5z" />
    <glyph glyph-name="uni0227" unicode="&#x227;" 
d="M376 -5q-5 10 -9 21.5t-6 25.5q-20 -18 -55.5 -35.5t-83.5 -17.5q-78 0 -114.5 47t-36.5 119q0 60 20 117t60.5 102t101.5 72.5t142 27.5q12 0 27.5 -1t31.5 -4t31.5 -7.5t27.5 -10.5l-68 -280q-5 -21 -8.5 -39.5t-3.5 -39.5t4 -41.5t12 -45.5zM239 57q38 0 67.5 16
t49.5 38q1 15 3.5 34t6.5 36l55 219q-5 2 -19 3.5t-22 1.5q-51 0 -92.5 -20t-71.5 -53.5t-46 -77t-16 -90.5q0 -23 4 -42.5t13.5 -33.5t26 -22.5t41.5 -8.5zM387 548q-21 0 -34.5 12.5t-13.5 35.5q0 29 17.5 45t40.5 16q20 0 34.5 -13t14.5 -36q0 -27 -19 -43.5t-40 -16.5z
" />
    <glyph glyph-name="uni0228" unicode="&#x228;" 
d="M278 -34q18 -10 26.5 -21.5t8.5 -32.5q0 -39 -27.5 -60t-75.5 -21q-26 0 -43.5 4t-28.5 10l20 49q8 -4 19 -7t28 -3q16 0 25.5 4.5t9.5 17.5q0 14 -12.5 20.5t-23.5 11.5q7 13 18.5 30.5t22.5 31.5h-191l149 619h346l-17 -70h-264l-46 -190h233l-17 -70h-233l-52 -219
h286l-17 -70h-119z" />
    <glyph glyph-name="uni0229" unicode="&#x229;" 
d="M278 -34q18 -10 26.5 -21.5t8.5 -32.5q0 -39 -27.5 -60t-75.5 -21q-26 0 -43.5 4t-28.5 10l20 49q8 -4 19 -7t28 -3q16 0 25.5 4.5t9.5 17.5q0 11 -7 16.5t-24 13.5l-5 2q6 11 15 24.5t19 26.5q-42 4 -73.5 19.5t-52.5 39t-31 53t-10 61.5q0 63 19.5 120t56.5 99.5
t89.5 68t118.5 25.5q39 0 67 -9.5t46 -25t26.5 -36.5t8.5 -44q0 -63 -32 -98t-83 -52.5t-113.5 -22.5t-122.5 -7q-6 -63 33 -91.5t103 -28.5q21 0 43.5 3.5t42 8t34.5 10t21 9.5l7 -70q-17 -8 -52.5 -18t-89.5 -14q-5 -6 -9 -12t-7 -11zM162 244q60 1 108 5.5t81.5 16.5
t51.5 33.5t18 54.5q0 8 -3.5 17t-12 17t-23.5 13t-37 5q-34 0 -63.5 -13.5t-53.5 -36t-40.5 -51.5t-25.5 -61z" />
    <glyph glyph-name="uni022A" unicode="&#x22a;" 
d="M369 542q-49 0 -87.5 -35.5t-64.5 -89.5t-40 -117.5t-14 -119.5q0 -66 24 -94t67 -28q49 0 87 35.5t64 89.5t39.5 117.5t13.5 119.5q0 65 -23.5 93.5t-65.5 28.5zM379 613q72 0 117 -45t45 -142q0 -36 -7 -82.5t-22 -95.5t-38.5 -96t-56.5 -83.5t-76 -59t-97 -22.5
q-73 0 -118.5 45t-45.5 142q0 36 7 82.5t22 95.5t39 96t57 83.5t76.5 59t97.5 22.5zM310 829h227l-13 -57h-227zM295 647q-18 0 -30.5 11.5t-12.5 30.5q0 26 16.5 41t36.5 15q18 0 31 -11.5t13 -31.5q0 -24 -17.5 -39.5t-36.5 -15.5zM476 647q-18 0 -30 11.5t-12 30.5
q0 26 16 41t36 15q18 0 31 -11.5t13 -31.5q0 -24 -17.5 -39.5t-36.5 -15.5z" />
    <glyph glyph-name="uni022B" unicode="&#x22b;" 
d="M237 -11q-74 0 -115.5 43t-41.5 119q0 52 14.5 109t47 105t83.5 79t123 31q74 0 115.5 -43t41.5 -119q0 -52 -14.5 -109t-47 -105t-83.5 -79t-123 -31zM251 63q40 0 72 22.5t54 57.5t33.5 78.5t11.5 84.5q0 45 -20 70.5t-68 25.5q-40 0 -72 -22.5t-54 -58t-33.5 -79
t-11.5 -84.5q0 -45 20 -70t68 -25zM302 716h227l-13 -57h-227zM286 524q-18 0 -30.5 11.5t-12.5 30.5q0 26 16.5 41t36.5 15q18 0 31 -11.5t13 -31.5q0 -24 -17.5 -39.5t-36.5 -15.5zM467 524q-18 0 -30 11.5t-12 30.5q0 26 16 41t36 15q18 0 31 -11.5t13 -31.5
q0 -24 -17.5 -39.5t-36.5 -15.5z" />
    <glyph glyph-name="uni022C" unicode="&#x22c;" 
d="M369 542q-49 0 -87.5 -35.5t-64.5 -89.5t-40 -117.5t-14 -119.5q0 -66 24 -94t67 -28q49 0 87 35.5t64 89.5t39.5 117.5t13.5 119.5q0 65 -23.5 93.5t-65.5 28.5zM379 613q72 0 117 -45t45 -142q0 -36 -7 -82.5t-22 -95.5t-38.5 -96t-56.5 -83.5t-76 -59t-97 -22.5
q-73 0 -118.5 45t-45.5 142q0 36 7 82.5t22 95.5t39 96t57 83.5t76.5 59t97.5 22.5zM405 722q10 -5 20.5 -10.5t21.5 -5.5q18 0 29.5 12.5t20.5 25.5l37 -24q-18 -35 -39.5 -52t-59.5 -17q-15 0 -28 5t-26 13q-10 5 -20.5 10.5t-21.5 5.5q-18 0 -29.5 -12.5t-20.5 -25.5
l-37 24q18 35 39.5 52t59.5 17q15 0 28 -5t26 -13zM313 829h227l-13 -57h-227z" />
    <glyph glyph-name="uni022D" unicode="&#x22d;" 
d="M237 -11q-74 0 -115.5 43t-41.5 119q0 52 14.5 109t47 105t83.5 79t123 31q74 0 115.5 -43t41.5 -119q0 -52 -14.5 -109t-47 -105t-83.5 -79t-123 -31zM251 63q40 0 72 22.5t54 57.5t33.5 78.5t11.5 84.5q0 45 -20 70.5t-68 25.5q-40 0 -72 -22.5t-54 -58t-33.5 -79
t-11.5 -84.5q0 -45 20 -70t68 -25zM395 599q10 -5 20.5 -10.5t21.5 -5.5q18 0 29.5 12.5t20.5 25.5l37 -24q-18 -35 -39.5 -52t-59.5 -17q-15 0 -28 5t-26 13q-10 5 -20.5 10.5t-21.5 5.5q-18 0 -29.5 -12.5t-20.5 -25.5l-37 24q18 35 39.5 52t59.5 17q15 0 28 -5t26 -13z
M303 716h227l-13 -57h-227z" />
    <glyph glyph-name="uni022E" unicode="&#x22e;" 
d="M369 562q-49 0 -87.5 -36.5t-64.5 -92t-40 -121t-14 -122.5q0 -71 24 -101.5t67 -30.5q49 0 87 36.5t64 92t39.5 121t13.5 122.5q0 70 -23.5 101t-65.5 31zM379 633q72 0 117 -47.5t45 -149.5q0 -37 -7 -84.5t-22 -97.5t-38.5 -98t-56.5 -85.5t-76 -60.5t-97 -23
q-73 0 -118.5 47.5t-45.5 149.5q0 37 7 84.5t22 97.5t39 98t57 85.5t76.5 60.5t97.5 23zM414 687q-21 0 -34.5 12.5t-13.5 35.5q0 29 17.5 45t40.5 16q20 0 34.5 -13t14.5 -36q0 -27 -19 -43.5t-40 -16.5z" />
    <glyph glyph-name="uni022F" unicode="&#x22f;" 
d="M237 -11q-74 0 -115.5 43t-41.5 119q0 52 14.5 109t47 105t83.5 79t123 31q74 0 115.5 -43t41.5 -119q0 -52 -14.5 -109t-47 -105t-83.5 -79t-123 -31zM251 63q40 0 72 22.5t54 57.5t33.5 78.5t11.5 84.5q0 45 -20 70.5t-68 25.5q-40 0 -72 -22.5t-54 -58t-33.5 -79
t-11.5 -84.5q0 -45 20 -70t68 -25zM380 548q-21 0 -34.5 12.5t-13.5 35.5q0 29 17.5 45t40.5 16q20 0 34.5 -13t14.5 -36q0 -27 -19 -43.5t-40 -16.5z" />
    <glyph glyph-name="uni0230" unicode="&#x230;" 
d="M369 542q-49 0 -87.5 -35.5t-64.5 -89.5t-40 -117.5t-14 -119.5q0 -66 24 -94t67 -28q49 0 87 35.5t64 89.5t39.5 117.5t13.5 119.5q0 65 -23.5 93.5t-65.5 28.5zM379 613q72 0 117 -45t45 -142q0 -36 -7 -82.5t-22 -95.5t-38.5 -96t-56.5 -83.5t-76 -59t-97 -22.5
q-73 0 -118.5 45t-45.5 142q0 36 7 82.5t22 95.5t39 96t57 83.5t76.5 59t97.5 22.5zM402 647q-19 0 -31.5 11.5t-12.5 31.5q0 26 16.5 41.5t37.5 15.5q18 0 31 -12t13 -32q0 -25 -17.5 -40.5t-36.5 -15.5zM324 829h227l-14 -57h-227z" />
    <glyph glyph-name="uni0231" unicode="&#x231;" 
d="M237 -11q-74 0 -115.5 43t-41.5 119q0 52 14.5 109t47 105t83.5 79t123 31q74 0 115.5 -43t41.5 -119q0 -52 -14.5 -109t-47 -105t-83.5 -79t-123 -31zM251 63q40 0 72 22.5t54 57.5t33.5 78.5t11.5 84.5q0 45 -20 70.5t-68 25.5q-40 0 -72 -22.5t-54 -58t-33.5 -79
t-11.5 -84.5q0 -45 20 -70t68 -25zM373 524q-19 0 -31.5 11.5t-12.5 31.5q0 26 16.5 41.5t37.5 15.5q18 0 31 -12t13 -32q0 -25 -17.5 -40.5t-36.5 -15.5zM297 716h227l-14 -57h-227z" />
    <glyph glyph-name="uni0232" unicode="&#x232;" 
d="M622 619q-60 -98 -133.5 -194.5t-154.5 -192.5l-56 -232h-82l55 230q-37 100 -63.5 195.5t-40.5 193.5h82q9 -81 31 -167.5t45 -158.5q30 39 61 81t60.5 84.5t56.5 83.5t50 77h89zM295 774h250l-15 -64h-250z" />
    <glyph glyph-name="uni0233" unicode="&#x233;" 
d="M283 75q34 54 61.5 111.5t48.5 110t35.5 96.5t20.5 71h87q-10 -34 -28 -84.5t-43.5 -109t-57.5 -120t-69 -116.5q-28 -42 -56.5 -79t-61 -64.5t-72 -43t-88.5 -15.5q-25 0 -46 6t-32 14l29 68q8 -8 23.5 -12.5t34.5 -4.5q52 0 87 21t69 70q-33 109 -58 228t-30 242h84
q1 -40 6 -88t13.5 -99t19.5 -103t23 -99zM250 635h250l-15 -64h-250z" />
    <glyph glyph-name="uni0234" unicode="&#x234;" 
d="M179 618l17 70h217l-150 -624q19 14 39 19t36 5q27 0 45.5 -8.5t30 -22.5t16.5 -32.5t5 -38.5q0 -31 -11 -58.5t-30.5 -48t-47.5 -32.5t-62 -12q-96 0 -116 77l-85 -80l-37 42l116 109q0 8 3.5 20.5t5.5 20.5l142 594h-134zM321 28q-23 0 -40 -10t-36 -26l-6 -22
q-1 -6 -1.5 -11.5t-0.5 -10.5q0 -23 12.5 -37.5t38.5 -14.5q17 0 32 6.5t26 18t17.5 27t6.5 33.5q0 21 -11.5 34t-37.5 13z" />
    <glyph glyph-name="uni0235" unicode="&#x235;" 
d="M320 64q20 14 40 19t36 5q27 0 45.5 -8.5t30 -22.5t16.5 -32.5t5 -38.5q0 -31 -11 -58.5t-30.5 -48t-47.5 -32.5t-62 -12q-96 0 -116 77l-85 -80l-37 42l116 109q0 8 3 20.5t5 20.5l46 196q3 12 7 28.5l8 33t6.5 32t2.5 27.5q0 35 -14 48.5t-46 13.5q-9 0 -23 -4t-19 -6
l-95 -393h-83l107 447q32 12 69.5 19.5t67.5 7.5q60 0 89 -30.5t29 -95.5q0 -10 -2 -24t-4.5 -29.5t-5.5 -30t-6 -26.5zM379 28q-23 0 -40 -10t-36 -26l-6 -22q-1 -6 -1.5 -11.5t-0.5 -10.5q0 -23 12.5 -37.5t38.5 -14.5q17 0 32 6.5t26 18t17.5 27t6.5 33.5q0 21 -11.5 34
t-37.5 13z" />
    <glyph glyph-name="uni0236" unicode="&#x236;" 
d="M142 395l18 69h98l30 130l87 14l-35 -144h189l-18 -69h-188l-78 -331q20 14 39.5 19t36.5 5q26 0 44.5 -8.5t30 -22.5t16.5 -32.5t5 -38.5q0 -31 -11 -58.5t-30.5 -48t-47.5 -32.5t-62 -12q-96 0 -116 77l-85 -80l-37 42l116 109q0 8 3 20.5t5 20.5l89 371h-99zM303 28
q-23 0 -40 -10t-36 -26l-6 -22q-1 -6 -1.5 -11.5t-0.5 -10.5q0 -23 13 -37.5t39 -14.5q17 0 31.5 6.5t25.5 18t17.5 27t6.5 33.5q0 21 -11.5 34t-37.5 13z" />
    <glyph glyph-name="dotlessj" unicode="&#x237;" 
d="M191 395l16 69h270l-110 -458q-23 -96 -77 -135t-136 -39q-75 0 -133 36l32 69q10 -8 23.5 -14t28.5 -10.5t30 -7t28 -2.5q52 0 80 23t42 82l94 387h-188z" />
    <glyph glyph-name="uni0238" unicode="&#x238;" 
d="M360 679l77 14l-56 -236q31 17 60 17q22 0 38.5 -12t28 -33t17 -49t5.5 -60q0 -54 -14.5 -112.5t-42.5 -107t-67.5 -80.5t-89.5 -32q-18 0 -38 5.5t-40 19.5q-49 -25 -89 -25q-26 0 -45 12.5t-31.5 34.5t-18.5 51t-6 62q0 53 14.5 110.5t42.5 105.5t68 79t90 31
q24 0 46 -7zM285 62q16 -11 35 -11q28 0 52 28t42 69.5t28 90t10 89.5t-10.5 62.5t-32.5 21.5q-10 0 -20 -5.5t-26 -16.5zM295 405q-17 7 -35 7q-28 0 -52.5 -27.5t-43 -69t-29 -89.5t-10.5 -89q0 -39 11 -62.5t35 -23.5q18 0 41 10z" />
    <glyph glyph-name="uni0239" unicode="&#x239;" 
d="M230 -165h-74l40 169q-16 -8 -30 -12.5t-29 -4.5q-22 0 -38.5 12t-28 33t-17 49.5t-5.5 60.5q0 54 14.5 112t42.5 107t67.5 80.5t89.5 31.5q18 0 38 -5t40 -20q24 14 47 19.5t42 5.5q26 0 45 -12.5t31.5 -34t18.5 -51t6 -62.5q0 -53 -15 -110.5t-42.5 -105.5t-67.5 -79
t-91 -31q-19 0 -45 8zM293 400q-20 11 -35 11q-28 0 -52 -28t-42 -69.5t-28 -90t-10 -89.5q0 -84 43 -84q17 0 45 21zM283 57q17 -7 35 -7q28 0 52.5 27.5t43 69t29 89.5t10.5 89q0 39 -11.5 62.5t-35.5 23.5q-17 0 -40 -10z" />
    <glyph glyph-name="uni023A" unicode="&#x23a;" 
d="M388 0l1 162h-88l-126 -252l-56 21l115 231h-82l-77 -162h-82q33 66 72.5 143t83 158t90 162.5t93.5 155.5h98l4 -26t4 -27l63 126l55 -21l-107 -213q6 -60 10 -121t7 -119.5t5 -114t3 -103.5h-86zM366 551q-19 -31 -41 -69t-45.5 -80t-47.5 -87t-47 -89h81l112 221
q-3 29 -6 55.5t-6 48.5zM390 226q-1 26 -1.5 52t-2.5 52l-53 -104h57z" />
    <glyph glyph-name="uni023B" unicode="&#x23b;" 
d="M279 -13q-36 0 -66 9l-44 -86l-57 26l46 91q-33 28 -51 72.5t-18 102.5q0 79 24 156.5t69 138.5t109.5 98.5t145.5 37.5q8 0 16 -0.5t16 -1.5l32 63l61 -26l-27 -51q20 -8 34 -15.5t23 -14.5l-39 -66q-10 7 -23.5 14.5t-30.5 12.5l-249 -481q20 -7 47 -7q48 0 85 12.5
t55 23.5l9 -70q-6 -5 -21.5 -11.5t-37 -12.5t-49.5 -10.5t-59 -4.5zM172 215q0 -68 27 -108l233 453q-61 0 -109.5 -30t-82 -79t-51 -110.5t-17.5 -125.5z" />
    <glyph glyph-name="uni023C" unicode="&#x23c;" 
d="M80 166q0 61 20.5 117t60 99t97 68.5t132.5 25.5h13t12 -1l39 75l50 -17l-33 -64q28 -7 49 -15l-32 -70q-10 5 -22 9.5t-29 8.5l-174 -339q18 -3 41 -3q22 0 43 3t39 8t31.5 10t20.5 10l7 -70q-18 -11 -59 -22t-98 -11q-33 0 -60 6l-36 -70l-50 17l35 68
q-48 22 -72.5 62.5t-24.5 94.5zM163 174q0 -30 10.5 -55.5t39.5 -40.5l167 328q-51 0 -91.5 -20t-68 -52t-42.5 -74t-15 -86z" />
    <glyph glyph-name="uni023D" unicode="&#x23d;" 
d="M443 70l-17 -70h-333l70 289h-74l16 67h74l63 263h82l-63 -263h141l-16 -67h-141l-53 -219h251z" />
    <glyph glyph-name="uni023E" unicode="&#x23e;" 
d="M338 282l-67 -282h-83l37 152l-163 -187l-46 34l238 272l67 278h-170l17 70h389l51 58l46 -34zM367 401l130 148h-94z" />
    <glyph glyph-name="uni023F" unicode="&#x23f;" 
d="M275 -4q-22 0 -48 1.5t-47 6.5q12 -11 21.5 -23t20.5 -28q10 -14 20 -23.5t22.5 -15.5t29 -8.5t39.5 -2.5q16 0 25 2t17 4l-7 -66q-10 -5 -25 -6.5t-33 -1.5q-54 0 -85.5 17t-54.5 55q-17 25 -28 44t-20.5 32.5t-19.5 23t-24 17.5l34 70q4 -2 14.5 -7.5t27 -10.5t39 -9
t51.5 -4q22 0 43.5 2.5t38 10t26.5 20.5t10 33q0 28 -22 44t-69 36q-22 10 -41.5 20t-33.5 23.5t-22.5 31.5t-8.5 44q0 67 51.5 107.5t148.5 40.5q46 0 83.5 -9t51.5 -17l-31 -68q-14 8 -46 16t-70 8q-19 0 -38 -3.5t-34.5 -11.5t-25 -21.5t-9.5 -33.5q0 -24 21.5 -40
t64.5 -33q25 -11 45.5 -21.5t35 -25t22 -33t7.5 -44.5q0 -68 -46 -105.5t-121 -37.5z" />
    <glyph glyph-name="uni0240" unicode="&#x240;" 
d="M161 60q31 -11 54.5 -28t50.5 -51q11 -14 20.5 -27t21 -23t26.5 -16t37 -6q3 0 14 0.5t24 3.5l-8 -70q-13 -5 -30.5 -6.5t-28.5 -1.5q-28 0 -47 7.5t-33.5 20t-26 28.5t-24.5 33q-12 16 -24 30t-27 24t-34 16t-46 6h-23l13 54q27 39 68 86.5t85.5 94.5t87.5 89t74 71
h-222l16 69h331l-14 -59q-17 -15 -43.5 -40t-58 -55.5t-65 -64t-65 -67t-58.5 -64t-45 -54.5z" />
    <glyph glyph-name="uni0241" unicode="&#x241;" 
d="M216 0h-82l41 179q9 37 20 63.5t29 48t45 39.5t67 39q24 12 44.5 23.5t35 25t23 31t8.5 41.5q0 73 -101 73q-55 0 -94 -14t-61 -25l-12 65q11 7 29.5 14.5t42 14t50.5 11t54 4.5q89 0 131.5 -38t42.5 -99q0 -38 -11.5 -65t-31.5 -48t-48 -37.5t-61 -33.5
q-29 -15 -48.5 -27.5t-33 -27.5t-23 -36t-17.5 -54z" />
    <glyph glyph-name="uni0242" unicode="&#x242;" 
d="M179 114q14 55 45 87t85 55q55 25 78 45t23 53q0 26 -20 40t-69 14q-22 0 -43 -3.5t-38.5 -9t-31 -11t-19.5 -8.5l-7 70q9 5 26 10.5t38 10t44.5 7t46.5 2.5q79 0 116.5 -30.5t37.5 -87.5q0 -28 -8.5 -49.5t-26 -39.5t-43 -34t-58.5 -32q-22 -11 -38 -19.5t-27 -19
t-18 -23.5t-11 -32l-25 -109h-82z" />
    <glyph glyph-name="uni0243" unicode="&#x243;" 
d="M215 -5q-15 0 -33.5 1t-37.5 2.5t-37 4.5t-31 7l31 134h-53l15 62h53l97 404q16 4 35 7t38.5 4.5t38.5 2.5t34 1q38 0 70 -7t54.5 -22.5t35 -39.5t12.5 -57q0 -59 -29 -103t-95 -70q35 -10 61 -41t26 -73q0 -104 -73.5 -160.5t-211.5 -56.5zM188 144l-17 -76q11 -2 24 -3
t42 -1q31 0 63.5 6t58 22.5t42 44t16.5 71.5q0 23 -8.5 38.5t-24 25t-37 13.5t-46.5 4h-77l-20 -83h109l-15 -62h-110zM240 357h58q28 0 56.5 5.5t50.5 20t36 38.5t14 60q0 20 -8 34t-21.5 23t-32 13t-38.5 4q-23 0 -41 -0.5t-26 -2.5z" />
    <glyph glyph-name="uni0244" unicode="&#x244;" 
d="M485 306l-25 -104q-11 -51 -27 -91t-41 -67.5t-61.5 -42t-88.5 -14.5q-94 0 -127 61t-8 165l22 93h-55l15 62h55l60 251h82l-61 -251h192l61 251h82l-61 -251h55l-16 -62h-53zM255 58q24 0 42.5 6.5t33.5 23.5t27 47t22 77l22 94h-191l-23 -93q-8 -32 -10 -60t5 -49
t24 -33.5t48 -12.5z" />
    <glyph glyph-name="uni0245" unicode="&#x245;" 
d="M-13 0q33 66 73 143t83.5 158t90 162.5t93.5 155.5h98q11 -71 18.5 -152t12.5 -163t8 -160t5 -144h-85q1 82 -1 163.5t-6 154.5t-9.5 132.5t-10.5 96.5q-19 -31 -54 -93t-76 -138.5t-83 -159.5t-74 -156h-83z" />
    <glyph glyph-name="uni0246" unicode="&#x246;" 
d="M204 0l-66 -105l-58 25l50 80h-76l149 619h314l38 61l59 -25l-185 -296h59l-17 -70h-86l-137 -219h218l-17 -70h-245zM222 359h133l118 190h-205zM153 70h20l138 219h-106z" />
    <glyph glyph-name="uni0247" unicode="&#x247;" 
d="M128 -67l34 79q-44 22 -62 60.5t-18 85.5q0 63 19.5 120t55.5 100.5t88 70t118 26.5l34 80l57 -13l-33 -74q48 -12 69.5 -42.5t21.5 -65.5q0 -44 -17 -74t-45.5 -49.5t-67 -30t-80.5 -15.5l-57 -132q18 -3 42 -3q21 0 45 4t45.5 9.5t38 11.5t22.5 10l7 -70
q-19 -10 -62 -21.5t-112 -11.5q-31 0 -55 6l-32 -75zM171 242h48t44 2l70 162q-32 -4 -58.5 -19t-47 -37.5t-34.5 -50t-22 -57.5zM431 354q0 17 -8 30t-29 20l-65 -151q52 11 77 34.5t25 66.5zM161 184q-7 -75 30 -105l46 107q-19 -2 -38 -2h-38z" />
    <glyph glyph-name="uni0248" unicode="&#x248;" 
d="M536 619l-63 -263h72l-16 -67h-72l-21 -90q-11 -43 -25 -81.5t-39.5 -67.5t-65 -46t-99.5 -17q-31 0 -56.5 6t-46 14.5t-34.5 18.5t-21 18l43 65q7 -7 18 -16t26 -16.5t33 -13t40 -5.5q60 0 93.5 35.5t52.5 113.5l20 82h-125l16 67h125l47 193h-211l16 70h293z" />
    <glyph glyph-name="uni0249" unicode="&#x249;" 
d="M173 395l16 69h270l-46 -187h78l-15 -63h-77l-50 -208q-23 -96 -76.5 -135t-135.5 -39q-76 0 -134 36l32 69q21 -15 53 -24.5t57 -9.5q52 0 80 23t42 82l50 206h-188l16 63h187l29 118h-188zM410 536q-26 0 -43 15t-17 44q0 35 22 55t49 20q26 0 43.5 -16t17.5 -45
q0 -17 -6.5 -30t-16.5 -23t-23 -15t-26 -5z" />
    <glyph glyph-name="uni024A" unicode="&#x24a;" 
d="M363 633q69 0 112.5 -47.5t43.5 -149.5q0 -58 -17 -135l-72 -301q-14 -50 -14 -68q0 -20 7 -26t23 -6q5 0 13.5 1.5t13.5 3.5l-6 -64q-7 -3 -19 -5.5t-26 -2.5q-48 0 -67.5 21t-19.5 67q0 14 3.5 35t9.5 44l13 49q-29 -34 -61.5 -48t-70.5 -14q-68 0 -110.5 47.5
t-42.5 149.5q0 37 6.5 84.5t21 97.5t37.5 98t55 85.5t73.5 60.5t93.5 23zM354 562q-47 0 -83 -36.5t-61 -92t-38 -121t-13 -122.5q0 -71 20.5 -101.5t58.5 -30.5q48 0 84.5 36.5t62 92t38.5 121t13 122.5q0 70 -22 101t-60 31z" />
    <glyph glyph-name="uni024B" unicode="&#x24b;" 
d="M254 57q26 0 52.5 11t48.5 28l74 304q-12 2 -23 3.5t-19 1.5q-51 0 -92.5 -20t-70.5 -53.5t-45 -77t-16 -90.5q0 -20 3.5 -39t13 -34t27.5 -24.5t47 -9.5zM334 15q-21 -11 -47 -18.5t-55 -7.5q-78 0 -115 46t-37 120q0 60 20 117t60.5 102t101.5 72.5t142 27.5
q12 0 28.5 -1.5t34 -4.5t33 -7t26.5 -10l-115 -466q-11 -41 -6 -62.5t31 -21.5q6 0 16 1t17 3l-7 -65q-10 -2 -25 -4.5t-26 -2.5q-37 0 -57.5 10.5t-29 31.5t-6 52.5t11.5 72.5z" />
    <glyph glyph-name="uni024C" unicode="&#x24c;" 
d="M56 244l17 68h65l70 298q32 8 72.5 11.5t71.5 3.5q91 0 133.5 -40.5t42.5 -107.5q0 -85 -42 -139.5t-111 -77.5q12 -27 21.5 -52.5t18.5 -55t17.5 -66t18.5 -86.5h-84q-9 50 -18 87.5t-17.5 66t-17 50.5t-16.5 41q-7 -1 -13 -1h-13h-69l-59 -244h-81l58 244h-65zM346 555
q-21 0 -41 -1t-29 -3l-57 -239h44q37 0 70.5 6.5t58.5 24t39.5 47t14.5 74.5q0 48 -27.5 69.5t-72.5 21.5z" />
    <glyph glyph-name="uni024D" unicode="&#x24d;" 
d="M72 246h76l47 194q106 34 213 34q31 0 55 -2.5t59 -9.5l-31 -73q-15 4 -27.5 6.5t-23.5 4t-22.5 2t-26.5 0.5q-31 0 -63.5 -4t-64.5 -12l-33 -140h157l-16 -63h-156l-44 -183h-82l44 183h-76z" />
    <glyph glyph-name="uni024E" unicode="&#x24e;" 
d="M622 619q-20 -34 -42.5 -67t-46.5 -66h78l-15 -65h-109q-37 -48 -75 -94.5t-78 -94.5l-56 -232h-82l55 230q-18 50 -33.5 96.5t-29.5 94.5h-94l15 65h63q-8 33 -14 66t-11 67h82q6 -65 23 -133h194q24 35 46 68.5t41 64.5h89zM305 293q24 30 48 62.5t48 65.5h-134
q10 -34 19 -66.5t19 -61.5z" />
    <glyph glyph-name="uni024F" unicode="&#x24f;" 
d="M442 221q-22 -48 -48 -95.5t-56 -91.5q-28 -42 -56.5 -79t-61 -64.5t-72 -43t-88.5 -15.5q-25 0 -46 6t-32 14l29 68q8 -8 23.5 -12.5t34.5 -4.5q52 0 87 21t69 70q-17 54 -32 110.5t-26 116.5h-83l14 60h57q-7 45 -12 91t-6 92h84q1 -39 6 -85.5t13 -97.5h148
q23 58 38.5 106t22.5 77h87q-10 -32 -27 -79.5t-40 -103.5h62l-14 -60h-75zM283 75q23 35 42 71.5t36 74.5h-111q8 -38 16 -74.5t17 -71.5z" />
    <glyph glyph-name="uni0292" unicode="&#x292;" 
d="M491 409q-17 -21 -41 -47t-51.5 -53.5t-56.5 -55.5t-57 -52q65 -10 103.5 -47t38.5 -100q0 -106 -65.5 -162.5t-186.5 -56.5q-51 0 -89 10.5t-54 21.5l28 66q18 -10 47 -18.5t77 -8.5q31 0 60 7.5t51.5 24t36.5 43.5t14 66q0 31 -12 50.5t-32.5 30t-48 14.5t-58.5 4h-12
l13 54q25 22 53 48.5t54.5 52.5t50.5 50.5t42 43.5h-238l16 69h331z" />
    <glyph glyph-name="apostrophe" unicode="&#x2bc;" 
d="M423 693q-13 -56 -42 -106.5t-60 -81.5l-52 20q27 42 45 83.5t24 84.5h85z" />
    <glyph glyph-name="circumflex" unicode="&#x2c6;" 
d="M372 596l-100 -74l-29 41l145 124l94 -132l-39 -37z" />
    <glyph glyph-name="caron" unicode="&#x2c7;" 
d="M373 613l100 74l30 -40l-145 -125l-95 133l40 36z" />
    </font>
</defs>
</svg>
