<?xml version="1.0" standalone="no"?>
<!DOCTYPE svg PUBLIC "-//W3C//DTD SVG 1.1//EN" "http://www.w3.org/Graphics/SVG/1.1/DTD/svg11.dtd" >
<svg xmlns="http://www.w3.org/2000/svg" xmlns:xlink="http://www.w3.org/1999/xlink" version="1.1">
<metadata>
Created by FontForge 20201107 at Thu May 24 22:11:35 2018
 By 
Copyright (c) 2015, 2018 by Jakob Runge, under exclusive license to TypeMates. All rights reserved.
</metadata>
<defs>
<font id="CeraPro-Italic" horiz-adv-x="560" >
  <font-face 
    font-family="Cera Pro"
    font-weight="400"
    font-style="italic"
    font-stretch="normal"
    units-per-em="1000"
    panose-1="0 0 5 0 0 0 0 0 0 0"
    ascent="800"
    descent="-200"
    x-height="487"
    cap-height="660"
    bbox="-424 -242 1319 1000"
    underline-thickness="65"
    underline-position="-227"
    slope="-10"
    unicode-range="U+0020-FB02"
  />
<missing-glyph horiz-adv-x="707" 
d="M165 660h525l-116 -660h-525zM525 51l98 556h-411z" />
    <glyph glyph-name="fi" unicode="fi" horiz-adv-x="564" 
d="M409 747l-11 -62q-36 6 -58 6q-44 0 -69 -22.5t-34 -69.5l-20 -112h122l-13 -69h-121l-82 -465q-13 -70 -55 -107t-110 -37q-35 0 -79 14l11 62q27 -7 58 -7q45 0 69 23t32 70l79 447h-69l12 69h69l23 129q13 70 55.5 107.5t110.5 37.5q41 0 80 -14zM361 0l86 487h77
l-86 -487h-77zM461 673q0 23 17 39.5t40 16.5q24 0 41 -16.5t17 -39.5q0 -24 -17 -40t-41 -16t-40.5 16t-16.5 40z" />
    <glyph glyph-name="fl" unicode="fl" horiz-adv-x="564" 
d="M409 747l-11 -62q-36 6 -58 6q-44 0 -69 -22.5t-34 -69.5l-20 -112h122l-13 -69h-121l-82 -465q-13 -70 -55 -107t-110 -37q-35 0 -79 14l11 62q27 -7 58 -7q45 0 69 23t32 70l79 447h-69l12 69h69l23 129q13 70 55.5 107.5t110.5 37.5q41 0 80 -14zM361 0l132 750h77
l-132 -750h-77z" />
    <glyph glyph-name=".notdef" horiz-adv-x="707" 
d="M165 660h525l-116 -660h-525zM525 51l98 556h-411z" />
    <glyph glyph-name=".null" horiz-adv-x="0" 
 />
    <glyph glyph-name="nonmarkingreturn" horiz-adv-x="333" 
 />
    <glyph glyph-name="space" unicode=" " horiz-adv-x="280" 
 />
    <glyph glyph-name="exclam" unicode="!" horiz-adv-x="305" 
d="M114 209l64 451h95l-95 -451h-64zM56 52q0 27 18.5 45t44.5 18t44.5 -18t18.5 -45t-18.5 -45t-44.5 -18t-44.5 18t-18.5 45z" />
    <glyph glyph-name="quotedbl" unicode="&#x22;" horiz-adv-x="464" 
d="M124 403l58 257h90l-86 -257h-62zM307 403l58 257h90l-86 -257h-62z" />
    <glyph glyph-name="numbersign" unicode="#" horiz-adv-x="566" 
d="M574 420h-98l-32 -180h99l-11 -67h-100l-30 -173h-65l30 173h-191l-30 -173h-66l30 173h-96l12 67h96l32 180h-97l12 67h97l30 173h65l-30 -173h192l30 173h65l-30 -173h97zM188 240h191l32 180h-192z" />
    <glyph glyph-name="dollar" unicode="$" horiz-adv-x="536" 
d="M457 193q0 -71 -52 -120t-132 -52l-20 -115h-77l21 124q-105 29 -160 135l61 36q64 -109 167 -109q51 0 82 26t31 69q0 55 -80 101l-63 36q-112 63 -112 150q0 68 51.5 114t130.5 47l20 115h77l-22 -125q76 -23 120 -101l-60 -38q-50 78 -132 78q-48 0 -77 -24t-29 -63
q0 -27 17.5 -48t59.5 -46l63 -36q115 -63 115 -154z" />
    <glyph glyph-name="percent" unicode="%" horiz-adv-x="810" 
d="M100 505q0 68 49 116.5t118 48.5q65 0 110 -45t45 -110q0 -68 -49.5 -117t-118.5 -49q-64 0 -109 45.5t-45 110.5zM129 0l519 660h70l-520 -660h-69zM358 514q0 44 -25.5 71.5t-66.5 27.5q-44 0 -73 -30.5t-29 -76.5q0 -44 26 -72t68 -28q44 0 72 30.5t28 77.5zM421 146
q0 68 49 116.5t118 48.5q65 0 110 -45t45 -110q0 -68 -49.5 -117t-118.5 -49q-64 0 -109 45.5t-45 110.5zM679 155q0 44 -25.5 71.5t-66.5 27.5q-44 0 -73 -30.5t-29 -76.5q0 -44 26.5 -72t67.5 -28q44 0 72 30.5t28 77.5z" />
    <glyph glyph-name="ampersand" unicode="&#x26;" horiz-adv-x="626" 
d="M477 119l78 -119h-87l-45 68q-91 -79 -188 -79q-84 0 -141 49.5t-57 122.5q0 59 41 108q40 49 143 108q-47 77 -47 134q0 67 46 113.5t114 46.5q62 0 101 -36.5t39 -95.5q0 -51 -35 -94t-116 -91l112 -171q40 45 54 62l47 55l14 17l57 -49q-86 -104 -130 -149zM251 513
q0 -45 36 -104q59 35 85 65t26 64q0 28 -18 45t-49 17q-37 0 -58.5 -23t-21.5 -64zM382 130l-124 190q-83 -53 -111 -84.5t-28 -71.5q0 -44 32.5 -73.5t83.5 -29.5q69 0 147 69z" />
    <glyph glyph-name="quotesingle" unicode="'" horiz-adv-x="281" 
d="M124 403l58 257h90l-86 -257h-62z" />
    <glyph glyph-name="parenleft" unicode="(" horiz-adv-x="338" 
d="M80 189q-1 123 36.5 238.5t104.5 197t148 108.5l23 -54q-105 -48 -170.5 -184.5t-65.5 -308.5q0 -188 101 -271l-39 -47q-138 93 -138 321z" />
    <glyph glyph-name="parenright" unicode=")" horiz-adv-x="338" 
d="M-10 -132l-23 54q105 48 170.5 184.5t65.5 308.5q0 188 -101 271l39 47q138 -93 138 -321q1 -123 -36.5 -238.5t-104.5 -197t-148 -108.5z" />
    <glyph glyph-name="asterisk" unicode="*" horiz-adv-x="410" 
d="M432 615l-105 -46l81 -79l-30 -37l-91 66l-28 -110l-46 8l11 114l-111 -31l-17 45l104 46l-82 80l31 36l94 -68l28 112l46 -8l-11 -114l108 31z" />
    <glyph glyph-name="plus" unicode="+" 
d="M217 88l34 193h-187l11 68h188l34 190h76l-34 -190h182l-11 -68h-183l-34 -193h-76z" />
    <glyph glyph-name="comma" unicode="," horiz-adv-x="280" 
d="M15 -179l60 269h91l-88 -269h-63z" />
    <glyph glyph-name="hyphen" unicode="-" horiz-adv-x="340" 
d="M61 282l12 65h234l-12 -65h-234z" />
    <glyph glyph-name="period" unicode="." horiz-adv-x="280" 
d="M44 52q0 27 18.5 45t44.5 18t44.5 -18t18.5 -45t-18.5 -45t-44.5 -18t-44.5 18t-18.5 45z" />
    <glyph glyph-name="slash" unicode="/" horiz-adv-x="616" 
d="M-57 -121l676 901h85l-677 -901h-84z" />
    <glyph glyph-name="zero" unicode="0" horiz-adv-x="615" 
d="M73 240q0 87 29 188q28 100 95 171q67 72 173 72q98 0 151 -66.5t53 -184.5q0 -87 -29 -189q-29 -99 -96 -171q-66 -71 -171 -71q-99 0 -152 66.5t-53 184.5zM495 419q0 92 -36.5 136.5t-97.5 44.5q-75 0 -122 -62q-48 -64 -67 -145q-20 -85 -20 -152q0 -92 37 -136.5
t98 -44.5q76 0 122 61t66 145q20 86 20 153z" />
    <glyph glyph-name="one" unicode="1" horiz-adv-x="381" 
d="M318 660h29l-116 -660h-78l100 575l-151 -34l-7 69z" />
    <glyph glyph-name="two" unicode="2" 
d="M338 207l-167 -137h305l-12 -70h-459l3 22l284 236q76 65 110.5 115.5t34.5 104.5q0 56 -32.5 88.5t-87.5 32.5q-62 0 -101.5 -44.5t-39.5 -115.5q0 -21 1 -27h-80q-1 5 -1 31q0 98 63.5 163t160.5 65q88 0 143 -52.5t55 -135.5q0 -70 -42 -133.5t-138 -142.5z" />
    <glyph glyph-name="three" unicode="3" horiz-adv-x="538" 
d="M538 660l-5 -23l-211 -228q69 -15 111.5 -67t42.5 -122q0 -99 -70 -165t-173 -66q-80 0 -137.5 40t-86.5 116l64 33q52 -118 162 -118q70 0 116 44.5t46 111.5q0 61 -43 96.5t-117 35.5h-46l4 23l202 219h-267l13 70h395z" />
    <glyph glyph-name="four" unicode="4" horiz-adv-x="548" 
d="M517 191l-12 -68h-96l-22 -123h-78l22 123h-331l4 23l302 514h84l-276 -469h228l39 220h78l-39 -220h97z" />
    <glyph glyph-name="five" unicode="5" horiz-adv-x="555" 
d="M528 590h-285l-32 -182q44 6 71 6q95 0 154 -53q58 -52 58 -138q0 -101 -69 -167.5t-175 -66.5q-81 0 -139.5 40.5t-87.5 115.5l61 33q54 -118 166 -118q72 0 119 44q46 45 46 113q0 61 -41.5 95t-115.5 34h-134l54 314h362z" />
    <glyph glyph-name="six" unicode="6" horiz-adv-x="552" 
d="M496 220q2 -93 -69.5 -162.5t-166.5 -67.5q-92 0 -154 60.5t-62 151.5q0 52 24 99q25 49 91 128l193 231h99l-206 -242q20 7 49 7q85 0 143.5 -59.5t58.5 -145.5zM417 219q0 62 -38.5 101t-99.5 39q-66 0 -111 -45t-45 -112q0 -62 39 -101.5t100 -39.5q65 0 110 45.5
t45 112.5z" />
    <glyph glyph-name="seven" unicode="7" horiz-adv-x="501" 
d="M109 660h440l-4 -23l-444 -637h-87l417 591h-335z" />
    <glyph glyph-name="eight" unicode="8" horiz-adv-x="577" 
d="M509 179q0 -81 -66.5 -135t-164.5 -54q-103 0 -169.5 48.5t-66.5 124.5q0 67 50.5 117t139.5 71q-97 59 -97 143q0 76 59 126.5t147 50.5t144 -44q55 -43 55 -116q0 -119 -153 -172q122 -62 122 -160zM214 496q0 -34 21.5 -59t79.5 -57q77 22 111.5 52t34.5 73
q0 44 -32.5 70t-87.5 26q-58 0 -92.5 -29t-34.5 -76zM430 179q0 38 -28 65q-26 27 -103 65q-92 -22 -135 -55t-43 -82q0 -51 42 -81.5t112 -30.5t112.5 33t42.5 86z" />
    <glyph glyph-name="nine" unicode="9" horiz-adv-x="552" 
d="M539 459q0 -53 -24 -100q-25 -49 -91 -128l-192 -231h-99l206 242q-20 -7 -50 -7q-85 0 -143.5 59.5t-58.5 145.5q0 94 70 162t167 68q92 0 153.5 -60.5t61.5 -150.5zM460 458q0 62 -38.5 101.5t-99.5 39.5q-66 0 -111 -45.5t-45 -112.5q0 -62 39 -101t100 -39
q67 0 111 45t44 112z" />
    <glyph glyph-name="colon" unicode=":" horiz-adv-x="280" 
d="M110 429q0 27 18.5 45t44.5 18t44.5 -18t18.5 -45t-18.5 -45t-44.5 -18t-44.5 18t-18.5 45zM44 52q0 27 18.5 45t44.5 18t44.5 -18t18.5 -45t-18.5 -45t-44.5 -18t-44.5 18t-18.5 45z" />
    <glyph glyph-name="semicolon" unicode=";" horiz-adv-x="280" 
d="M110 429q0 27 18.5 45t44.5 18t44.5 -18t18.5 -45t-18.5 -45t-44.5 -18t-44.5 18t-18.5 45zM15 -179l60 269h91l-88 -269h-63z" />
    <glyph glyph-name="less" unicode="&#x3c;" 
d="M537 515l-12 -76l-324 -128l278 -129l-11 -65l-405 187l3 24z" />
    <glyph glyph-name="equal" unicode="=" 
d="M92 384l12 69h427l-12 -69h-427zM56 177l11 68h427l-11 -68h-427z" />
    <glyph glyph-name="greater" unicode="&#x3e;" 
d="M119 514l405 -187l-3 -24l-471 -187l12 76l325 127l-279 130z" />
    <glyph glyph-name="question" unicode="?" horiz-adv-x="445" 
d="M261 375q45 37 62 54q45 43 45 88q0 38 -24.5 60.5t-64.5 22.5q-72 0 -120 -85l-58 36q65 120 185 120q70 0 115.5 -41t45.5 -109q0 -41 -17 -73q-16 -31 -39 -52q-26 -25 -69 -59q-45 -38 -63.5 -63.5t-24.5 -64.5h-69q2 49 22.5 86t73.5 80zM122 52q0 27 18 45t45 18
q26 0 44.5 -18t18.5 -45t-18.5 -45t-44.5 -18t-44.5 18t-18.5 45z" />
    <glyph glyph-name="at" unicode="@" horiz-adv-x="927" 
d="M885 307q0 -125 -76 -198.5t-204 -73.5h-48l8 45q-51 -54 -137 -54q-79 0 -131.5 56t-52.5 141q0 95 64 161t156 66q51 0 91.5 -21t61.5 -57l13 70h69l-60 -341q83 2 129.5 56.5t46.5 148.5q0 130 -85.5 207.5t-228.5 77.5q-158 3 -269.5 -107t-108.5 -265
q-2 -134 96.5 -226.5t243.5 -90.5q63 0 112 15l10 -59q-53 -21 -130 -21q-170 -2 -288.5 108.5t-115.5 270.5q-2 118 59 220.5t165.5 162.5t224.5 58q166 2 276.5 -98.5t108.5 -251.5zM598 261q0 55 -34.5 87.5t-91.5 32.5q-65 0 -107 -43q-42 -44 -42 -109q0 -60 34.5 -97
t89.5 -37q61 0 106 49t45 117z" />
    <glyph glyph-name="A" unicode="A" horiz-adv-x="663" 
d="M514 0l-33 134h-321l-80 -134h-88l404 671h28l169 -671h-79zM463 204l-75 320l-187 -320h262z" />
    <glyph glyph-name="B" unicode="B" horiz-adv-x="615" 
d="M561 196q0 -86 -65.5 -141t-167.5 -55h-279l116 660h207q81 0 129 -43t48 -114q0 -101 -86 -149q46 -21 72 -62.5t26 -95.5zM358 590h-127l-36 -205h147q57 0 91.5 30.5t34.5 82.5q0 44 -29 68t-81 24zM480 198q0 54 -34 85t-93 31h-171l-43 -244h185q71 0 113.5 35
t42.5 93z" />
    <glyph glyph-name="C" unicode="C" horiz-adv-x="714" 
d="M66 305q-2 96 49 181.5t137.5 136t183.5 48.5q87 0 157.5 -41.5t111.5 -116.5l-64 -39q-69 125 -210 125q-116 2 -201 -85t-83 -206q0 -108 68 -177.5t173 -69.5q131 0 221 105l54 -45q-53 -63 -126 -97.5t-155 -34.5q-136 0 -226 90t-90 226z" />
    <glyph glyph-name="D" unicode="D" horiz-adv-x="698" 
d="M49 0l116 660h166q148 0 240.5 -85t92.5 -219q2 -154 -111 -256t-284 -100h-220zM139 70h135q137 0 223 78t86 202q0 109 -71 174.5t-187 65.5h-95z" />
    <glyph glyph-name="E" unicode="E" horiz-adv-x="567" 
d="M49 0l116 660h423l-13 -70h-345l-37 -202h265l-12 -70h-264l-43 -248h357l-12 -70h-435z" />
    <glyph glyph-name="F" unicode="F" horiz-adv-x="524" 
d="M49 0l116 660h413l-13 -70h-335l-40 -227h278l-12 -71h-278l-51 -292h-78z" />
    <glyph glyph-name="G" unicode="G" horiz-adv-x="748" 
d="M66 305q-2 96 49 181.5t137.5 136t183.5 48.5q85 0 154 -39t111 -110l-60 -44q-71 121 -210 121q-116 2 -201 -85t-83 -206q0 -108 67.5 -177.5t174.5 -69.5q126 0 213 98l19 107h-224l13 70h302l-35 -197q-49 -70 -128 -110t-167 -40q-136 0 -226 90t-90 226z" />
    <glyph glyph-name="H" unicode="H" horiz-adv-x="708" 
d="M49 0l116 660h78l-48 -272h371l47 272h78l-116 -660h-78l56 318h-371l-55 -318h-78z" />
    <glyph glyph-name="I" unicode="I" horiz-adv-x="259" 
d="M49 0l116 660h78l-116 -660h-78z" />
    <glyph glyph-name="J" unicode="J" horiz-adv-x="374" 
d="M-17 7l13 67q55 -12 91 -12q89 0 105 95l88 503h78l-91 -516q-13 -76 -58 -115.5t-117 -39.5q-56 0 -109 18z" />
    <glyph glyph-name="K" unicode="K" horiz-adv-x="631" 
d="M165 660h78l-116 -660h-78zM651 660l-354 -314l265 -346h-93l-271 354l344 306h109z" />
    <glyph glyph-name="L" unicode="L" horiz-adv-x="507" 
d="M49 0l116 660h78l-104 -590h314l-13 -70h-391z" />
    <glyph glyph-name="M" unicode="M" horiz-adv-x="789" 
d="M746 671h28l-118 -671h-78l83 470l-256 -283h-28l-165 300l-85 -487h-78l118 671h28l207 -381z" />
    <glyph glyph-name="N" unicode="N" horiz-adv-x="708" 
d="M613 660h78l-118 -671h-28l-331 516l-87 -505h-78l118 671h28l331 -517z" />
    <glyph glyph-name="O" unicode="O" horiz-adv-x="782" 
d="M66 305q-2 97 49 182.5t137 135.5t182 48q134 2 225 -90.5t89 -225.5q2 -96 -49.5 -182t-137.5 -136t-181 -48q-134 -2 -225 90.5t-89 225.5zM667 353q0 106 -67.5 176t-171.5 70q-115 2 -200 -85t-82 -205q0 -107 67.5 -177.5t170.5 -70.5q115 -2 200 86t83 206z" />
    <glyph glyph-name="P" unicode="P" horiz-adv-x="577" 
d="M49 0l116 660h209q95 0 149.5 -48t54.5 -130q0 -92 -66.5 -149t-175.5 -57h-161l-48 -276h-78zM188 346h157q71 0 111.5 35.5t40.5 97.5q0 54 -32.5 82.5t-94.5 28.5h-140z" />
    <glyph glyph-name="Q" unicode="Q" horiz-adv-x="782" 
d="M958 -133l-10 -62q-45 -8 -89 -8q-123 0 -221.5 53t-159.5 152q-48 -13 -98 -13q-133 -2 -224.5 90t-89.5 226q-3 147 109 258t259 108q133 2 224.5 -90t89.5 -226q0 -103 -56 -192q-55 -88 -146 -134q57 -86 140.5 -125t206.5 -39q17 0 65 2zM384 61q114 -2 199 86
t83 206q0 107 -67 176.5t-171 69.5q-115 2 -199.5 -85t-82.5 -205q0 -107 67.5 -177.5t170.5 -70.5z" />
    <glyph glyph-name="R" unicode="R" horiz-adv-x="622" 
d="M399 283l165 -283h-87l-163 277h-139l-48 -277h-78l116 660h209q95 0 149.5 -47.5t54.5 -128.5q0 -78 -48 -131.5t-131 -69.5zM230 590l-42 -243h157q71 0 111.5 35t40.5 97q0 54 -32.5 82.5t-94.5 28.5h-140z" />
    <glyph glyph-name="S" unicode="S" horiz-adv-x="557" 
d="M23 148l62 38q71 -125 190 -125q58 0 93.5 30t35.5 80q0 35 -22 61.5t-70 53.5l-71 40q-121 67 -121 168q0 76 58.5 126.5t147.5 50.5q142 0 208 -122l-62 -37q-56 87 -149 87q-56 0 -89 -27t-33 -74q0 -32 19 -55.5t68 -53.5l70 -40q127 -72 127 -172q0 -82 -60 -135
t-152 -53q-165 0 -250 159z" />
    <glyph glyph-name="T" unicode="T" horiz-adv-x="587" 
d="M212 0l104 590h-232l12 70h543l-13 -70h-232l-104 -590h-78z" />
    <glyph glyph-name="U" unicode="U" horiz-adv-x="687" 
d="M83 218q0 26 6 61l66 381h78l-67 -384q-5 -33 -5 -52q0 -71 48.5 -117t122.5 -46q73 0 128 47q53 47 67 126l74 426h78l-76 -431q-20 -111 -94 -175q-74 -65 -181 -65q-108 0 -176.5 64t-68.5 165z" />
    <glyph glyph-name="V" unicode="V" horiz-adv-x="663" 
d="M612 660h91l-404 -671h-28l-168 671h81l125 -514z" />
    <glyph glyph-name="W" unicode="W" horiz-adv-x="1057" 
d="M995 660h88l-368 -671h-28l-115 521l-303 -521h-28l-133 671h81l94 -501l300 512h28l113 -512z" />
    <glyph glyph-name="X" unicode="X" horiz-adv-x="592" 
d="M624 660l-264 -329l164 -331h-84l-134 274l-224 -274h-97l285 345l-153 315h83l123 -260l204 260h97z" />
    <glyph glyph-name="Y" unicode="Y" horiz-adv-x="616" 
d="M645 660l-298 -389l-47 -271h-78l48 274l-161 386h81l128 -312l235 312h92z" />
    <glyph glyph-name="Z" unicode="Z" horiz-adv-x="589" 
d="M628 660l-5 -23l-494 -567h396l-12 -70h-524l4 23l492 567h-347l11 70h479z" />
    <glyph glyph-name="bracketleft" unicode="[" horiz-adv-x="347" 
d="M37 -131l151 860h191l-11 -68h-117l-128 -722h117l-12 -70h-191z" />
    <glyph glyph-name="backslash" unicode="\" horiz-adv-x="619" 
d="M474 -121l-372 901h73l373 -901h-74z" />
    <glyph glyph-name="bracketright" unicode="]" horiz-adv-x="347" 
d="M-12 -131l12 68h117l127 722h-116l11 70h191l-151 -860h-191z" />
    <glyph glyph-name="asciicircum" unicode="^" horiz-adv-x="510" 
d="M67 284l250 386h27l115 -386h-71l-76 258l-166 -258h-79z" />
    <glyph glyph-name="underscore" unicode="_" horiz-adv-x="500" 
d="M-23 -140l11 65h414l-12 -65h-413z" />
    <glyph glyph-name="grave" unicode="`" horiz-adv-x="500" 
d="M322 566l-50 200l5 14h86l14 -214h-55z" />
    <glyph glyph-name="a" unicode="a" horiz-adv-x="629" 
d="M511 487h77l-86 -487h-72l12 65q-65 -76 -176 -76q-94 0 -156.5 66t-62.5 165q-2 115 76.5 197.5t187.5 80.5q60 0 109.5 -25.5t76.5 -68.5zM471 272q0 69 -42.5 112t-112.5 43q-79 0 -134.5 -59.5t-55.5 -142.5q0 -73 45 -119t116 -46q77 0 130.5 61.5t53.5 150.5z" />
    <glyph glyph-name="b" unicode="b" horiz-adv-x="630" 
d="M583 263q2 -113 -75.5 -194.5t-184.5 -79.5q-60 0 -110 26t-77 70l-15 -85h-77l131 750h77l-58 -324q69 72 170 72q94 0 156.5 -67t62.5 -168zM504 256q0 76 -45 123.5t-117 47.5q-77 0 -130.5 -61t-53.5 -148q0 -68 44 -114q46 -44 115 -44q77 0 132 57t55 139z" />
    <glyph glyph-name="c" unicode="c" horiz-adv-x="558" 
d="M48 228q-2 110 79.5 191t191.5 79q66 0 120 -30.5t84 -84.5l-59 -39q-53 83 -147 83q-80 0 -135 -57t-55 -138q0 -75 47 -124t119 -49q90 0 148 70l50 -46q-74 -94 -201 -94q-104 0 -173 68t-69 171z" />
    <glyph glyph-name="d" unicode="d" horiz-adv-x="630" 
d="M558 750h77l-132 -750h-72l12 65q-65 -76 -176 -76q-94 0 -156.5 66t-62.5 167q-2 114 76 196t186 80q61 0 110.5 -25.5t75.5 -69.5zM472 267q0 72 -43.5 116t-113.5 44q-77 0 -132.5 -58.5t-55.5 -139.5q0 -75 45 -122t116 -47q77 0 130.5 60.5t53.5 146.5z" />
    <glyph glyph-name="e" unicode="e" horiz-adv-x="563" 
d="M510 220h-383q4 -74 49.5 -117t120.5 -43q78 0 150 59l39 -52q-81 -78 -196 -78q-105 0 -173.5 67.5t-68.5 171.5q-2 109 77.5 190.5t186.5 79.5q93 0 151.5 -60t58.5 -156q0 -34 -12 -62zM133 288h311q-1 66 -37 103t-99 37q-65 0 -112 -38t-63 -102z" />
    <glyph glyph-name="f" unicode="f" horiz-adv-x="303" 
d="M409 747l-11 -62q-36 6 -58 6q-44 0 -69 -22.5t-34 -69.5l-20 -112h122l-13 -69h-121l-82 -465q-13 -70 -55 -107t-110 -37q-35 0 -79 14l11 62q27 -7 58 -7q45 0 69 23t32 70l79 447h-69l12 69h69l23 129q13 70 55.5 107.5t110.5 37.5q41 0 80 -14z" />
    <glyph glyph-name="g" unicode="g" horiz-adv-x="630" 
d="M511 487h77l-81 -460q-18 -102 -87 -160t-172 -58q-70 0 -131 29.5t-102 82.5l50 48q69 -89 183 -89q74 0 122.5 40t60.5 110l7 40q-68 -65 -172 -65q-95 0 -157 61.5t-62 155.5q-2 113 77 195.5t188 80.5q60 0 109 -26t76 -69zM474 271q0 69 -44 112.5t-114 43.5
q-80 0 -135 -57t-55 -140q0 -69 44 -111.5t116 -42.5q80 0 134 56t54 139z" />
    <glyph glyph-name="h" unicode="h" horiz-adv-x="566" 
d="M503 338q0 -21 -6 -54l-50 -284h-77l51 286q5 32 5 41q0 47 -28.5 74t-78.5 27q-56 0 -95 -32.5t-49 -87.5l-54 -308h-77l131 750h77l-53 -304q58 52 138 52q74 0 120 -44t46 -116z" />
    <glyph glyph-name="i" unicode="i" horiz-adv-x="246" 
d="M43 0l86 487h77l-86 -487h-77zM143 673q0 23 17 39.5t40 16.5q24 0 41 -16.5t17 -39.5q0 -24 -17 -40t-41 -16t-40.5 16t-16.5 40z" />
    <glyph glyph-name="j" unicode="j" horiz-adv-x="247" 
d="M-128 -177l11 62q29 -6 56 -6q42 0 66 20.5t32 65.5l93 522h77l-95 -533q-12 -72 -54.5 -108.5t-108.5 -36.5q-38 0 -77 14zM143 673q0 23 17 39.5t40 16.5q24 0 41 -16.5t17 -39.5q0 -24 -17 -40t-41 -16t-40.5 16t-16.5 40z" />
    <glyph glyph-name="k" unicode="k" horiz-adv-x="506" 
d="M175 750h77l-132 -750h-77zM518 487l-251 -224l184 -263h-89l-184 270l235 217h105z" />
    <glyph glyph-name="l" unicode="l" horiz-adv-x="246" 
d="M43 0l132 750h77l-132 -750h-77z" />
    <glyph glyph-name="m" unicode="m" horiz-adv-x="874" 
d="M811 338q0 -20 -6 -54l-50 -284h-77l51 286q5 33 5 41q0 48 -27.5 74.5t-75.5 26.5q-52 0 -91 -32.5t-48 -87.5l-54 -308h-77l51 286q5 33 5 41q0 47 -28 74t-75 27q-52 0 -91 -32.5t-48 -87.5l-54 -308h-77l85 487h72l-8 -47q58 58 140 58q103 0 143 -81q64 81 169 81
q75 0 120.5 -44t45.5 -116z" />
    <glyph glyph-name="n" unicode="n" horiz-adv-x="566" 
d="M503 338q0 -20 -6 -54l-50 -284h-77l51 286q5 30 5 41q0 48 -29 74.5t-78 26.5q-55 0 -95 -32.5t-49 -87.5l-54 -308h-77l85 487h72l-8 -47q58 58 144 58q75 0 120.5 -44.5t45.5 -115.5z" />
    <glyph glyph-name="o" unicode="o" horiz-adv-x="609" 
d="M49 231q-2 107 79.5 188t190.5 79q103 0 173 -69.5t70 -172.5q2 -107 -80 -188t-192 -79q-103 0 -172 69.5t-69 172.5zM483 256q0 72 -47.5 121.5t-119.5 49.5q-79 0 -133.5 -57t-54.5 -139q0 -76 46 -123q47 -48 119 -48q80 0 135 57t55 139z" />
    <glyph glyph-name="p" unicode="p" horiz-adv-x="630" 
d="M583 261q2 -112 -76 -193t-185 -79q-61 0 -111.5 27t-75.5 72l-47 -268h-77l118 667h72l-12 -66q64 77 175 77q94 0 156.5 -67.5t62.5 -169.5zM504 254q0 77 -46 124q-45 49 -116 49q-77 0 -130.5 -61.5t-53.5 -150.5q0 -68 44 -112q44 -43 115 -43q77 0 132 57t55 137z
" />
    <glyph glyph-name="q" unicode="q" horiz-adv-x="630" 
d="M512 487h77l-118 -667h-77l43 238q-64 -69 -170 -69q-94 0 -156.5 67t-62.5 168q-2 113 75.5 194.5t186.5 79.5q59 0 109.5 -25.5t78.5 -68.5zM472 277q0 65 -44 107q-43 43 -113 43q-78 0 -133 -58t-55 -140q0 -75 45 -122t116 -47q76 0 130 64t54 153z" />
    <glyph glyph-name="r" unicode="r" horiz-adv-x="362" 
d="M387 485l-12 -67q-21 4 -44 4q-62 0 -106.5 -37.5t-54.5 -98.5l-50 -286h-77l86 487h72l-9 -53q56 59 144 59q27 0 51 -8z" />
    <glyph glyph-name="s" unicode="s" horiz-adv-x="456" 
d="M22 95l56 48q36 -45 67 -64t69 -19q44 0 70.5 18.5t26.5 49.5q0 24 -15 39.5t-61 38.5l-44 22q-55 27 -79 58t-24 74q0 62 45.5 100t121.5 38q109 0 164 -85l-54 -44q-43 58 -116 58q-39 0 -60.5 -16.5t-21.5 -45.5q0 -22 14 -37.5t53 -35.5l42 -22q63 -34 88.5 -63
t25.5 -75q0 -64 -48.5 -103.5t-127.5 -39.5q-61 0 -111 27.5t-81 78.5z" />
    <glyph glyph-name="t" unicode="t" horiz-adv-x="379" 
d="M214 418l-46 -259q-3 -15 -3 -27q0 -74 109 -74q3 0 9 0.5t17 1t20 0.5l-12 -66q-32 -5 -56 -5q-76 0 -120 32t-44 100q0 19 4 39l45 258h-80l10 69h83l23 133h77l-24 -133h153l-12 -69h-153z" />
    <glyph glyph-name="u" unicode="u" horiz-adv-x="559" 
d="M69 166q0 22 4 42l48 279h77l-51 -289q-2 -14 -2 -29q0 -48 32.5 -78.5t83.5 -30.5t87 31t46 83l54 313h77l-55 -315q-15 -84 -73 -133q-59 -50 -140 -50q-82 0 -135 50t-53 127z" />
    <glyph glyph-name="v" unicode="v" horiz-adv-x="536" 
d="M459 487h88l-317 -498h-28l-142 498h78l97 -364z" />
    <glyph glyph-name="w" unicode="w" horiz-adv-x="849" 
d="M773 487h86l-293 -498h-28l-97 366l-233 -366h-28l-120 498h78l78 -361l230 371h29l97 -367z" />
    <glyph glyph-name="x" unicode="x" horiz-adv-x="495" 
d="M505 487l-210 -239l138 -248h-88l-103 196l-170 -196h-95l226 255l-125 232h89l90 -178l154 178h94z" />
    <glyph glyph-name="y" unicode="y" horiz-adv-x="564" 
d="M446 487h77l-85 -483q-16 -90 -76 -142.5t-146 -52.5q-63 0 -118 29.5t-89 82.5l51 49q63 -90 156 -90q58 0 96 33t49 94l8 47q-57 -52 -137 -52q-74 0 -119.5 43.5t-45.5 115.5q0 19 6 54l48 272h77l-50 -274q-5 -30 -5 -41q0 -47 29 -73.5t79 -26.5q54 0 93.5 32
t49.5 87z" />
    <glyph glyph-name="z" unicode="z" horiz-adv-x="454" 
d="M467 487l-4 -23l-341 -396h275l-12 -68h-400l4 23l340 395h-247l11 69h374z" />
    <glyph glyph-name="braceleft" unicode="{" horiz-adv-x="396" 
d="M371 729h60l-11 -68h-50q-52 0 -74.5 -31t-22.5 -103v-101q0 -115 -81 -131q47 -12 47 -61q0 -28 -31 -117q-33 -86 -33 -123q0 -57 68 -57h49l-11 -68h-60q-57 0 -89.5 29.5t-32.5 80.5q0 40 36 142q28 71 28 101q0 42 -52 42h-59l11 68h59q43 0 60 21t17 73v107
q0 100 42 148t130 48z" />
    <glyph glyph-name="bar" unicode="|" horiz-adv-x="332" 
d="M149 -121v901h66v-901h-66z" />
    <glyph glyph-name="braceright" unicode="}" horiz-adv-x="397" 
d="M306 333h59l-12 -68h-58q-43 0 -60 -20.5t-17 -72.5v-107q0 -100 -42 -148t-130 -48h-61l12 68h50q53 0 75 30.5t22 103.5v101q0 115 81 131q-47 12 -47 61q0 28 31 117q33 86 33 123q0 57 -68 57h-49l11 68h60q57 0 89.5 -29.5t32.5 -80.5q0 -40 -36 -142
q-28 -71 -28 -101q0 -43 52 -43z" />
    <glyph glyph-name="asciitilde" unicode="~" 
d="M321 250l-82 55q-42 27 -61 27q-39 0 -46 -69h-63q3 69 30.5 107t73.5 38q41 0 91 -34l82 -55q38 -27 61 -27q39 0 46 69h63q-3 -69 -30.5 -107t-73.5 -38q-41 0 -91 34z" />
    <glyph glyph-name="uni00A0" unicode="&#xa0;" horiz-adv-x="280" 
 />
    <glyph glyph-name="exclamdown" unicode="&#xa1;" horiz-adv-x="305" 
d="M123 436q0 27 18 44.5t45 17.5t45 -17.5t18 -44.5q0 -29 -18 -46.5t-45 -17.5q-26 0 -44.5 18t-18.5 46zM33 -180l93 458h66l-65 -458h-94z" />
    <glyph glyph-name="cent" unicode="&#xa2;" horiz-adv-x="556" 
d="M448 216l51 -43q-76 -99 -205 -99h-1l-30 -168h-77l32 179q-76 23 -122 85t-46 143q0 104 74 181.5t181 85.5l30 170h77l-31 -175q102 -24 149 -110l-58 -38q-55 83 -150 83q-81 0 -137 -56.5t-56 -137.5q0 -74 48.5 -122.5t120.5 -48.5q92 0 150 71z" />
    <glyph glyph-name="sterling" unicode="&#xa3;" horiz-adv-x="528" 
d="M218 464q0 -33 22 -98q12 -34 17 -53h158l-12 -68h-136v-1q0 -109 -86 -176h269l-11 -68h-424l2 21q171 87 171 220v4h-123l11 68h101q-8 27 -14 43q-25 84 -25 117q0 85 58 141.5t145 56.5q82 0 133.5 -47.5t61.5 -133.5l-72 -18q-7 62 -38.5 95t-82.5 33
q-55 0 -90 -38.5t-35 -97.5z" />
    <glyph glyph-name="currency" unicode="&#xa4;" horiz-adv-x="667" 
d="M534 165l95 -107l-49 -45l-97 108q-67 -44 -146 -44q-93 0 -160 55l-121 -119l-45 49l121 118q-43 61 -43 138q0 103 69 178l-89 102l48 45l91 -104q67 44 145 44q93 0 163 -57l126 117l45 -49l-126 -117q41 -61 41 -135q0 -101 -68 -177zM523 339q0 72 -48.5 122.5
t-120.5 50.5q-77 0 -131.5 -55.5t-54.5 -134.5q0 -74 48.5 -124t119.5 -50q77 0 132 56t55 135z" />
    <glyph glyph-name="yen" unicode="&#xa5;" horiz-adv-x="553" 
d="M619 660l-264 -300h178l-12 -68h-196l-16 -92h196l-12 -69h-196l-23 -131h-78l23 131h-193l12 69h193l16 92h-193l12 68h176l-159 300h81l138 -260l226 260h91z" />
    <glyph glyph-name="brokenbar" unicode="&#xa6;" horiz-adv-x="332" 
d="M149 480v300h66v-300h-66zM149 -121v300h66v-300h-66z" />
    <glyph glyph-name="section" unicode="&#xa7;" horiz-adv-x="565" 
d="M518 196q0 -55 -38.5 -94.5t-102.5 -51.5q2 -22 2 -25q0 -62 -47.5 -104t-117.5 -42q-116 0 -165 102l55 41q40 -72 112 -72q37 0 60.5 21t23.5 54q0 43 -61 97l-83 75q-97 84 -97 158q0 56 38.5 95t104.5 51q-3 13 -3 26q0 62 47.5 104t117.5 42q55 0 98.5 -27t66.5 -75
l-56 -41q-40 72 -111 72q-37 0 -60.5 -21t-23.5 -54q0 -44 60 -97l83 -75q97 -86 97 -159zM439 191q0 24 -14.5 46.5t-52.5 57.5l-90 82q-43 43 -59 71q-38 -7 -61.5 -31t-23.5 -56q0 -24 15 -47.5t53 -56.5l89 -83q40 -38 60 -71q38 8 61 32t23 56z" />
    <glyph glyph-name="dieresis" unicode="&#xa8;" horiz-adv-x="500" 
d="M160 673q0 22 16.5 37.5t38.5 15.5q23 0 39.5 -15.5t16.5 -37.5t-16.5 -37.5t-39.5 -15.5q-22 0 -38.5 15.5t-16.5 37.5zM382 673q0 22 16.5 37.5t39.5 15.5t39 -15.5t16 -37.5t-16 -37.5t-39 -15.5t-39.5 15.5t-16.5 37.5z" />
    <glyph glyph-name="copyright" unicode="&#xa9;" horiz-adv-x="792" 
d="M68 316q-2 92 47.5 175t134.5 132.5t178 47.5q134 3 231.5 -95t95.5 -231q2 -92 -48 -175.5t-134.5 -133t-177.5 -47.5q-134 -3 -232 95t-95 232zM695 346q2 112 -77.5 192t-191.5 78q-120 2 -210 -88.5t-88 -211.5q0 -115 78 -193.5t191 -78.5q119 -2 209.5 89.5
t88.5 212.5zM222 321q0 82 60 141t143 59q99 0 152 -84l-55 -40q-38 60 -102 60q-53 0 -89 -39q-36 -38 -36 -94q0 -53 32 -86.5t81 -33.5q57 0 100 49l47 -43q-62 -70 -151 -70q-77 0 -129.5 52t-52.5 129z" />
    <glyph glyph-name="ordfeminine" unicode="&#xaa;" horiz-adv-x="420" 
d="M345 554h67l-55 -310h-60l5 38q-38 -44 -104 -44q-59 0 -97 41t-38 104q0 74 48 125.5t116 51.5q73 0 110 -53zM320 411q0 40 -24.5 65.5t-62.5 25.5q-43 0 -75 -33q-30 -33 -30 -79q0 -43 24.5 -68.5t66.5 -25.5q43 0 72 33.5t29 81.5z" />
    <glyph glyph-name="guillemotleft" unicode="&#xab;" horiz-adv-x="503" 
d="M187 71l-146 188l4 23l208 189l45 -48l-169 -156l113 -155zM385 71l-146 188l4 23l208 189l45 -48l-169 -156l113 -155z" />
    <glyph glyph-name="logicalnot" unicode="&#xac;" 
d="M370 96l33 185h-339l11 68h417l-44 -253h-78z" />
    <glyph glyph-name="uni00AD" unicode="&#xad;" horiz-adv-x="340" 
d="M61 282l12 65h234l-12 -65h-234z" />
    <glyph glyph-name="registered" unicode="&#xae;" horiz-adv-x="584" 
d="M575 437q2 -101 -78.5 -180.5t-182.5 -77.5q-98 0 -168.5 69.5t-70.5 167.5q-2 103 78 182t184 77q97 2 168.5 -69t69.5 -169zM523 438q0 79 -54 133t-133 54q-86 0 -147.5 -61t-61.5 -147q0 -80 54 -134t135 -54q85 0 146 61.5t61 147.5zM377 402l56 -93h-62l-51 84h-36
l-15 -84h-58l44 251h96q36 0 59.5 -22.5t23.5 -56.5q0 -55 -57 -79zM304 509l-12 -66h37q46 0 46 36q0 13 -9.5 21.5t-24.5 8.5h-37z" />
    <glyph glyph-name="overscore" unicode="&#xaf;" horiz-adv-x="500" 
d="M184 642l11 62h274l-11 -62h-274z" />
    <glyph glyph-name="degree" unicode="&#xb0;" horiz-adv-x="358" 
d="M80 520q0 62 45 106t109 44q60 0 102.5 -41.5t42.5 -100.5q0 -61 -46 -106t-109 -45q-60 0 -102 41.5t-42 101.5zM314 527q0 36 -22.5 59t-57.5 23q-38 0 -63.5 -25.5t-25.5 -62.5q0 -36 23 -59.5t59 -23.5q37 0 62 25.5t25 63.5z" />
    <glyph glyph-name="plusminus" unicode="&#xb1;" 
d="M226 150l28 160h-176l13 68h176l27 158h77l-27 -158h174l-12 -68h-175l-28 -160h-77zM24 0l12 68h427l-11 -68h-428z" />
    <glyph glyph-name="uni00B2" unicode="&#xb2;" horiz-adv-x="369" 
d="M269 488l-78 -64h169l-11 -60h-292l3 15l175 153q46 42 65.5 70.5t19.5 57.5q0 30 -18.5 48t-49.5 18q-35 0 -54.5 -23.5t-19.5 -64.5v-12h-66v16q0 64 40 104.5t103 40.5q59 0 95 -33.5t36 -89.5q0 -43 -26.5 -83t-90.5 -93z" />
    <glyph glyph-name="uni00B3" unicode="&#xb3;" horiz-adv-x="354" 
d="M397 780l-3 -19l-124 -138q39 -11 63.5 -43.5t24.5 -74.5q0 -62 -45 -105t-111 -43q-53 0 -90.5 26.5t-53.5 75.5l52 28q30 -69 92 -69q40 0 64.5 23t24.5 61q0 34 -23 52t-66 18h-38l3 19l115 129h-151l11 60h255z" />
    <glyph glyph-name="acute" unicode="&#xb4;" horiz-adv-x="500" 
d="M215 566l123 214h98l-2 -14l-155 -200h-64z" />
    <glyph glyph-name="uni00B5" unicode="&#xb5;" horiz-adv-x="592" 
d="M540 58l-12 -64q-17 -4 -38 -4q-74 0 -94 58q-54 -59 -140 -59q-88 0 -128 62l-40 -231h-77l118 667h77l-50 -284q-5 -35 -5 -39q0 -47 30 -76t80 -29q53 0 91 32t48 87l55 309h77l-61 -343q-5 -30 -5 -41q0 -46 48 -46q21 0 26 1z" />
    <glyph glyph-name="paragraph" unicode="&#xb6;" horiz-adv-x="655" 
d="M78 449q0 94 66 152.5t172 58.5h60v-424h-60q-104 0 -171 60t-67 153zM268 -180v66q48 -6 65 -6q52 0 77.5 23t25.5 78v679h77v-685q0 -166 -166 -166q-35 0 -79 11z" />
    <glyph glyph-name="middot" unicode="&#xb7;" horiz-adv-x="280" 
d="M90 314q0 27 18.5 45t44.5 18t44.5 -18t18.5 -45t-18.5 -45t-44.5 -18t-44.5 18t-18.5 45z" />
    <glyph glyph-name="cedilla" unicode="&#xb8;" horiz-adv-x="500" 
d="M77 -176l9 54q40 -8 63 -8q39 0 60 20t21 56q0 34 -22 62l31 14q55 -31 55 -91q0 -52 -39 -87t-97 -35q-42 0 -81 15z" />
    <glyph glyph-name="uni00B9" unicode="&#xb9;" horiz-adv-x="352" 
d="M68 364l11 60h103l53 296h-99l11 60h165l-63 -356h90l-10 -60h-261z" />
    <glyph glyph-name="ordmasculine" unicode="&#xba;" horiz-adv-x="399" 
d="M64 389q0 70 51 120t122 50q66 0 110 -43.5t44 -108.5q0 -70 -51 -120t-122 -50q-66 0 -110 43.5t-44 108.5zM325 406q0 41 -25 66.5t-65 25.5q-45 0 -75 -31t-30 -77q0 -41 25 -66.5t65 -25.5q45 0 75 31t30 77z" />
    <glyph glyph-name="guillemotright" unicode="&#xbb;" horiz-adv-x="503" 
d="M260 71l-45 47l169 157l-114 155l56 41l145 -188l-3 -24zM63 71l-45 47l169 157l-114 155l56 41l145 -188l-3 -24z" />
    <glyph glyph-name="onequarter" unicode="&#xbc;" horiz-adv-x="905" 
d="M47 244l11 60h103l53 296h-99l11 60h165l-63 -356h90l-10 -60h-261zM215 0l494 660h68l-495 -660h-67zM868 130l-11 -57h-54l-12 -73h-63l13 73h-207l3 19l179 324h73l-159 -286h120l23 127h62l-22 -127h55z" />
    <glyph glyph-name="onehalf" unicode="&#xbd;" horiz-adv-x="941" 
d="M47 244l11 60h103l53 296h-99l11 60h165l-63 -356h90l-10 -60h-261zM215 0l494 660h68l-495 -660h-67zM777 124l-78 -64h169l-11 -60h-292l3 15l175 153q46 42 65.5 70.5t19.5 57.5q0 30 -18.5 48t-49.5 18q-35 0 -54.5 -23.5t-19.5 -64.5v-12h-66v16q0 64 40 104.5
t103 40.5q59 0 95 -33.5t36 -89.5q0 -43 -26.5 -83t-90.5 -93z" />
    <glyph glyph-name="threequarters" unicode="&#xbe;" horiz-adv-x="872" 
d="M376 660l-3 -19l-124 -138q39 -11 63.5 -43.5t24.5 -74.5q0 -62 -45 -105t-111 -43q-53 0 -90.5 26.5t-53.5 75.5l52 28q30 -69 92 -69q40 0 64.5 23t24.5 61q0 34 -23 52t-66 18h-38l3 19l115 129h-151l11 60h255zM182 0l494 660h68l-495 -660h-67zM835 130l-11 -57h-54
l-12 -73h-63l13 73h-207l3 19l179 324h73l-159 -286h120l23 127h62l-22 -127h55z" />
    <glyph glyph-name="questiondown" unicode="&#xbf;" horiz-adv-x="445" 
d="M198 435q0 27 18.5 45t44.5 18q27 0 45 -18t18 -45t-18 -45t-45 -18q-26 0 -44.5 18t-18.5 45zM-3 -43q0 49 25 85.5t101 97.5q44 35 62.5 61.5t25.5 66.5h68q-2 -50 -22.5 -86.5t-72.5 -79.5q-68 -56 -88 -81.5t-20 -59.5q0 -37 24.5 -59t64.5 -22q74 0 120 85l59 -36
q-31 -58 -79 -89t-106 -31q-72 0 -117 41t-45 107z" />
    <glyph glyph-name="Agrave" unicode="&#xc0;" horiz-adv-x="663" 
d="M514 0l-33 134h-321l-80 -134h-88l404 671h28l169 -671h-79zM463 204l-75 320l-187 -320h262zM386 724l-86 172l2 14h88l53 -186h-57z" />
    <glyph glyph-name="Aacute" unicode="&#xc1;" horiz-adv-x="663" 
d="M514 0l-33 134h-321l-80 -134h-88l404 671h28l169 -671h-79zM463 204l-75 320l-187 -320h262zM381 724l113 186h98l-2 -14l-148 -172h-61z" />
    <glyph glyph-name="Acircumflex" unicode="&#xc2;" horiz-adv-x="663" 
d="M514 0l-33 134h-321l-80 -134h-88l404 671h28l169 -671h-79zM463 204l-75 320l-187 -320h262zM583 724h-55l-91 108l-129 -108h-66l180 186h47z" />
    <glyph glyph-name="Atilde" unicode="&#xc3;" horiz-adv-x="663" 
d="M514 0l-33 134h-321l-80 -134h-88l404 671h28l169 -671h-79zM463 204l-75 320l-187 -320h262zM424 769l-31 20q-28 19 -42 19q-29 0 -35 -56h-62q5 65 27.5 95.5t66.5 30.5q39 0 77 -27l30 -21q25 -19 43 -19q17 0 24 12.5t11 44.5h62q-11 -126 -95 -126q-32 0 -76 27z
" />
    <glyph glyph-name="Adieresis" unicode="&#xc4;" horiz-adv-x="663" 
d="M514 0l-33 134h-321l-80 -134h-88l404 671h28l169 -671h-79zM463 204l-75 320l-187 -320h262zM256 810q0 22 16.5 37.5t38.5 15.5q23 0 39 -15.5t16 -37.5t-16 -37.5t-39 -15.5q-22 0 -38.5 15.5t-16.5 37.5zM489 809q0 22 16 38t39 16t39 -16t16 -38t-16 -37.5
t-39 -15.5t-39 15.5t-16 37.5z" />
    <glyph glyph-name="Aring" unicode="&#xc5;" horiz-adv-x="663" 
d="M514 0l-33 134h-321l-80 -134h-88l404 671h28l169 -671h-79zM463 204l-75 320l-187 -320h262zM319 801q0 47 34 80q35 33 83 33q46 0 76 -29.5t30 -73.5q0 -45 -35 -80q-35 -33 -82 -33q-46 0 -76 29.5t-30 73.5zM481 808q0 21 -13.5 34.5t-34.5 13.5q-22 0 -37.5 -15
t-15.5 -37q0 -21 14 -34.5t34 -13.5q22 0 37.5 15t15.5 37z" />
    <glyph glyph-name="AE" unicode="&#xc6;" horiz-adv-x="823" 
d="M830 590h-322l-2 -202h208l-12 -70h-196l-2 -248h248l-13 -70h-315l1 135h-270l-92 -135h-92l456 660h415zM428 534l-225 -329h222z" />
    <glyph glyph-name="Ccedilla" unicode="&#xc7;" horiz-adv-x="714" 
d="M66 305q-2 96 49 181.5t137.5 136t183.5 48.5q87 0 157.5 -41.5t111.5 -116.5l-64 -39q-69 125 -210 125q-116 2 -201 -85t-83 -206q0 -108 68 -177.5t173 -69.5q131 0 221 105l54 -45q-53 -63 -126 -97.5t-155 -34.5q-136 0 -226 90t-90 226zM199 -176l9 54q40 -8 63 -8
q39 0 60 20t21 56q0 34 -22 62l31 14q55 -31 55 -91q0 -52 -39 -87t-97 -35q-42 0 -81 15z" />
    <glyph glyph-name="Egrave" unicode="&#xc8;" horiz-adv-x="567" 
d="M49 0l116 660h423l-13 -70h-345l-37 -202h265l-12 -70h-264l-43 -248h357l-12 -70h-435zM355 724l-86 172l2 14h88l53 -186h-57z" />
    <glyph glyph-name="Eacute" unicode="&#xc9;" horiz-adv-x="567" 
d="M49 0l116 660h423l-13 -70h-345l-37 -202h265l-12 -70h-264l-43 -248h357l-12 -70h-435zM350 724l113 186h98l-2 -14l-148 -172h-61z" />
    <glyph glyph-name="Ecircumflex" unicode="&#xca;" horiz-adv-x="567" 
d="M49 0l116 660h423l-13 -70h-345l-37 -202h265l-12 -70h-264l-43 -248h357l-12 -70h-435zM552 724h-55l-91 108l-129 -108h-66l180 186h47z" />
    <glyph glyph-name="Edieresis" unicode="&#xcb;" horiz-adv-x="567" 
d="M49 0l116 660h423l-13 -70h-345l-37 -202h265l-12 -70h-264l-43 -248h357l-12 -70h-435zM225 810q0 22 16.5 37.5t38.5 15.5q23 0 39 -15.5t16 -37.5t-16 -37.5t-39 -15.5q-22 0 -38.5 15.5t-16.5 37.5zM458 809q0 22 16 38t39 16t39 -16t16 -38t-16 -37.5t-39 -15.5
t-39 15.5t-16 37.5z" />
    <glyph glyph-name="Igrave" unicode="&#xcc;" horiz-adv-x="259" 
d="M49 0l116 660h78l-116 -660h-78zM188 724l-86 172l2 14h88l53 -186h-57z" />
    <glyph glyph-name="Iacute" unicode="&#xcd;" horiz-adv-x="259" 
d="M49 0l116 660h78l-116 -660h-78zM182 724l113 186h98l-2 -14l-148 -172h-61z" />
    <glyph glyph-name="Icircumflex" unicode="&#xce;" horiz-adv-x="259" 
d="M49 0l116 660h78l-116 -660h-78zM385 724h-55l-91 108l-129 -108h-66l180 186h47z" />
    <glyph glyph-name="Idieresis" unicode="&#xcf;" horiz-adv-x="259" 
d="M49 0l116 660h78l-116 -660h-78zM58 810q0 22 16.5 37.5t38.5 15.5q23 0 39 -15.5t16 -37.5t-16 -37.5t-39 -15.5q-22 0 -38.5 15.5t-16.5 37.5zM291 809q0 22 16 38t39 16t39 -16t16 -38t-16 -37.5t-39 -15.5t-39 15.5t-16 37.5z" />
    <glyph glyph-name="Eth" unicode="&#xd0;" horiz-adv-x="702" 
d="M667 356q2 -156 -110 -257t-285 -99h-221l48 274h-97l12 66h97l56 320h167q148 0 240.5 -85t92.5 -219zM586 350q0 109 -71 174.5t-187 65.5h-95l-44 -250h129l-12 -66h-128l-36 -204h134q136 0 223 78.5t87 201.5z" />
    <glyph glyph-name="Ntilde" unicode="&#xd1;" horiz-adv-x="708" 
d="M613 660h78l-118 -671h-28l-331 516l-87 -505h-78l118 671h28l331 -517zM450 769l-31 20q-28 19 -42 19q-29 0 -35 -56h-62q5 65 27.5 95.5t66.5 30.5q39 0 77 -27l30 -21q25 -19 43 -19q17 0 24 12.5t11 44.5h62q-11 -126 -95 -126q-32 0 -76 27z" />
    <glyph glyph-name="Ograve" unicode="&#xd2;" horiz-adv-x="782" 
d="M66 305q-2 97 49 182.5t137 135.5t182 48q134 2 225 -90.5t89 -225.5q2 -96 -49.5 -182t-137.5 -136t-181 -48q-134 -2 -225 90.5t-89 225.5zM667 353q0 106 -67.5 176t-171.5 70q-115 2 -200 -85t-82 -205q0 -107 67.5 -177.5t170.5 -70.5q115 -2 200 86t83 206z
M445 724l-86 172l2 14h88l53 -186h-57z" />
    <glyph glyph-name="Oacute" unicode="&#xd3;" horiz-adv-x="782" 
d="M66 305q-2 97 49 182.5t137 135.5t182 48q134 2 225 -90.5t89 -225.5q2 -96 -49.5 -182t-137.5 -136t-181 -48q-134 -2 -225 90.5t-89 225.5zM667 353q0 106 -67.5 176t-171.5 70q-115 2 -200 -85t-82 -205q0 -107 67.5 -177.5t170.5 -70.5q115 -2 200 86t83 206z
M439 724l113 186h98l-2 -14l-148 -172h-61z" />
    <glyph glyph-name="Ocircumflex" unicode="&#xd4;" horiz-adv-x="782" 
d="M66 305q-2 97 49 182.5t137 135.5t182 48q134 2 225 -90.5t89 -225.5q2 -96 -49.5 -182t-137.5 -136t-181 -48q-134 -2 -225 90.5t-89 225.5zM667 353q0 106 -67.5 176t-171.5 70q-115 2 -200 -85t-82 -205q0 -107 67.5 -177.5t170.5 -70.5q115 -2 200 86t83 206z
M641 724h-55l-91 108l-129 -108h-66l180 186h47z" />
    <glyph glyph-name="Otilde" unicode="&#xd5;" horiz-adv-x="782" 
d="M66 305q-2 97 49 182.5t137 135.5t182 48q134 2 225 -90.5t89 -225.5q2 -96 -49.5 -182t-137.5 -136t-181 -48q-134 -2 -225 90.5t-89 225.5zM667 353q0 106 -67.5 176t-171.5 70q-115 2 -200 -85t-82 -205q0 -107 67.5 -177.5t170.5 -70.5q115 -2 200 86t83 206z
M482 769l-31 20q-28 19 -42 19q-29 0 -35 -56h-62q5 65 27.5 95.5t66.5 30.5q39 0 77 -27l30 -21q25 -19 43 -19q17 0 24 12.5t11 44.5h62q-11 -126 -95 -126q-32 0 -76 27z" />
    <glyph glyph-name="Odieresis" unicode="&#xd6;" horiz-adv-x="782" 
d="M66 305q-2 97 49 182.5t137 135.5t182 48q134 2 225 -90.5t89 -225.5q2 -96 -49.5 -182t-137.5 -136t-181 -48q-134 -2 -225 90.5t-89 225.5zM667 353q0 106 -67.5 176t-171.5 70q-115 2 -200 -85t-82 -205q0 -107 67.5 -177.5t170.5 -70.5q115 -2 200 86t83 206z
M314 810q0 22 16.5 37.5t38.5 15.5q23 0 39 -15.5t16 -37.5t-16 -37.5t-39 -15.5q-22 0 -38.5 15.5t-16.5 37.5zM547 809q0 22 16 38t39 16t39 -16t16 -38t-16 -37.5t-39 -15.5t-39 15.5t-16 37.5z" />
    <glyph glyph-name="multiply" unicode="&#xd7;" 
d="M420 105l-133 163l-180 -147l-41 51l180 148l-132 163l52 42l133 -163l179 146l41 -51l-180 -146l132 -165z" />
    <glyph glyph-name="Oslash" unicode="&#xd8;" horiz-adv-x="767" 
d="M760 630l-83 -79q63 -83 63 -196q2 -96 -49 -181.5t-137 -136t-182 -48.5q-117 0 -205 72l-83 -80l-47 49l83 80q-62 85 -62 195q-3 147 109 258t259 108q117 0 204 -71l83 79zM138 309q0 -80 40 -144l397 380q-64 54 -155 54q-115 2 -199.5 -85t-82.5 -205zM659 353
q0 83 -40 142l-397 -380q64 -54 154 -54q115 -2 200 86t83 206z" />
    <glyph glyph-name="Ugrave" unicode="&#xd9;" horiz-adv-x="687" 
d="M83 218q0 26 6 61l66 381h78l-67 -384q-5 -33 -5 -52q0 -71 48.5 -117t122.5 -46q73 0 128 47q53 47 67 126l74 426h78l-76 -431q-20 -111 -94 -175q-74 -65 -181 -65q-108 0 -176.5 64t-68.5 165zM402 724l-86 172l2 14h88l53 -186h-57z" />
    <glyph glyph-name="Uacute" unicode="&#xda;" horiz-adv-x="687" 
d="M83 218q0 26 6 61l66 381h78l-67 -384q-5 -33 -5 -52q0 -71 48.5 -117t122.5 -46q73 0 128 47q53 47 67 126l74 426h78l-76 -431q-20 -111 -94 -175q-74 -65 -181 -65q-108 0 -176.5 64t-68.5 165zM397 724l113 186h98l-2 -14l-148 -172h-61z" />
    <glyph glyph-name="Ucircumflex" unicode="&#xdb;" horiz-adv-x="687" 
d="M83 218q0 26 6 61l66 381h78l-67 -384q-5 -33 -5 -52q0 -71 48.5 -117t122.5 -46q73 0 128 47q53 47 67 126l74 426h78l-76 -431q-20 -111 -94 -175q-74 -65 -181 -65q-108 0 -176.5 64t-68.5 165zM599 724h-55l-91 108l-129 -108h-66l180 186h47z" />
    <glyph glyph-name="Udieresis" unicode="&#xdc;" horiz-adv-x="687" 
d="M83 218q0 26 6 61l66 381h78l-67 -384q-5 -33 -5 -52q0 -71 48.5 -117t122.5 -46q73 0 128 47q53 47 67 126l74 426h78l-76 -431q-20 -111 -94 -175q-74 -65 -181 -65q-108 0 -176.5 64t-68.5 165zM272 810q0 22 16.5 37.5t38.5 15.5q23 0 39 -15.5t16 -37.5t-16 -37.5
t-39 -15.5q-22 0 -38.5 15.5t-16.5 37.5zM505 809q0 22 16 38t39 16t39 -16t16 -38t-16 -37.5t-39 -15.5t-39 15.5t-16 37.5z" />
    <glyph glyph-name="Yacute" unicode="&#xdd;" horiz-adv-x="616" 
d="M645 660l-298 -389l-47 -271h-78l48 274l-161 386h81l128 -312l235 312h92zM355 724l113 186h98l-2 -14l-148 -172h-61z" />
    <glyph glyph-name="Thorn" unicode="&#xde;" horiz-adv-x="573" 
d="M552 360q0 -95 -66.5 -153t-175.5 -58h-157l-26 -149h-78l116 660h78l-21 -118h126q94 0 149 -49t55 -133zM471 357q0 55 -33 85t-94 30h-134l-45 -253h154q69 0 110.5 37.5t41.5 100.5z" />
    <glyph glyph-name="germandbls" unicode="&#xdf;" horiz-adv-x="614" 
d="M223 69l44 54q64 -63 132 -63q42 0 65.5 18t23.5 49q0 18 -9 30t-40 33q-12 10 -24 18q-49 37 -68 60.5t-19 51.5q0 37 31 93l62 108q33 60 33 92q0 36 -25.5 56.5t-67.5 20.5q-57 0 -95 -37t-50 -105l-95 -548h-77l97 556q16 94 77 149q62 56 149 56q74 0 119.5 -37.5
t45.5 -97.5q0 -55 -34 -116l-60 -107q-29 -53 -29 -73q0 -15 10.5 -26.5t42.5 -36.5l19 -14q46 -35 65.5 -61t19.5 -61q0 -61 -48.5 -101.5t-121.5 -40.5q-102 0 -173 80z" />
    <glyph glyph-name="agrave" unicode="&#xe0;" horiz-adv-x="629" 
d="M511 487h77l-86 -487h-72l12 65q-65 -76 -176 -76q-94 0 -156.5 66t-62.5 165q-2 115 76.5 197.5t187.5 80.5q60 0 109.5 -25.5t76.5 -68.5zM471 272q0 69 -42.5 112t-112.5 43q-79 0 -134.5 -59.5t-55.5 -142.5q0 -73 45 -119t116 -46q77 0 130.5 61.5t53.5 150.5z
M290 566l-50 200l5 14h86l14 -214h-55z" />
    <glyph glyph-name="aacute" unicode="&#xe1;" horiz-adv-x="629" 
d="M511 487h77l-86 -487h-72l12 65q-65 -76 -176 -76q-94 0 -156.5 66t-62.5 165q-2 115 76.5 197.5t187.5 80.5q60 0 109.5 -25.5t76.5 -68.5zM471 272q0 69 -42.5 112t-112.5 43q-79 0 -134.5 -59.5t-55.5 -142.5q0 -73 45 -119t116 -46q77 0 130.5 61.5t53.5 150.5z
M289 566l123 214h98l-2 -14l-155 -200h-64z" />
    <glyph glyph-name="acircumflex" unicode="&#xe2;" horiz-adv-x="629" 
d="M511 487h77l-86 -487h-72l12 65q-65 -76 -176 -76q-94 0 -156.5 66t-62.5 165q-2 115 76.5 197.5t187.5 80.5q60 0 109.5 -25.5t76.5 -68.5zM471 272q0 69 -42.5 112t-112.5 43q-79 0 -134.5 -59.5t-55.5 -142.5q0 -73 45 -119t116 -46q77 0 130.5 61.5t53.5 150.5z
M490 566h-55l-77 129l-124 -129h-62l173 214h47z" />
    <glyph glyph-name="atilde" unicode="&#xe3;" horiz-adv-x="629" 
d="M511 487h77l-86 -487h-72l12 65q-65 -76 -176 -76q-94 0 -156.5 66t-62.5 165q-2 115 76.5 197.5t187.5 80.5q60 0 109.5 -25.5t76.5 -68.5zM471 272q0 69 -42.5 112t-112.5 43q-79 0 -134.5 -59.5t-55.5 -142.5q0 -73 45 -119t116 -46q77 0 130.5 61.5t53.5 150.5z
M346 625l-24 22q-23 22 -38 22q-17 0 -25 -14t-12 -46h-62q12 129 95 129q38 0 70 -29l24 -22q23 -22 38 -22q17 0 25 14t12 46h62q-13 -129 -94 -129q-37 0 -71 29z" />
    <glyph glyph-name="adieresis" unicode="&#xe4;" horiz-adv-x="629" 
d="M511 487h77l-86 -487h-72l12 65q-65 -76 -176 -76q-94 0 -156.5 66t-62.5 165q-2 115 76.5 197.5t187.5 80.5q60 0 109.5 -25.5t76.5 -68.5zM471 272q0 69 -42.5 112t-112.5 43q-79 0 -134.5 -59.5t-55.5 -142.5q0 -73 45 -119t116 -46q77 0 130.5 61.5t53.5 150.5z
M181 673q0 22 16.5 37.5t38.5 15.5q23 0 39.5 -15.5t16.5 -37.5t-16.5 -37.5t-39.5 -15.5q-22 0 -38.5 15.5t-16.5 37.5zM403 673q0 22 16.5 37.5t39.5 15.5t39 -15.5t16 -37.5t-16 -37.5t-39 -15.5t-39.5 15.5t-16.5 37.5z" />
    <glyph glyph-name="aring" unicode="&#xe5;" horiz-adv-x="629" 
d="M511 487h77l-86 -487h-72l12 65q-65 -76 -176 -76q-94 0 -156.5 66t-62.5 165q-2 115 76.5 197.5t187.5 80.5q60 0 109.5 -25.5t76.5 -68.5zM471 272q0 69 -42.5 112t-112.5 43q-79 0 -134.5 -59.5t-55.5 -142.5q0 -73 45 -119t116 -46q77 0 130.5 61.5t53.5 150.5z
M246 663q0 47 33 80q35 33 83 33q45 0 75 -29t30 -73q0 -48 -34 -81t-82 -33q-45 0 -75 29.5t-30 73.5zM406 671q0 21 -13 35t-34 14q-22 0 -37.5 -16t-15.5 -38q0 -21 13.5 -35t34.5 -14t36.5 15.5t15.5 38.5z" />
    <glyph glyph-name="ae" unicode="&#xe6;" horiz-adv-x="890" 
d="M836 210h-381q5 -69 50 -109.5t118 -40.5q78 0 150 59l39 -52q-81 -78 -196 -78q-68 0 -122 31t-83 85q-29 -54 -86.5 -85t-129.5 -31q-80 0 -124.5 35t-44.5 97q0 71 53.5 112t145.5 41h156l1 5q4 20 4 51q0 46 -29.5 71.5t-83.5 25.5q-70 0 -142 -61l-38 56
q82 76 189 76q62 0 105 -25t60 -70q76 95 194 95q90 0 148.5 -60t58.5 -152q0 -46 -12 -76zM458 274h312v17q0 64 -36 100.5t-99 36.5q-68 0 -116 -42.5t-61 -111.5zM364 175l6 35h-145q-120 0 -120 -81q0 -36 26.5 -56.5t72.5 -20.5q58 0 105 35q46 34 55 88z" />
    <glyph glyph-name="ccedilla" unicode="&#xe7;" horiz-adv-x="558" 
d="M48 228q-2 110 79.5 191t191.5 79q66 0 120 -30.5t84 -84.5l-59 -39q-53 83 -147 83q-80 0 -135 -57t-55 -138q0 -75 47 -124t119 -49q90 0 148 70l50 -46q-74 -94 -201 -94q-104 0 -173 68t-69 171zM107 -176l9 54q40 -8 63 -8q39 0 60 20t21 56q0 34 -22 62l31 14
q55 -31 55 -91q0 -52 -39 -87t-97 -35q-42 0 -81 15z" />
    <glyph glyph-name="egrave" unicode="&#xe8;" horiz-adv-x="563" 
d="M510 220h-383q4 -74 49.5 -117t120.5 -43q78 0 150 59l39 -52q-81 -78 -196 -78q-105 0 -173.5 67.5t-68.5 171.5q-2 109 77.5 190.5t186.5 79.5q93 0 151.5 -60t58.5 -156q0 -34 -12 -62zM133 288h311q-1 66 -37 103t-99 37q-65 0 -112 -38t-63 -102zM284 566l-50 200
l5 14h86l14 -214h-55z" />
    <glyph glyph-name="eacute" unicode="&#xe9;" horiz-adv-x="563" 
d="M510 220h-383q4 -74 49.5 -117t120.5 -43q78 0 150 59l39 -52q-81 -78 -196 -78q-105 0 -173.5 67.5t-68.5 171.5q-2 109 77.5 190.5t186.5 79.5q93 0 151.5 -60t58.5 -156q0 -34 -12 -62zM133 288h311q-1 66 -37 103t-99 37q-65 0 -112 -38t-63 -102zM284 566l123 214
h98l-2 -14l-155 -200h-64z" />
    <glyph glyph-name="ecircumflex" unicode="&#xea;" horiz-adv-x="563" 
d="M510 220h-383q4 -74 49.5 -117t120.5 -43q78 0 150 59l39 -52q-81 -78 -196 -78q-105 0 -173.5 67.5t-68.5 171.5q-2 109 77.5 190.5t186.5 79.5q93 0 151.5 -60t58.5 -156q0 -34 -12 -62zM133 288h311q-1 66 -37 103t-99 37q-65 0 -112 -38t-63 -102zM484 566h-55
l-77 129l-124 -129h-62l173 214h47z" />
    <glyph glyph-name="edieresis" unicode="&#xeb;" horiz-adv-x="563" 
d="M510 220h-383q4 -74 49.5 -117t120.5 -43q78 0 150 59l39 -52q-81 -78 -196 -78q-105 0 -173.5 67.5t-68.5 171.5q-2 109 77.5 190.5t186.5 79.5q93 0 151.5 -60t58.5 -156q0 -34 -12 -62zM133 288h311q-1 66 -37 103t-99 37q-65 0 -112 -38t-63 -102zM175 673
q0 22 16.5 37.5t38.5 15.5q23 0 39.5 -15.5t16.5 -37.5t-16.5 -37.5t-39.5 -15.5q-22 0 -38.5 15.5t-16.5 37.5zM397 673q0 22 16.5 37.5t39.5 15.5t39 -15.5t16 -37.5t-16 -37.5t-39 -15.5t-39.5 15.5t-16.5 37.5z" />
    <glyph glyph-name="igrave" unicode="&#xec;" horiz-adv-x="246" 
d="M43 0l86 487h77l-86 -487h-77zM152 566l-52 200l2 14h90l18 -214h-58z" />
    <glyph glyph-name="iacute" unicode="&#xed;" horiz-adv-x="246" 
d="M43 0l86 487h77l-86 -487h-77zM151 566l93 214h98l-2 -14l-127 -200h-62z" />
    <glyph glyph-name="icircumflex" unicode="&#xee;" horiz-adv-x="246" 
d="M43 0l86 487h77l-86 -487h-77zM337 566h-55l-77 129l-124 -129h-62l173 214h47z" />
    <glyph glyph-name="idieresis" unicode="&#xef;" horiz-adv-x="246" 
d="M43 0l86 487h77l-86 -487h-77zM46 674q0 22 16.5 37.5t39.5 15.5t39 -15.5t16 -37.5t-16 -37.5t-39 -15.5t-39.5 15.5t-16.5 37.5zM232 674q0 22 16.5 37.5t38.5 15.5q23 0 39.5 -15.5t16.5 -37.5t-16.5 -37.5t-39.5 -15.5q-22 0 -38.5 15.5t-16.5 37.5z" />
    <glyph glyph-name="eth" unicode="&#xf0;" horiz-adv-x="566" 
d="M514 233q2 -97 -74 -171.5t-176 -72.5q-94 0 -156.5 61.5t-62.5 153.5q-2 95 71.5 167t171.5 70q34 0 67 -10l-87 143l-158 -64l-21 59l147 59l-57 94l63 39l64 -105l161 65l21 -57l-150 -61l92 -151q46 -77 65 -125t19 -94zM435 229q0 62 -41 103t-103 41
q-69 0 -118 -49t-49 -118q0 -64 41 -105t104 -41q69 0 117.5 49.5t48.5 119.5z" />
    <glyph glyph-name="ntilde" unicode="&#xf1;" horiz-adv-x="566" 
d="M503 338q0 -20 -6 -54l-50 -284h-77l51 286q5 30 5 41q0 48 -29 74.5t-78 26.5q-55 0 -95 -32.5t-49 -87.5l-54 -308h-77l85 487h72l-8 -47q58 58 144 58q75 0 120.5 -44.5t45.5 -115.5zM351 625l-24 22q-23 22 -38 22q-17 0 -25 -14t-12 -46h-62q12 129 95 129
q38 0 70 -29l24 -22q23 -22 38 -22q17 0 25 14t12 46h62q-13 -129 -94 -129q-37 0 -71 29z" />
    <glyph glyph-name="ograve" unicode="&#xf2;" horiz-adv-x="609" 
d="M49 231q-2 107 79.5 188t190.5 79q103 0 173 -69.5t70 -172.5q2 -107 -80 -188t-192 -79q-103 0 -172 69.5t-69 172.5zM483 256q0 72 -47.5 121.5t-119.5 49.5q-79 0 -133.5 -57t-54.5 -139q0 -76 46 -123q47 -48 119 -48q80 0 135 57t55 139zM290 566l-50 200l5 14h86
l14 -214h-55z" />
    <glyph glyph-name="oacute" unicode="&#xf3;" horiz-adv-x="609" 
d="M49 231q-2 107 79.5 188t190.5 79q103 0 173 -69.5t70 -172.5q2 -107 -80 -188t-192 -79q-103 0 -172 69.5t-69 172.5zM483 256q0 72 -47.5 121.5t-119.5 49.5q-79 0 -133.5 -57t-54.5 -139q0 -76 46 -123q47 -48 119 -48q80 0 135 57t55 139zM290 566l123 214h98l-2 -14
l-155 -200h-64z" />
    <glyph glyph-name="ocircumflex" unicode="&#xf4;" horiz-adv-x="609" 
d="M49 231q-2 107 79.5 188t190.5 79q103 0 173 -69.5t70 -172.5q2 -107 -80 -188t-192 -79q-103 0 -172 69.5t-69 172.5zM483 256q0 72 -47.5 121.5t-119.5 49.5q-79 0 -133.5 -57t-54.5 -139q0 -76 46 -123q47 -48 119 -48q80 0 135 57t55 139zM490 566h-55l-77 129
l-124 -129h-62l173 214h47z" />
    <glyph glyph-name="otilde" unicode="&#xf5;" horiz-adv-x="609" 
d="M49 231q-2 107 79.5 188t190.5 79q103 0 173 -69.5t70 -172.5q2 -107 -80 -188t-192 -79q-103 0 -172 69.5t-69 172.5zM483 256q0 72 -47.5 121.5t-119.5 49.5q-79 0 -133.5 -57t-54.5 -139q0 -76 46 -123q47 -48 119 -48q80 0 135 57t55 139zM346 625l-24 22
q-23 22 -38 22q-17 0 -25 -14t-12 -46h-62q12 129 95 129q38 0 70 -29l24 -22q23 -22 38 -22q17 0 25 14t12 46h62q-13 -129 -94 -129q-37 0 -71 29z" />
    <glyph glyph-name="odieresis" unicode="&#xf6;" horiz-adv-x="609" 
d="M49 231q-2 107 79.5 188t190.5 79q103 0 173 -69.5t70 -172.5q2 -107 -80 -188t-192 -79q-103 0 -172 69.5t-69 172.5zM483 256q0 72 -47.5 121.5t-119.5 49.5q-79 0 -133.5 -57t-54.5 -139q0 -76 46 -123q47 -48 119 -48q80 0 135 57t55 139zM181 673q0 22 16.5 37.5
t38.5 15.5q23 0 39.5 -15.5t16.5 -37.5t-16.5 -37.5t-39.5 -15.5q-22 0 -38.5 15.5t-16.5 37.5zM403 673q0 22 16.5 37.5t39.5 15.5t39 -15.5t16 -37.5t-16 -37.5t-39 -15.5t-39.5 15.5t-16.5 37.5z" />
    <glyph glyph-name="divide" unicode="&#xf7;" 
d="M270 491q0 23 16 38.5t39 15.5t39 -15.5t16 -38.5q0 -22 -16 -37.5t-39 -15.5t-39 15.5t-16 37.5zM64 281l11 68h446l-11 -68h-446zM207 135q0 23 16 38t39 15t39 -15t16 -38q0 -22 -16 -37.5t-39 -15.5t-39 15.5t-16 37.5z" />
    <glyph glyph-name="oslash" unicode="&#xf8;" horiz-adv-x="614" 
d="M573 453l-59 -58q48 -62 48 -143q2 -106 -80.5 -185.5t-191.5 -77.5q-83 0 -145 46l-58 -58l-47 48l57 56q-47 62 -47 144q-2 106 80 186t189 78q83 0 148 -47l60 58zM129 227q0 -53 26 -94l260 255q-41 31 -99 31q-77 0 -132 -56.5t-55 -135.5zM482 249q0 52 -25 93
l-259 -255q40 -28 95 -28q78 0 133.5 55.5t55.5 134.5z" />
    <glyph glyph-name="ugrave" unicode="&#xf9;" horiz-adv-x="559" 
d="M69 166q0 22 4 42l48 279h77l-51 -289q-2 -14 -2 -29q0 -48 32.5 -78.5t83.5 -30.5t87 31t46 83l54 313h77l-55 -315q-15 -84 -73 -133q-59 -50 -140 -50q-82 0 -135 50t-53 127zM293 566l-50 200l5 14h86l14 -214h-55z" />
    <glyph glyph-name="uacute" unicode="&#xfa;" horiz-adv-x="559" 
d="M69 166q0 22 4 42l48 279h77l-51 -289q-2 -14 -2 -29q0 -48 32.5 -78.5t83.5 -30.5t87 31t46 83l54 313h77l-55 -315q-15 -84 -73 -133q-59 -50 -140 -50q-82 0 -135 50t-53 127zM293 566l123 214h98l-2 -14l-155 -200h-64z" />
    <glyph glyph-name="ucircumflex" unicode="&#xfb;" horiz-adv-x="559" 
d="M69 166q0 22 4 42l48 279h77l-51 -289q-2 -14 -2 -29q0 -48 32.5 -78.5t83.5 -30.5t87 31t46 83l54 313h77l-55 -315q-15 -84 -73 -133q-59 -50 -140 -50q-82 0 -135 50t-53 127zM493 566h-55l-77 129l-124 -129h-62l173 214h47z" />
    <glyph glyph-name="udieresis" unicode="&#xfc;" horiz-adv-x="559" 
d="M69 166q0 22 4 42l48 279h77l-51 -289q-2 -14 -2 -29q0 -48 32.5 -78.5t83.5 -30.5t87 31t46 83l54 313h77l-55 -315q-15 -84 -73 -133q-59 -50 -140 -50q-82 0 -135 50t-53 127zM184 673q0 22 16.5 37.5t38.5 15.5q23 0 39.5 -15.5t16.5 -37.5t-16.5 -37.5t-39.5 -15.5
q-22 0 -38.5 15.5t-16.5 37.5zM406 673q0 22 16.5 37.5t39.5 15.5t39 -15.5t16 -37.5t-16 -37.5t-39 -15.5t-39.5 15.5t-16.5 37.5z" />
    <glyph glyph-name="yacute" unicode="&#xfd;" horiz-adv-x="564" 
d="M446 487h77l-85 -483q-16 -90 -76 -142.5t-146 -52.5q-63 0 -118 29.5t-89 82.5l51 49q63 -90 156 -90q58 0 96 33t49 94l8 47q-57 -52 -137 -52q-74 0 -119.5 43.5t-45.5 115.5q0 19 6 54l48 272h77l-50 -274q-5 -30 -5 -41q0 -47 29 -73.5t79 -26.5q54 0 93.5 32
t49.5 87zM289 566l123 214h98l-2 -14l-155 -200h-64z" />
    <glyph glyph-name="thorn" unicode="&#xfe;" horiz-adv-x="630" 
d="M583 264q2 -113 -76 -195t-185 -80q-61 0 -111.5 27t-75.5 72l-47 -268h-77l164 930h77l-57 -323q65 71 169 71q94 0 156.5 -67t62.5 -167zM504 257q0 74 -45.5 122t-116.5 48q-76 0 -130 -61.5t-54 -147.5q0 -70 44.5 -114t114.5 -44q77 0 132 58t55 139z" />
    <glyph glyph-name="ydieresis" unicode="&#xff;" horiz-adv-x="564" 
d="M446 487h77l-85 -483q-16 -90 -76 -142.5t-146 -52.5q-63 0 -118 29.5t-89 82.5l51 49q63 -90 156 -90q58 0 96 33t49 94l8 47q-57 -52 -137 -52q-74 0 -119.5 43.5t-45.5 115.5q0 19 6 54l48 272h77l-50 -274q-5 -30 -5 -41q0 -47 29 -73.5t79 -26.5q54 0 93.5 32
t49.5 87zM180 673q0 22 16.5 37.5t38.5 15.5q23 0 39.5 -15.5t16.5 -37.5t-16.5 -37.5t-39.5 -15.5q-22 0 -38.5 15.5t-16.5 37.5zM402 673q0 22 16.5 37.5t39.5 15.5t39 -15.5t16 -37.5t-16 -37.5t-39 -15.5t-39.5 15.5t-16.5 37.5z" />
    <glyph glyph-name="Amacron" unicode="&#x100;" horiz-adv-x="663" 
d="M514 0l-33 134h-321l-80 -134h-88l404 671h28l169 -671h-79zM463 204l-75 320l-187 -320h262zM275 770l11 63h294l-11 -63h-294z" />
    <glyph glyph-name="amacron" unicode="&#x101;" horiz-adv-x="629" 
d="M511 487h77l-86 -487h-72l12 65q-65 -76 -176 -76q-94 0 -156.5 66t-62.5 165q-2 115 76.5 197.5t187.5 80.5q60 0 109.5 -25.5t76.5 -68.5zM471 272q0 69 -42.5 112t-112.5 43q-79 0 -134.5 -59.5t-55.5 -142.5q0 -73 45 -119t116 -46q77 0 130.5 61.5t53.5 150.5z
M210 642l11 62h274l-11 -62h-274z" />
    <glyph glyph-name="Abreve" unicode="&#x102;" horiz-adv-x="663" 
d="M514 0l-33 134h-321l-80 -134h-88l404 671h28l169 -671h-79zM463 204l-75 320l-187 -320h262zM290 862q0 10 6 48h63q-5 -32 -5 -42q0 -37 22 -59.5t59 -22.5t62.5 24.5t32.5 68.5l5 31h63l-5 -31q-11 -71 -54 -112t-106 -41q-62 0 -102.5 38.5t-40.5 97.5z" />
    <glyph glyph-name="abreve" unicode="&#x103;" horiz-adv-x="629" 
d="M511 487h77l-86 -487h-72l12 65q-65 -76 -176 -76q-94 0 -156.5 66t-62.5 165q-2 115 76.5 197.5t187.5 80.5q60 0 109.5 -25.5t76.5 -68.5zM471 272q0 69 -42.5 112t-112.5 43q-79 0 -134.5 -59.5t-55.5 -142.5q0 -73 45 -119t116 -46q77 0 130.5 61.5t53.5 150.5z
M202 708q0 19 7 54h63q-6 -30 -6 -48q0 -37 22 -59t59 -22t62 24t33 68l6 37h63l-6 -37q-12 -71 -54.5 -111.5t-105.5 -40.5q-62 0 -102.5 38t-40.5 97z" />
    <glyph glyph-name="Aogonek" unicode="&#x104;" horiz-adv-x="663" 
d="M514 0l-33 134h-321l-80 -134h-88l404 671h28l169 -671h-79zM463 204l-75 320l-187 -320h262zM392 -109q0 41 39 73q41 33 136 71l25 -35l-66 -34q-55 -30 -55 -62q0 -33 56 -33q1 0 43 2l-10 -57q-28 -7 -61 -7q-50 0 -78.5 22t-28.5 60z" />
    <glyph glyph-name="aogonek" unicode="&#x105;" horiz-adv-x="629" 
d="M511 487h77l-86 -487h-72l12 65q-65 -76 -176 -76q-94 0 -156.5 66t-62.5 165q-2 115 76.5 197.5t187.5 80.5q60 0 109.5 -25.5t76.5 -68.5zM471 272q0 69 -42.5 112t-112.5 43q-79 0 -134.5 -59.5t-55.5 -142.5q0 -73 45 -119t116 -46q77 0 130.5 61.5t53.5 150.5z
M302 -109q0 41 39 73q41 33 136 71l25 -35l-66 -34q-55 -30 -55 -62q0 -33 56 -33q1 0 43 2l-10 -57q-28 -7 -61 -7q-50 0 -78.5 22t-28.5 60z" />
    <glyph glyph-name="Cacute" unicode="&#x106;" horiz-adv-x="714" 
d="M66 305q-2 96 49 181.5t137.5 136t183.5 48.5q87 0 157.5 -41.5t111.5 -116.5l-64 -39q-69 125 -210 125q-116 2 -201 -85t-83 -206q0 -108 68 -177.5t173 -69.5q131 0 221 105l54 -45q-53 -63 -126 -97.5t-155 -34.5q-136 0 -226 90t-90 226zM445 724l113 186h98l-2 -14
l-148 -172h-61z" />
    <glyph glyph-name="cacute" unicode="&#x107;" horiz-adv-x="558" 
d="M48 228q-2 110 79.5 191t191.5 79q66 0 120 -30.5t84 -84.5l-59 -39q-53 83 -147 83q-80 0 -135 -57t-55 -138q0 -75 47 -124t119 -49q90 0 148 70l50 -46q-74 -94 -201 -94q-104 0 -173 68t-69 171zM290 566l123 214h98l-2 -14l-155 -200h-64z" />
    <glyph glyph-name="Ccircumflex" unicode="&#x108;" horiz-adv-x="714" 
d="M66 305q-2 96 49 181.5t137.5 136t183.5 48.5q87 0 157.5 -41.5t111.5 -116.5l-64 -39q-69 125 -210 125q-116 2 -201 -85t-83 -206q0 -108 68 -177.5t173 -69.5q131 0 221 105l54 -45q-53 -63 -126 -97.5t-155 -34.5q-136 0 -226 90t-90 226zM647 724h-55l-91 108
l-129 -108h-66l180 186h47z" />
    <glyph glyph-name="ccircumflex" unicode="&#x109;" horiz-adv-x="558" 
d="M48 228q-2 110 79.5 191t191.5 79q66 0 120 -30.5t84 -84.5l-59 -39q-53 83 -147 83q-80 0 -135 -57t-55 -138q0 -75 47 -124t119 -49q90 0 148 70l50 -46q-74 -94 -201 -94q-104 0 -173 68t-69 171zM490 566h-55l-77 129l-124 -129h-62l173 214h47z" />
    <glyph glyph-name="Cdotaccent" unicode="&#x10a;" horiz-adv-x="714" 
d="M66 305q-2 96 49 181.5t137.5 136t183.5 48.5q87 0 157.5 -41.5t111.5 -116.5l-64 -39q-69 125 -210 125q-116 2 -201 -85t-83 -206q0 -108 68 -177.5t173 -69.5q131 0 221 105l54 -45q-53 -63 -126 -97.5t-155 -34.5q-136 0 -226 90t-90 226zM435 810q0 23 17 39.5
t40 16.5q24 0 41 -16.5t17 -39.5q0 -24 -17 -40t-41 -16t-40.5 16t-16.5 40z" />
    <glyph glyph-name="cdotaccent" unicode="&#x10b;" horiz-adv-x="558" 
d="M48 228q-2 110 79.5 191t191.5 79q66 0 120 -30.5t84 -84.5l-59 -39q-53 83 -147 83q-80 0 -135 -57t-55 -138q0 -75 47 -124t119 -49q90 0 148 70l50 -46q-74 -94 -201 -94q-104 0 -173 68t-69 171zM296 673q0 23 17 39.5t40 16.5q24 0 41 -16.5t17 -39.5q0 -24 -17 -40
t-41 -16t-40.5 16t-16.5 40z" />
    <glyph glyph-name="Ccaron" unicode="&#x10c;" horiz-adv-x="714" 
d="M66 305q-2 96 49 181.5t137.5 136t183.5 48.5q87 0 157.5 -41.5t111.5 -116.5l-64 -39q-69 125 -210 125q-116 2 -201 -85t-83 -206q0 -108 68 -177.5t173 -69.5q131 0 221 105l54 -45q-53 -63 -126 -97.5t-155 -34.5q-136 0 -226 90t-90 226zM614 910h66l-180 -186h-47
l-114 186h56l88 -109z" />
    <glyph glyph-name="ccaron" unicode="&#x10d;" horiz-adv-x="558" 
d="M48 228q-2 110 79.5 191t191.5 79q66 0 120 -30.5t84 -84.5l-59 -39q-53 83 -147 83q-80 0 -135 -57t-55 -138q0 -75 47 -124t119 -49q90 0 148 70l50 -46q-74 -94 -201 -94q-104 0 -173 68t-69 171zM469 780h62l-173 -214h-47l-98 214h54l77 -129z" />
    <glyph glyph-name="Dcaron" unicode="&#x10e;" horiz-adv-x="698" 
d="M49 0l116 660h166q148 0 240.5 -85t92.5 -219q2 -154 -111 -256t-284 -100h-220zM139 70h135q137 0 223 78t86 202q0 109 -71 174.5t-187 65.5h-95zM502 910h66l-180 -186h-47l-114 186h56l88 -109z" />
    <glyph glyph-name="dcaron" unicode="&#x10f;" horiz-adv-x="746" 
d="M558 750h77l-132 -750h-72l12 65q-65 -76 -176 -76q-94 0 -156.5 66t-62.5 167q-2 114 76 196t186 80q61 0 110.5 -25.5t75.5 -69.5zM472 267q0 72 -43.5 116t-113.5 44q-77 0 -132.5 -58.5t-55.5 -139.5q0 -75 45 -122t116 -47q77 0 130.5 60.5t53.5 146.5zM703 543
l50 207h83l-76 -207h-57z" />
    <glyph glyph-name="Dcroat" unicode="&#x110;" horiz-adv-x="702" 
d="M667 356q2 -156 -110 -257t-285 -99h-221l48 274h-97l12 66h97l56 320h167q148 0 240.5 -85t92.5 -219zM586 350q0 109 -71 174.5t-187 65.5h-95l-44 -250h129l-12 -66h-128l-36 -204h134q136 0 223 78.5t87 201.5z" />
    <glyph glyph-name="dslash" unicode="&#x111;" horiz-adv-x="633" 
d="M699 645l-11 -64h-84l-102 -581h-72l11 64q-64 -75 -174 -75q-96 0 -158 65t-62 165q0 110 76 187t186 77q62 0 110.5 -27t72.5 -73l36 198h-218l11 64h218l19 105h76l-18 -105h83zM472 262q0 68 -44 110.5t-115 42.5q-77 0 -131 -55t-54 -134q0 -75 43.5 -121.5
t114.5 -46.5q75 0 130.5 61t55.5 143z" />
    <glyph glyph-name="Emacron" unicode="&#x112;" horiz-adv-x="567" 
d="M49 0l116 660h423l-13 -70h-345l-37 -202h265l-12 -70h-264l-43 -248h357l-12 -70h-435zM244 770l11 63h294l-11 -63h-294z" />
    <glyph glyph-name="emacron" unicode="&#x113;" horiz-adv-x="563" 
d="M510 220h-383q4 -74 49.5 -117t120.5 -43q78 0 150 59l39 -52q-81 -78 -196 -78q-105 0 -173.5 67.5t-68.5 171.5q-2 109 77.5 190.5t186.5 79.5q93 0 151.5 -60t58.5 -156q0 -34 -12 -62zM133 288h311q-1 66 -37 103t-99 37q-65 0 -112 -38t-63 -102zM204 642l11 62h274
l-11 -62h-274z" />
    <glyph glyph-name="Ebreve" unicode="&#x114;" horiz-adv-x="567" 
d="M49 0l116 660h423l-13 -70h-345l-37 -202h265l-12 -70h-264l-43 -248h357l-12 -70h-435zM259 862q0 10 6 48h63q-5 -32 -5 -42q0 -37 22 -59.5t59 -22.5t62.5 24.5t32.5 68.5l5 31h63l-5 -31q-11 -71 -54 -112t-106 -41q-62 0 -102.5 38.5t-40.5 97.5z" />
    <glyph glyph-name="ebreve" unicode="&#x115;" horiz-adv-x="563" 
d="M510 220h-383q4 -74 49.5 -117t120.5 -43q78 0 150 59l39 -52q-81 -78 -196 -78q-105 0 -173.5 67.5t-68.5 171.5q-2 109 77.5 190.5t186.5 79.5q93 0 151.5 -60t58.5 -156q0 -34 -12 -62zM133 288h311q-1 66 -37 103t-99 37q-65 0 -112 -38t-63 -102zM197 708q0 19 7 54
h63q-6 -30 -6 -48q0 -37 22 -59t59 -22t62 24t33 68l6 37h63l-6 -37q-12 -71 -54.5 -111.5t-105.5 -40.5q-62 0 -102.5 38t-40.5 97z" />
    <glyph glyph-name="Edotaccent" unicode="&#x116;" horiz-adv-x="567" 
d="M49 0l116 660h423l-13 -70h-345l-37 -202h265l-12 -70h-264l-43 -248h357l-12 -70h-435zM340 810q0 23 17 39.5t40 16.5q24 0 41 -16.5t17 -39.5q0 -24 -17 -40t-41 -16t-40.5 16t-16.5 40z" />
    <glyph glyph-name="edotaccent" unicode="&#x117;" horiz-adv-x="563" 
d="M510 220h-383q4 -74 49.5 -117t120.5 -43q78 0 150 59l39 -52q-81 -78 -196 -78q-105 0 -173.5 67.5t-68.5 171.5q-2 109 77.5 190.5t186.5 79.5q93 0 151.5 -60t58.5 -156q0 -34 -12 -62zM133 288h311q-1 66 -37 103t-99 37q-65 0 -112 -38t-63 -102zM290 673
q0 23 17 39.5t40 16.5q24 0 41 -16.5t17 -39.5q0 -24 -17 -40t-41 -16t-40.5 16t-16.5 40z" />
    <glyph glyph-name="Eogonek" unicode="&#x118;" horiz-adv-x="567" 
d="M49 0l116 660h423l-13 -70h-345l-37 -202h265l-12 -70h-264l-43 -248h357l-12 -70h-435zM283 -109q0 41 39 73q41 33 136 71l25 -35l-66 -34q-55 -30 -55 -62q0 -33 56 -33q1 0 43 2l-10 -57q-28 -7 -61 -7q-50 0 -78.5 22t-28.5 60z" />
    <glyph glyph-name="eogonek" unicode="&#x119;" horiz-adv-x="563" 
d="M510 220h-383q4 -74 49.5 -117t120.5 -43q78 0 150 59l39 -52q-81 -78 -196 -78q-105 0 -173.5 67.5t-68.5 171.5q-2 109 77.5 190.5t186.5 79.5q93 0 151.5 -60t58.5 -156q0 -34 -12 -62zM133 288h311q-1 66 -37 103t-99 37q-65 0 -112 -38t-63 -102zM267 -109
q0 67 149 177l70 -1l-92 -91q-28 -28 -37.5 -42.5t-9.5 -29.5q0 -33 56 -33q1 0 43 2l-10 -57q-29 -7 -61 -7q-51 0 -79.5 21.5t-28.5 60.5z" />
    <glyph glyph-name="Ecaron" unicode="&#x11a;" horiz-adv-x="567" 
d="M49 0l116 660h423l-13 -70h-345l-37 -202h265l-12 -70h-264l-43 -248h357l-12 -70h-435zM519 910h66l-180 -186h-47l-114 186h56l88 -109z" />
    <glyph glyph-name="ecaron" unicode="&#x11b;" horiz-adv-x="563" 
d="M510 220h-383q4 -74 49.5 -117t120.5 -43q78 0 150 59l39 -52q-81 -78 -196 -78q-105 0 -173.5 67.5t-68.5 171.5q-2 109 77.5 190.5t186.5 79.5q93 0 151.5 -60t58.5 -156q0 -34 -12 -62zM133 288h311q-1 66 -37 103t-99 37q-65 0 -112 -38t-63 -102zM463 780h62
l-173 -214h-47l-98 214h54l77 -129z" />
    <glyph glyph-name="Gcircumflex" unicode="&#x11c;" horiz-adv-x="748" 
d="M66 305q-2 96 49 181.5t137.5 136t183.5 48.5q85 0 154 -39t111 -110l-60 -44q-71 121 -210 121q-116 2 -201 -85t-83 -206q0 -108 67.5 -177.5t174.5 -69.5q126 0 213 98l19 107h-224l13 70h302l-35 -197q-49 -70 -128 -110t-167 -40q-136 0 -226 90t-90 226zM646 724
h-55l-91 108l-129 -108h-66l180 186h47z" />
    <glyph glyph-name="gcircumflex" unicode="&#x11d;" horiz-adv-x="630" 
d="M511 487h77l-81 -460q-18 -102 -87 -160t-172 -58q-70 0 -131 29.5t-102 82.5l50 48q69 -89 183 -89q74 0 122.5 40t60.5 110l7 40q-68 -65 -172 -65q-95 0 -157 61.5t-62 155.5q-2 113 77 195.5t188 80.5q60 0 109 -26t76 -69zM474 271q0 69 -44 112.5t-114 43.5
q-80 0 -135 -57t-55 -140q0 -69 44 -111.5t116 -42.5q80 0 134 56t54 139zM479 566h-55l-77 129l-124 -129h-62l173 214h47z" />
    <glyph glyph-name="Gbreve" unicode="&#x11e;" horiz-adv-x="748" 
d="M66 305q-2 96 49 181.5t137.5 136t183.5 48.5q85 0 154 -39t111 -110l-60 -44q-71 121 -210 121q-116 2 -201 -85t-83 -206q0 -108 67.5 -177.5t174.5 -69.5q126 0 213 98l19 107h-224l13 70h302l-35 -197q-49 -70 -128 -110t-167 -40q-136 0 -226 90t-90 226zM353 862
q0 10 6 48h63q-5 -32 -5 -42q0 -37 22 -59.5t59 -22.5t62.5 24.5t32.5 68.5l5 31h63l-5 -31q-11 -71 -54 -112t-106 -41q-62 0 -102.5 38.5t-40.5 97.5z" />
    <glyph glyph-name="gbreve" unicode="&#x11f;" horiz-adv-x="630" 
d="M511 487h77l-81 -460q-18 -102 -87 -160t-172 -58q-70 0 -131 29.5t-102 82.5l50 48q69 -89 183 -89q74 0 122.5 40t60.5 110l7 40q-68 -65 -172 -65q-95 0 -157 61.5t-62 155.5q-2 113 77 195.5t188 80.5q60 0 109 -26t76 -69zM474 271q0 69 -44 112.5t-114 43.5
q-80 0 -135 -57t-55 -140q0 -69 44 -111.5t116 -42.5q80 0 134 56t54 139zM192 708q0 19 7 54h63q-6 -30 -6 -48q0 -37 22 -59t59 -22t62 24t33 68l6 37h63l-6 -37q-12 -71 -54.5 -111.5t-105.5 -40.5q-62 0 -102.5 38t-40.5 97z" />
    <glyph glyph-name="Gdotaccent" unicode="&#x120;" horiz-adv-x="748" 
d="M66 305q-2 96 49 181.5t137.5 136t183.5 48.5q85 0 154 -39t111 -110l-60 -44q-71 121 -210 121q-116 2 -201 -85t-83 -206q0 -108 67.5 -177.5t174.5 -69.5q126 0 213 98l19 107h-224l13 70h302l-35 -197q-49 -70 -128 -110t-167 -40q-136 0 -226 90t-90 226zM434 810
q0 23 17 39.5t40 16.5q24 0 41 -16.5t17 -39.5q0 -24 -17 -40t-41 -16t-40.5 16t-16.5 40z" />
    <glyph glyph-name="gdotaccent" unicode="&#x121;" horiz-adv-x="630" 
d="M511 487h77l-81 -460q-18 -102 -87 -160t-172 -58q-70 0 -131 29.5t-102 82.5l50 48q69 -89 183 -89q74 0 122.5 40t60.5 110l7 40q-68 -65 -172 -65q-95 0 -157 61.5t-62 155.5q-2 113 77 195.5t188 80.5q60 0 109 -26t76 -69zM474 271q0 69 -44 112.5t-114 43.5
q-80 0 -135 -57t-55 -140q0 -69 44 -111.5t116 -42.5q80 0 134 56t54 139zM285 673q0 23 17 39.5t40 16.5q24 0 41 -16.5t17 -39.5q0 -24 -17 -40t-41 -16t-40.5 16t-16.5 40z" />
    <glyph glyph-name="uni0122" unicode="&#x122;" horiz-adv-x="748" 
d="M66 305q-2 96 49 181.5t137.5 136t183.5 48.5q85 0 154 -39t111 -110l-60 -44q-71 121 -210 121q-116 2 -201 -85t-83 -206q0 -108 67.5 -177.5t174.5 -69.5q126 0 213 98l19 107h-224l13 70h302l-35 -197q-49 -70 -128 -110t-167 -40q-136 0 -226 90t-90 226zM264 -220
l40 171h75l-55 -171h-60z" />
    <glyph glyph-name="uni0123" unicode="&#x123;" horiz-adv-x="630" 
d="M511 487h77l-81 -460q-18 -102 -87 -160t-172 -58q-70 0 -131 29.5t-102 82.5l50 48q69 -89 183 -89q74 0 122.5 40t60.5 110l7 40q-68 -65 -172 -65q-95 0 -157 61.5t-62 155.5q-2 113 77 195.5t188 80.5q60 0 109 -26t76 -69zM474 271q0 69 -44 112.5t-114 43.5
q-80 0 -135 -57t-55 -140q0 -69 44 -111.5t116 -42.5q80 0 134 56t54 139zM282 566l69 214h58l-50 -214h-77z" />
    <glyph glyph-name="Hcircumflex" unicode="&#x124;" horiz-adv-x="708" 
d="M49 0l116 660h78l-48 -272h371l47 272h78l-116 -660h-78l56 318h-371l-55 -318h-78zM609 724h-55l-91 108l-129 -108h-66l180 186h47z" />
    <glyph glyph-name="hcircumflex" unicode="&#x125;" horiz-adv-x="566" 
d="M503 338q0 -21 -6 -54l-50 -284h-77l51 286q5 32 5 41q0 47 -28.5 74t-78.5 27q-56 0 -95 -32.5t-49 -87.5l-54 -308h-77l131 750h77l-53 -304q58 52 138 52q74 0 120 -44t46 -116zM392 814h-55l-91 108l-129 -108h-66l180 186h47z" />
    <glyph glyph-name="Hbar" unicode="&#x126;" horiz-adv-x="721" 
d="M773 526l-11 -66h-100l-81 -460h-78l44 253h-371l-44 -253h-78l81 460h-100l12 66h99l24 134h78l-24 -134h371l24 134h78l-24 -134h100zM560 324l24 136h-371l-24 -136h371z" />
    <glyph glyph-name="hbar" unicode="&#x127;" horiz-adv-x="569" 
d="M503 324q0 -18 -6 -54l-47 -270h-77l48 272q5 37 5 41q0 47 -29 73.5t-78 26.5q-55 0 -95 -32t-49 -87l-52 -294h-77l101 579h-81l12 68h81l18 103h77l-18 -103h203l-13 -68h-201l-26 -147q58 52 138 52q75 0 120.5 -44.5t45.5 -115.5z" />
    <glyph glyph-name="Itilde" unicode="&#x128;" horiz-adv-x="259" 
d="M49 0l116 660h78l-116 -660h-78zM226 769l-31 20q-28 19 -42 19q-29 0 -35 -56h-62q5 65 27.5 95.5t66.5 30.5q39 0 77 -27l30 -21q25 -19 43 -19q17 0 24 12.5t11 44.5h62q-11 -126 -95 -126q-32 0 -76 27z" />
    <glyph glyph-name="itilde" unicode="&#x129;" horiz-adv-x="246" 
d="M43 0l86 487h77l-86 -487h-77zM192 629l-17 19q-18 21 -33 21t-22 -13.5t-11 -46.5h-62q13 129 94 129q37 0 67 -33l17 -19q18 -21 32 -21q15 0 21.5 12.5t12.5 47.5h61q-13 -129 -92 -129q-38 0 -68 33z" />
    <glyph glyph-name="Imacron" unicode="&#x12a;" horiz-adv-x="259" 
d="M49 0l116 660h78l-116 -660h-78zM77 770l11 63h294l-11 -63h-294z" />
    <glyph glyph-name="imacron" unicode="&#x12b;" horiz-adv-x="246" 
d="M43 0l86 487h77l-86 -487h-77zM84 641l11 64h221l-11 -64h-221z" />
    <glyph glyph-name="Ibreve" unicode="&#x12c;" horiz-adv-x="259" 
d="M49 0l116 660h78l-116 -660h-78zM91 862q0 10 6 48h63q-5 -32 -5 -42q0 -37 22 -59.5t59 -22.5t62.5 24.5t32.5 68.5l5 31h63l-5 -31q-11 -71 -54 -112t-106 -41q-62 0 -102.5 38.5t-40.5 97.5z" />
    <glyph glyph-name="ibreve" unicode="&#x12d;" horiz-adv-x="246" 
d="M43 0l86 487h77l-86 -487h-77zM49 708q0 19 7 54h63q-6 -30 -6 -48q0 -37 22 -59t59 -22t62 24t33 68l6 37h63l-6 -37q-12 -71 -54.5 -111.5t-105.5 -40.5q-62 0 -102.5 38t-40.5 97z" />
    <glyph glyph-name="Iogonek" unicode="&#x12e;" horiz-adv-x="259" 
d="M49 0l116 660h78l-116 -660h-78zM-74 -109q0 41 39 73q41 33 136 71l25 -35l-66 -34q-55 -30 -55 -62q0 -33 56 -33q1 0 43 2l-10 -57q-28 -7 -61 -7q-50 0 -78.5 22t-28.5 60z" />
    <glyph glyph-name="iogonek" unicode="&#x12f;" horiz-adv-x="246" 
d="M43 0l86 487h77l-86 -487h-77zM143 673q0 23 17 39.5t40 16.5q24 0 41 -16.5t17 -39.5q0 -24 -17 -40t-41 -16t-40.5 16t-16.5 40zM-81 -109q0 41 39 73q41 33 136 71l25 -35l-66 -34q-55 -30 -55 -62q0 -33 56 -33q1 0 43 2l-10 -57q-28 -7 -61 -7q-50 0 -78.5 22
t-28.5 60z" />
    <glyph glyph-name="Idot" unicode="&#x130;" horiz-adv-x="259" 
d="M49 0l116 660h78l-116 -660h-78zM173 810q0 23 17 39.5t40 16.5q24 0 41 -16.5t17 -39.5q0 -24 -17 -40t-41 -16t-40.5 16t-16.5 40z" />
    <glyph glyph-name="dotlessi" unicode="&#x131;" horiz-adv-x="246" 
d="M43 0l86 487h77l-86 -487h-77z" />
    <glyph glyph-name="IJ" unicode="&#x132;" horiz-adv-x="634" 
d="M49 0l116 660h78l-116 -660h-78zM242 7l13 67q55 -12 91 -12q89 0 105 95l88 503h78l-91 -516q-13 -76 -58 -115.5t-117 -39.5q-57 0 -109 18z" />
    <glyph glyph-name="ij" unicode="&#x133;" horiz-adv-x="494" 
d="M43 0l86 487h77l-86 -487h-77zM143 673q0 23 17 39.5t40 16.5q24 0 41 -16.5t17 -39.5q0 -24 -17 -40t-41 -16t-40.5 16t-16.5 40zM118 -177l11 62q29 -6 56 -6q42 0 66 20.5t32 65.5l93 522h77l-95 -533q-12 -72 -54.5 -108.5t-108.5 -36.5q-38 0 -77 14zM389 673
q0 23 17 39.5t40 16.5q24 0 41 -16.5t17 -39.5q0 -24 -17 -40t-41 -16t-40.5 16t-16.5 40z" />
    <glyph glyph-name="Jcircumflex" unicode="&#x134;" horiz-adv-x="374" 
d="M-17 7l13 67q55 -12 91 -12q89 0 105 95l88 503h78l-91 -516q-13 -76 -58 -115.5t-117 -39.5q-56 0 -109 18zM490 724h-55l-91 108l-129 -108h-66l180 186h47z" />
    <glyph glyph-name="jcircumflex" unicode="&#x135;" horiz-adv-x="247" 
d="M-128 -177l11 62q29 -6 56 -6q42 0 66 20.5t32 65.5l93 522h77l-95 -533q-12 -72 -54.5 -108.5t-108.5 -36.5q-38 0 -77 14zM337 566h-55l-77 129l-124 -129h-62l173 214h47z" />
    <glyph glyph-name="uni0136" unicode="&#x136;" horiz-adv-x="631" 
d="M165 660h78l-116 -660h-78zM651 660l-354 -314l265 -346h-93l-271 354l344 306h109zM188 -220l40 171h75l-55 -171h-60z" />
    <glyph glyph-name="uni0137" unicode="&#x137;" horiz-adv-x="506" 
d="M175 750h77l-132 -750h-77zM518 487l-251 -224l184 -263h-89l-184 270l235 217h105zM128 -220l40 171h75l-55 -171h-60z" />
    <glyph glyph-name="Lacute" unicode="&#x139;" horiz-adv-x="507" 
d="M49 0l116 660h78l-104 -590h314l-13 -70h-391zM182 724l113 186h98l-2 -14l-148 -172h-61z" />
    <glyph glyph-name="lacute" unicode="&#x13a;" horiz-adv-x="246" 
d="M43 0l132 750h77l-132 -750h-77zM192 814l113 186h98l-2 -14l-148 -172h-61z" />
    <glyph glyph-name="uni013B" unicode="&#x13b;" horiz-adv-x="507" 
d="M49 0l116 660h78l-104 -590h314l-13 -70h-391zM156 -220l40 171h75l-55 -171h-60z" />
    <glyph glyph-name="uni013C" unicode="&#x13c;" horiz-adv-x="246" 
d="M43 0l132 750h77l-132 -750h-77zM-4 -220l40 171h75l-55 -171h-60z" />
    <glyph glyph-name="Lcaron" unicode="&#x13d;" horiz-adv-x="507" 
d="M49 0l116 660h78l-104 -590h314l-13 -70h-391zM391 453l50 207h83l-76 -207h-57z" />
    <glyph glyph-name="lcaron" unicode="&#x13e;" horiz-adv-x="355" 
d="M43 0l132 750h77l-132 -750h-77zM312 543l50 207h83l-76 -207h-57z" />
    <glyph glyph-name="Ldot" unicode="&#x13f;" horiz-adv-x="507" 
d="M49 0l116 660h78l-104 -590h314l-13 -70h-391zM342 369q0 27 18.5 45t44.5 18t44.5 -18t18.5 -45t-18.5 -45t-44.5 -18t-44.5 18t-18.5 45z" />
    <glyph glyph-name="ldot" unicode="&#x140;" horiz-adv-x="313" 
d="M43 0l132 750h77l-132 -750h-77zM228 314q0 27 18.5 45t44.5 18t44.5 -18t18.5 -45t-18.5 -45t-44.5 -18t-44.5 18t-18.5 45z" />
    <glyph glyph-name="Lslash" unicode="&#x141;" horiz-adv-x="507" 
d="M139 70h314l-13 -70h-391l44 253l-83 -35l12 73l84 35l59 334h78l-54 -304l240 101l-12 -73l-240 -101z" />
    <glyph glyph-name="lslash" unicode="&#x142;" horiz-adv-x="255" 
d="M286 451l-13 -72l-93 -40l-60 -339h-77l54 308l-84 -36l12 73l85 36l65 369h77l-60 -340z" />
    <glyph glyph-name="Nacute" unicode="&#x143;" horiz-adv-x="708" 
d="M613 660h78l-118 -671h-28l-331 516l-87 -505h-78l118 671h28l331 -517zM407 724l113 186h98l-2 -14l-148 -172h-61z" />
    <glyph glyph-name="nacute" unicode="&#x144;" horiz-adv-x="566" 
d="M503 338q0 -20 -6 -54l-50 -284h-77l51 286q5 30 5 41q0 48 -29 74.5t-78 26.5q-55 0 -95 -32.5t-49 -87.5l-54 -308h-77l85 487h72l-8 -47q58 58 144 58q75 0 120.5 -44.5t45.5 -115.5zM295 566l123 214h98l-2 -14l-155 -200h-64z" />
    <glyph glyph-name="uni0145" unicode="&#x145;" horiz-adv-x="708" 
d="M613 660h78l-118 -671h-28l-331 516l-87 -505h-78l118 671h28l331 -517zM227 -220l40 171h75l-55 -171h-60z" />
    <glyph glyph-name="uni0146" unicode="&#x146;" horiz-adv-x="566" 
d="M503 338q0 -20 -6 -54l-50 -284h-77l51 286q5 30 5 41q0 48 -29 74.5t-78 26.5q-55 0 -95 -32.5t-49 -87.5l-54 -308h-77l85 487h72l-8 -47q58 58 144 58q75 0 120.5 -44.5t45.5 -115.5zM164 -220l40 171h75l-55 -171h-60z" />
    <glyph glyph-name="Ncaron" unicode="&#x147;" horiz-adv-x="708" 
d="M613 660h78l-118 -671h-28l-331 516l-87 -505h-78l118 671h28l331 -517zM576 910h66l-180 -186h-47l-114 186h56l88 -109z" />
    <glyph glyph-name="ncaron" unicode="&#x148;" horiz-adv-x="566" 
d="M503 338q0 -20 -6 -54l-50 -284h-77l51 286q5 30 5 41q0 48 -29 74.5t-78 26.5q-55 0 -95 -32.5t-49 -87.5l-54 -308h-77l85 487h72l-8 -47q58 58 144 58q75 0 120.5 -44.5t45.5 -115.5zM474 780h62l-173 -214h-47l-98 214h54l77 -129z" />
    <glyph glyph-name="Eng" unicode="&#x14a;" horiz-adv-x="708" 
d="M611 660h78l-123 -708q-12 -69 -54.5 -106t-109.5 -37q-40 0 -79 14l12 65q31 -7 59 -7q83 0 96 84l8 48l-284 483l-86 -496h-78l117 671h28l323 -546z" />
    <glyph glyph-name="eng" unicode="&#x14b;" horiz-adv-x="567" 
d="M502 338q0 -21 -6 -54l-57 -332q-12 -70 -55 -106.5t-108 -36.5q-39 0 -78 14l11 62q29 -6 56 -6q43 0 67 20t32 66l56 321q5 32 5 41q0 47 -28 74t-78 27q-56 0 -95.5 -33t-48.5 -87l-54 -308h-77l85 487h72l-8 -48q59 59 144 59q74 0 119.5 -44t45.5 -116z" />
    <glyph glyph-name="Omacron" unicode="&#x14c;" horiz-adv-x="782" 
d="M66 305q-2 97 49 182.5t137 135.5t182 48q134 2 225 -90.5t89 -225.5q2 -96 -49.5 -182t-137.5 -136t-181 -48q-134 -2 -225 90.5t-89 225.5zM667 353q0 106 -67.5 176t-171.5 70q-115 2 -200 -85t-82 -205q0 -107 67.5 -177.5t170.5 -70.5q115 -2 200 86t83 206z
M333 770l11 63h294l-11 -63h-294z" />
    <glyph glyph-name="omacron" unicode="&#x14d;" horiz-adv-x="609" 
d="M49 231q-2 107 79.5 188t190.5 79q103 0 173 -69.5t70 -172.5q2 -107 -80 -188t-192 -79q-103 0 -172 69.5t-69 172.5zM483 256q0 72 -47.5 121.5t-119.5 49.5q-79 0 -133.5 -57t-54.5 -139q0 -76 46 -123q47 -48 119 -48q80 0 135 57t55 139zM210 642l11 62h274l-11 -62
h-274z" />
    <glyph glyph-name="Obreve" unicode="&#x14e;" horiz-adv-x="782" 
d="M66 305q-2 97 49 182.5t137 135.5t182 48q134 2 225 -90.5t89 -225.5q2 -96 -49.5 -182t-137.5 -136t-181 -48q-134 -2 -225 90.5t-89 225.5zM667 353q0 106 -67.5 176t-171.5 70q-115 2 -200 -85t-82 -205q0 -107 67.5 -177.5t170.5 -70.5q115 -2 200 86t83 206z
M348 862q0 10 6 48h63q-5 -32 -5 -42q0 -37 22 -59.5t59 -22.5t62.5 24.5t32.5 68.5l5 31h63l-5 -31q-11 -71 -54 -112t-106 -41q-62 0 -102.5 38.5t-40.5 97.5z" />
    <glyph glyph-name="obreve" unicode="&#x14f;" horiz-adv-x="609" 
d="M49 231q-2 107 79.5 188t190.5 79q103 0 173 -69.5t70 -172.5q2 -107 -80 -188t-192 -79q-103 0 -172 69.5t-69 172.5zM483 256q0 72 -47.5 121.5t-119.5 49.5q-79 0 -133.5 -57t-54.5 -139q0 -76 46 -123q47 -48 119 -48q80 0 135 57t55 139zM203 708q0 19 7 54h63
q-6 -30 -6 -48q0 -37 22 -59t59 -22t62 24t33 68l6 37h63l-6 -37q-12 -71 -54.5 -111.5t-105.5 -40.5q-62 0 -102.5 38t-40.5 97z" />
    <glyph glyph-name="Ohungarumlaut" unicode="&#x150;" horiz-adv-x="782" 
d="M66 305q-2 97 49 182.5t137 135.5t182 48q134 2 225 -90.5t89 -225.5q2 -96 -49.5 -182t-137.5 -136t-181 -48q-134 -2 -225 90.5t-89 225.5zM667 353q0 106 -67.5 176t-171.5 70q-115 2 -200 -85t-82 -205q0 -107 67.5 -177.5t170.5 -70.5q115 -2 200 86t83 206z
M322 724l119 186h87l-1 -14l-145 -172h-60zM538 724l118 186h88l-2 -14l-145 -172h-59z" />
    <glyph glyph-name="ohungarumlaut" unicode="&#x151;" horiz-adv-x="609" 
d="M49 231q-2 107 79.5 188t190.5 79q103 0 173 -69.5t70 -172.5q2 -107 -80 -188t-192 -79q-103 0 -172 69.5t-69 172.5zM483 256q0 72 -47.5 121.5t-119.5 49.5q-79 0 -133.5 -57t-54.5 -139q0 -76 46 -123q47 -48 119 -48q80 0 135 57t55 139zM203 566l123 214h88l-2 -14
l-149 -200h-60zM402 566l122 214h89l-3 -14l-148 -200h-60z" />
    <glyph glyph-name="OE" unicode="&#x152;" horiz-adv-x="1130" 
d="M1137 590h-344l-35 -204h264l-12 -66h-264l-45 -250h358l-13 -70h-429l20 109q-43 -57 -112 -88.5t-152 -31.5q-130 -2 -219.5 89.5t-87.5 222.5q-3 151 107 262t261 108q91 0 163.5 -40.5t105.5 -108.5l24 138h423zM671 369q0 100 -66.5 165t-169.5 65
q-118 2 -204 -85.5t-84 -206.5q0 -107 68.5 -176.5t174.5 -69.5q116 -2 199.5 89t81.5 219z" />
    <glyph glyph-name="oe" unicode="&#x153;" horiz-adv-x="980" 
d="M927 219h-382q5 -75 49.5 -117t119.5 -42q78 0 150 59l39 -52q-84 -78 -194 -78q-69 0 -123.5 33.5t-84.5 91.5q-36 -58 -94 -91.5t-125 -33.5q-98 0 -165.5 69.5t-67.5 172.5q-2 107 77.5 188t185.5 79q67 0 121 -34t82 -93q34 58 92.5 92t124.5 34q90 0 148.5 -59.5
t58.5 -151.5q0 -35 -12 -67zM471 255q0 73 -46 122.5t-114 49.5q-76 0 -129.5 -58t-53.5 -140q0 -72 45.5 -120.5t113.5 -48.5q75 0 129.5 58t54.5 137zM551 287h310v4q0 64 -36 100t-100 36q-63 0 -110.5 -38.5t-63.5 -101.5z" />
    <glyph glyph-name="Racute" unicode="&#x154;" horiz-adv-x="622" 
d="M399 283l165 -283h-87l-163 277h-139l-48 -277h-78l116 660h209q95 0 149.5 -47.5t54.5 -128.5q0 -78 -48 -131.5t-131 -69.5zM230 590l-42 -243h157q71 0 111.5 35t40.5 97q0 54 -32.5 82.5t-94.5 28.5h-140zM318 724l113 186h98l-2 -14l-148 -172h-61z" />
    <glyph glyph-name="racute" unicode="&#x155;" horiz-adv-x="362" 
d="M387 485l-12 -67q-21 4 -44 4q-62 0 -106.5 -37.5t-54.5 -98.5l-50 -286h-77l86 487h72l-9 -53q56 59 144 59q27 0 51 -8zM202 566l123 214h98l-2 -14l-155 -200h-64z" />
    <glyph glyph-name="uni0156" unicode="&#x156;" horiz-adv-x="622" 
d="M399 283l165 -283h-87l-163 277h-139l-48 -277h-78l116 660h209q95 0 149.5 -47.5t54.5 -128.5q0 -78 -48 -131.5t-131 -69.5zM230 590l-42 -243h157q71 0 111.5 35t40.5 97q0 54 -32.5 82.5t-94.5 28.5h-140zM187 -220l40 171h75l-55 -171h-60z" />
    <glyph glyph-name="uni0157" unicode="&#x157;" horiz-adv-x="362" 
d="M387 485l-12 -67q-21 4 -44 4q-62 0 -106.5 -37.5t-54.5 -98.5l-50 -286h-77l86 487h72l-9 -53q56 59 144 59q27 0 51 -8zM-4 -220l40 171h75l-55 -171h-60z" />
    <glyph glyph-name="Rcaron" unicode="&#x158;" horiz-adv-x="622" 
d="M399 283l165 -283h-87l-163 277h-139l-48 -277h-78l116 660h209q95 0 149.5 -47.5t54.5 -128.5q0 -78 -48 -131.5t-131 -69.5zM230 590l-42 -243h157q71 0 111.5 35t40.5 97q0 54 -32.5 82.5t-94.5 28.5h-140zM487 910h66l-180 -186h-47l-114 186h56l88 -109z" />
    <glyph glyph-name="rcaron" unicode="&#x159;" horiz-adv-x="362" 
d="M387 485l-12 -67q-21 4 -44 4q-62 0 -106.5 -37.5t-54.5 -98.5l-50 -286h-77l86 487h72l-9 -53q56 59 144 59q27 0 51 -8zM381 780h62l-173 -214h-47l-98 214h54l77 -129z" />
    <glyph glyph-name="Sacute" unicode="&#x15a;" horiz-adv-x="557" 
d="M23 148l62 38q71 -125 190 -125q58 0 93.5 30t35.5 80q0 35 -22 61.5t-70 53.5l-71 40q-121 67 -121 168q0 76 58.5 126.5t147.5 50.5q142 0 208 -122l-62 -37q-56 87 -149 87q-56 0 -89 -27t-33 -74q0 -32 19 -55.5t68 -53.5l70 -40q127 -72 127 -172q0 -82 -60 -135
t-152 -53q-165 0 -250 159zM324 724l113 186h98l-2 -14l-148 -172h-61z" />
    <glyph glyph-name="sacute" unicode="&#x15b;" horiz-adv-x="456" 
d="M22 95l56 48q36 -45 67 -64t69 -19q44 0 70.5 18.5t26.5 49.5q0 24 -15 39.5t-61 38.5l-44 22q-55 27 -79 58t-24 74q0 62 45.5 100t121.5 38q109 0 164 -85l-54 -44q-43 58 -116 58q-39 0 -60.5 -16.5t-21.5 -45.5q0 -22 14 -37.5t53 -35.5l42 -22q63 -34 88.5 -63
t25.5 -75q0 -64 -48.5 -103.5t-127.5 -39.5q-61 0 -111 27.5t-81 78.5zM226 566l123 214h98l-2 -14l-155 -200h-64z" />
    <glyph glyph-name="Scircumflex" unicode="&#x15c;" horiz-adv-x="557" 
d="M23 148l62 38q71 -125 190 -125q58 0 93.5 30t35.5 80q0 35 -22 61.5t-70 53.5l-71 40q-121 67 -121 168q0 76 58.5 126.5t147.5 50.5q142 0 208 -122l-62 -37q-56 87 -149 87q-56 0 -89 -27t-33 -74q0 -32 19 -55.5t68 -53.5l70 -40q127 -72 127 -172q0 -82 -60 -135
t-152 -53q-165 0 -250 159zM526 724h-55l-91 108l-129 -108h-66l180 186h47z" />
    <glyph glyph-name="scircumflex" unicode="&#x15d;" horiz-adv-x="456" 
d="M22 95l56 48q36 -45 67 -64t69 -19q44 0 70.5 18.5t26.5 49.5q0 24 -15 39.5t-61 38.5l-44 22q-55 27 -79 58t-24 74q0 62 45.5 100t121.5 38q109 0 164 -85l-54 -44q-43 58 -116 58q-39 0 -60.5 -16.5t-21.5 -45.5q0 -22 14 -37.5t53 -35.5l42 -22q63 -34 88.5 -63
t25.5 -75q0 -64 -48.5 -103.5t-127.5 -39.5q-61 0 -111 27.5t-81 78.5zM426 566h-55l-77 129l-124 -129h-62l173 214h47z" />
    <glyph glyph-name="Scedilla" unicode="&#x15e;" horiz-adv-x="557" 
d="M23 148l62 38q71 -125 190 -125q58 0 93.5 30t35.5 80q0 35 -22 61.5t-70 53.5l-71 40q-121 67 -121 168q0 76 58.5 126.5t147.5 50.5q142 0 208 -122l-62 -37q-56 87 -149 87q-56 0 -89 -27t-33 -74q0 -32 19 -55.5t68 -53.5l70 -40q127 -72 127 -172q0 -82 -60 -135
t-152 -53q-165 0 -250 159zM81 -176l9 54q40 -8 63 -8q39 0 60 20t21 56q0 34 -22 62l31 14q55 -31 55 -91q0 -52 -39 -87t-97 -35q-42 0 -81 15z" />
    <glyph glyph-name="scedilla" unicode="&#x15f;" horiz-adv-x="456" 
d="M22 95l56 48q36 -45 67 -64t69 -19q44 0 70.5 18.5t26.5 49.5q0 24 -15 39.5t-61 38.5l-44 22q-55 27 -79 58t-24 74q0 62 45.5 100t121.5 38q109 0 164 -85l-54 -44q-43 58 -116 58q-39 0 -60.5 -16.5t-21.5 -45.5q0 -22 14 -37.5t53 -35.5l42 -22q63 -34 88.5 -63
t25.5 -75q0 -64 -48.5 -103.5t-127.5 -39.5q-61 0 -111 27.5t-81 78.5zM60 -176l9 54q40 -8 63 -8q39 0 60 20t21 56q0 34 -22 62l31 14q55 -31 55 -91q0 -52 -39 -87t-97 -35q-42 0 -81 15z" />
    <glyph glyph-name="Scaron" unicode="&#x160;" horiz-adv-x="557" 
d="M23 148l62 38q71 -125 190 -125q58 0 93.5 30t35.5 80q0 35 -22 61.5t-70 53.5l-71 40q-121 67 -121 168q0 76 58.5 126.5t147.5 50.5q142 0 208 -122l-62 -37q-56 87 -149 87q-56 0 -89 -27t-33 -74q0 -32 19 -55.5t68 -53.5l70 -40q127 -72 127 -172q0 -82 -60 -135
t-152 -53q-165 0 -250 159zM493 910h66l-180 -186h-47l-114 186h56l88 -109z" />
    <glyph glyph-name="scaron" unicode="&#x161;" horiz-adv-x="456" 
d="M22 95l56 48q36 -45 67 -64t69 -19q44 0 70.5 18.5t26.5 49.5q0 24 -15 39.5t-61 38.5l-44 22q-55 27 -79 58t-24 74q0 62 45.5 100t121.5 38q109 0 164 -85l-54 -44q-43 58 -116 58q-39 0 -60.5 -16.5t-21.5 -45.5q0 -22 14 -37.5t53 -35.5l42 -22q63 -34 88.5 -63
t25.5 -75q0 -64 -48.5 -103.5t-127.5 -39.5q-61 0 -111 27.5t-81 78.5zM405 780h62l-173 -214h-47l-98 214h54l77 -129z" />
    <glyph glyph-name="uni0162" unicode="&#x162;" horiz-adv-x="587" 
d="M212 0l104 590h-232l12 70h543l-13 -70h-232l-104 -590h-78zM100 -176l9 54q40 -8 63 -8q39 0 60 20t21 56q0 34 -22 62l31 14q55 -31 55 -91q0 -52 -39 -87t-97 -35q-42 0 -81 15z" />
    <glyph glyph-name="uni0163" unicode="&#x163;" horiz-adv-x="379" 
d="M214 418l-46 -259q-3 -15 -3 -27q0 -74 109 -74q3 0 9 0.5t17 1t20 0.5l-12 -66q-32 -5 -56 -5q-76 0 -120 32t-44 100q0 19 4 39l45 258h-80l10 69h83l23 133h77l-24 -133h153l-12 -69h-153zM33 -176l9 54q40 -8 63 -8q39 0 60 20t21 56q0 34 -22 62l31 14
q55 -31 55 -91q0 -52 -39 -87t-97 -35q-42 0 -81 15z" />
    <glyph glyph-name="Tcaron" unicode="&#x164;" horiz-adv-x="587" 
d="M212 0l104 590h-232l12 70h543l-13 -70h-232l-104 -590h-78zM515 910h66l-180 -186h-47l-114 186h56l88 -109z" />
    <glyph glyph-name="tcaron" unicode="&#x165;" horiz-adv-x="379" 
d="M214 418l-46 -259q-3 -15 -3 -27q0 -74 109 -74q3 0 9 0.5t17 1t20 0.5l-12 -66q-32 -5 -56 -5q-76 0 -120 32t-44 100q0 19 4 39l45 258h-80l10 69h83l23 133h77l-24 -133h153l-12 -69h-153zM330 543l50 207h83l-76 -207h-57z" />
    <glyph glyph-name="Tbar" unicode="&#x166;" horiz-adv-x="587" 
d="M626 590h-232l-47 -264h195l-12 -66h-194l-46 -260h-78l46 260h-195l11 66h195l47 264h-232l12 70h543z" />
    <glyph glyph-name="tbar" unicode="&#x167;" horiz-adv-x="396" 
d="M378 421h-153l-23 -129h152l-11 -67h-153l-12 -66q-3 -15 -3 -27q0 -40 27.5 -57t81.5 -17q3 0 9 0.5t17 1t20 0.5l-12 -66q-32 -5 -56 -5q-76 0 -120 32t-44 100q0 19 4 39l11 65h-81l12 67h81l23 129h-81l11 66h82l23 133h77l-24 -133h152z" />
    <glyph glyph-name="Utilde" unicode="&#x168;" horiz-adv-x="687" 
d="M83 218q0 26 6 61l66 381h78l-67 -384q-5 -33 -5 -52q0 -71 48.5 -117t122.5 -46q73 0 128 47q53 47 67 126l74 426h78l-76 -431q-20 -111 -94 -175q-74 -65 -181 -65q-108 0 -176.5 64t-68.5 165zM440 769l-31 20q-28 19 -42 19q-29 0 -35 -56h-62q5 65 27.5 95.5
t66.5 30.5q39 0 77 -27l30 -21q25 -19 43 -19q17 0 24 12.5t11 44.5h62q-11 -126 -95 -126q-32 0 -76 27z" />
    <glyph glyph-name="utilde" unicode="&#x169;" horiz-adv-x="559" 
d="M69 166q0 22 4 42l48 279h77l-51 -289q-2 -14 -2 -29q0 -48 32.5 -78.5t83.5 -30.5t87 31t46 83l54 313h77l-55 -315q-15 -84 -73 -133q-59 -50 -140 -50q-82 0 -135 50t-53 127zM349 625l-24 22q-23 22 -38 22q-17 0 -25 -14t-12 -46h-62q12 129 95 129q38 0 70 -29
l24 -22q23 -22 38 -22q17 0 25 14t12 46h62q-13 -129 -94 -129q-37 0 -71 29z" />
    <glyph glyph-name="Umacron" unicode="&#x16a;" horiz-adv-x="687" 
d="M83 218q0 26 6 61l66 381h78l-67 -384q-5 -33 -5 -52q0 -71 48.5 -117t122.5 -46q73 0 128 47q53 47 67 126l74 426h78l-76 -431q-20 -111 -94 -175q-74 -65 -181 -65q-108 0 -176.5 64t-68.5 165zM291 770l11 63h294l-11 -63h-294z" />
    <glyph glyph-name="umacron" unicode="&#x16b;" horiz-adv-x="559" 
d="M69 166q0 22 4 42l48 279h77l-51 -289q-2 -14 -2 -29q0 -48 32.5 -78.5t83.5 -30.5t87 31t46 83l54 313h77l-55 -315q-15 -84 -73 -133q-59 -50 -140 -50q-82 0 -135 50t-53 127zM213 642l11 62h274l-11 -62h-274z" />
    <glyph glyph-name="Ubreve" unicode="&#x16c;" horiz-adv-x="687" 
d="M83 218q0 26 6 61l66 381h78l-67 -384q-5 -33 -5 -52q0 -71 48.5 -117t122.5 -46q73 0 128 47q53 47 67 126l74 426h78l-76 -431q-20 -111 -94 -175q-74 -65 -181 -65q-108 0 -176.5 64t-68.5 165zM306 862q0 10 6 48h63q-5 -32 -5 -42q0 -37 22 -59.5t59 -22.5
t62.5 24.5t32.5 68.5l5 31h63l-5 -31q-11 -71 -54 -112t-106 -41q-62 0 -102.5 38.5t-40.5 97.5z" />
    <glyph glyph-name="ubreve" unicode="&#x16d;" horiz-adv-x="559" 
d="M69 166q0 22 4 42l48 279h77l-51 -289q-2 -14 -2 -29q0 -48 32.5 -78.5t83.5 -30.5t87 31t46 83l54 313h77l-55 -315q-15 -84 -73 -133q-59 -50 -140 -50q-82 0 -135 50t-53 127zM206 708q0 19 7 54h63q-6 -30 -6 -48q0 -37 22 -59t59 -22t62 24t33 68l6 37h63l-6 -37
q-12 -71 -54.5 -111.5t-105.5 -40.5q-62 0 -102.5 38t-40.5 97z" />
    <glyph glyph-name="Uring" unicode="&#x16e;" horiz-adv-x="687" 
d="M83 218q0 26 6 61l66 381h78l-67 -384q-5 -33 -5 -52q0 -71 48.5 -117t122.5 -46q73 0 128 47q53 47 67 126l74 426h78l-76 -431q-20 -111 -94 -175q-74 -65 -181 -65q-108 0 -176.5 64t-68.5 165zM335 801q0 47 34 80q35 33 83 33q46 0 76 -29.5t30 -73.5q0 -45 -35 -80
q-34 -33 -82 -33q-46 0 -76 29.5t-30 73.5zM497 808q0 21 -13.5 34.5t-34.5 13.5q-22 0 -37.5 -15t-15.5 -37q0 -21 14 -34.5t34 -13.5q22 0 37.5 15t15.5 37z" />
    <glyph glyph-name="uring" unicode="&#x16f;" horiz-adv-x="559" 
d="M69 166q0 22 4 42l48 279h77l-51 -289q-2 -14 -2 -29q0 -48 32.5 -78.5t83.5 -30.5t87 31t46 83l54 313h77l-55 -315q-15 -84 -73 -133q-59 -50 -140 -50q-82 0 -135 50t-53 127zM250 663q0 47 33 80q35 33 83 33q45 0 75 -29t30 -73q0 -48 -34 -81t-82 -33
q-45 0 -75 29.5t-30 73.5zM410 671q0 21 -13 35t-34 14q-22 0 -37.5 -16t-15.5 -38q0 -21 13.5 -35t34.5 -14t36.5 15.5t15.5 38.5z" />
    <glyph glyph-name="Uhungarumlaut" unicode="&#x170;" horiz-adv-x="687" 
d="M83 218q0 26 6 61l66 381h78l-67 -384q-5 -33 -5 -52q0 -71 48.5 -117t122.5 -46q73 0 128 47q53 47 67 126l74 426h78l-76 -431q-20 -111 -94 -175q-74 -65 -181 -65q-108 0 -176.5 64t-68.5 165zM280 724l119 186h87l-1 -14l-145 -172h-60zM496 724l118 186h88l-2 -14
l-145 -172h-59z" />
    <glyph glyph-name="uhungarumlaut" unicode="&#x171;" horiz-adv-x="559" 
d="M69 166q0 22 4 42l48 279h77l-51 -289q-2 -14 -2 -29q0 -48 32.5 -78.5t83.5 -30.5t87 31t46 83l54 313h77l-55 -315q-15 -84 -73 -133q-59 -50 -140 -50q-82 0 -135 50t-53 127zM206 566l123 214h88l-2 -14l-149 -200h-60zM405 566l122 214h89l-3 -14l-148 -200h-60z
" />
    <glyph glyph-name="Uogonek" unicode="&#x172;" horiz-adv-x="687" 
d="M83 218q0 26 6 61l66 381h78l-67 -384q-5 -33 -5 -52q0 -71 48.5 -117t122.5 -46q73 0 128 47q53 47 67 126l74 426h78l-76 -431q-20 -111 -94 -175q-74 -65 -181 -65q-108 0 -176.5 64t-68.5 165zM305 -109q0 67 149 177l70 -1l-92 -91q-28 -28 -37.5 -42.5t-9.5 -29.5
q0 -33 56 -33q1 0 43 2l-10 -57q-29 -7 -61 -7q-51 0 -79.5 21.5t-28.5 60.5z" />
    <glyph glyph-name="uogonek" unicode="&#x173;" 
d="M448 487h77l-54 -315q-15 -65 -37 -94t-109 -91q-45 -30 -60.5 -47t-15.5 -36q0 -33 58 -33q1 0 43 2l-10 -57q-29 -7 -61 -7q-51 0 -79.5 21.5t-28.5 60.5q0 30 16.5 52.5t55.5 45.5q-77 5 -125 53q-48 50 -48 123q0 22 4 43l47 279h77l-50 -289q-2 -14 -2 -29
q0 -48 32.5 -78.5t83.5 -30.5q50 0 87 31t46 83z" />
    <glyph glyph-name="Wcircumflex" unicode="&#x174;" horiz-adv-x="1057" 
d="M995 660h88l-368 -671h-28l-115 521l-303 -521h-28l-133 671h81l94 -501l300 512h28l113 -512zM787 724h-55l-91 108l-129 -108h-66l180 186h47z" />
    <glyph glyph-name="wcircumflex" unicode="&#x175;" horiz-adv-x="849" 
d="M773 487h86l-293 -498h-28l-97 366l-233 -366h-28l-120 498h78l78 -361l230 371h29l97 -367zM628 566h-55l-77 129l-124 -129h-62l173 214h47z" />
    <glyph glyph-name="Ycircumflex" unicode="&#x176;" horiz-adv-x="616" 
d="M645 660l-298 -389l-47 -271h-78l48 274l-161 386h81l128 -312l235 312h92zM557 724h-55l-91 108l-129 -108h-66l180 186h47z" />
    <glyph glyph-name="ycircumflex" unicode="&#x177;" horiz-adv-x="564" 
d="M446 487h77l-85 -483q-16 -90 -76 -142.5t-146 -52.5q-63 0 -118 29.5t-89 82.5l51 49q63 -90 156 -90q58 0 96 33t49 94l8 47q-57 -52 -137 -52q-74 0 -119.5 43.5t-45.5 115.5q0 19 6 54l48 272h77l-50 -274q-5 -30 -5 -41q0 -47 29 -73.5t79 -26.5q54 0 93.5 32
t49.5 87zM489 566h-55l-77 129l-124 -129h-62l173 214h47z" />
    <glyph glyph-name="Ydieresis" unicode="&#x178;" horiz-adv-x="616" 
d="M645 660l-298 -389l-47 -271h-78l48 274l-161 386h81l128 -312l235 312h92zM230 810q0 22 16.5 37.5t38.5 15.5q23 0 39 -15.5t16 -37.5t-16 -37.5t-39 -15.5q-22 0 -38.5 15.5t-16.5 37.5zM463 809q0 22 16 38t39 16t39 -16t16 -38t-16 -37.5t-39 -15.5t-39 15.5
t-16 37.5z" />
    <glyph glyph-name="Zacute" unicode="&#x179;" horiz-adv-x="589" 
d="M628 660l-5 -23l-494 -567h396l-12 -70h-524l4 23l492 567h-347l11 70h479zM351 724l113 186h98l-2 -14l-148 -172h-61z" />
    <glyph glyph-name="zacute" unicode="&#x17a;" horiz-adv-x="454" 
d="M467 487l-4 -23l-341 -396h275l-12 -68h-400l4 23l340 395h-247l11 69h374zM246 566l123 214h98l-2 -14l-155 -200h-64z" />
    <glyph glyph-name="Zdotaccent" unicode="&#x17b;" horiz-adv-x="589" 
d="M628 660l-5 -23l-494 -567h396l-12 -70h-524l4 23l492 567h-347l11 70h479zM341 810q0 23 17 39.5t40 16.5q24 0 41 -16.5t17 -39.5q0 -24 -17 -40t-41 -16t-40.5 16t-16.5 40z" />
    <glyph glyph-name="zdotaccent" unicode="&#x17c;" horiz-adv-x="454" 
d="M467 487l-4 -23l-341 -396h275l-12 -68h-400l4 23l340 395h-247l11 69h374zM252 673q0 23 17 39.5t40 16.5q24 0 41 -16.5t17 -39.5q0 -24 -17 -40t-41 -16t-40.5 16t-16.5 40z" />
    <glyph glyph-name="Zcaron" unicode="&#x17d;" horiz-adv-x="589" 
d="M628 660l-5 -23l-494 -567h396l-12 -70h-524l4 23l492 567h-347l11 70h479zM520 910h66l-180 -186h-47l-114 186h56l88 -109z" />
    <glyph glyph-name="zcaron" unicode="&#x17e;" horiz-adv-x="454" 
d="M467 487l-4 -23l-341 -396h275l-12 -68h-400l4 23l340 395h-247l11 69h374zM426 780h62l-173 -214h-47l-98 214h54l77 -129z" />
    <glyph glyph-name="uni018F" unicode="&#x18f;" horiz-adv-x="735" 
d="M701 362q3 -150 -102.5 -262.5t-244.5 -109.5q-130 0 -212 77.5t-82 201.5q0 39 10 85h550v5q0 104 -67 172t-169 68q-63 0 -121 -27t-97 -74l-51 47q50 60 122 93t151 33q130 2 222.5 -89.5t90.5 -219.5zM612 284h-471q-1 -5 -1 -20q0 -89 60 -145.5t155 -56.5
q91 0 162.5 62.5t94.5 159.5z" />
    <glyph glyph-name="florin" unicode="&#x192;" horiz-adv-x="443" 
d="M511 659l-11 -62q-24 4 -52 4q-45 0 -70.5 -19.5t-38.5 -64.5l-36 -118h106l-13 -69h-113l-97 -321q-43 -142 -172 -142q-37 0 -73 11l11 63q37 -5 55 -5q79 0 106 85l93 309h-78l13 69h86l39 130q43 142 172 142q36 0 73 -12z" />
    <glyph glyph-name="uni01D4" unicode="&#x1d4;" horiz-adv-x="559" 
d="M69 166q0 22 4 42l48 279h77l-51 -289q-2 -14 -2 -29q0 -48 32.5 -78.5t83.5 -30.5t87 31t46 83l54 313h77l-55 -315q-15 -84 -73 -133q-59 -50 -140 -50q-82 0 -135 50t-53 127zM472 780h62l-173 -214h-47l-98 214h54l77 -129z" />
    <glyph glyph-name="AEacute" unicode="&#x1fc;" horiz-adv-x="823" 
d="M830 590h-322l-2 -202h208l-12 -70h-196l-2 -248h248l-13 -70h-315l1 135h-270l-92 -135h-92l456 660h415zM428 534l-225 -329h222zM456 724l113 186h98l-2 -14l-148 -172h-61z" />
    <glyph glyph-name="aeacute" unicode="&#x1fd;" horiz-adv-x="890" 
d="M836 210h-381q5 -69 50 -109.5t118 -40.5q78 0 150 59l39 -52q-81 -78 -196 -78q-68 0 -122 31t-83 85q-29 -54 -86.5 -85t-129.5 -31q-80 0 -124.5 35t-44.5 97q0 71 53.5 112t145.5 41h156l1 5q4 20 4 51q0 46 -29.5 71.5t-83.5 25.5q-70 0 -142 -61l-38 56
q82 76 189 76q62 0 105 -25t60 -70q76 95 194 95q90 0 148.5 -60t58.5 -152q0 -46 -12 -76zM458 274h312v17q0 64 -36 100.5t-99 36.5q-68 0 -116 -42.5t-61 -111.5zM364 175l6 35h-145q-120 0 -120 -81q0 -36 26.5 -56.5t72.5 -20.5q58 0 105 35q46 34 55 88zM433 566
l123 214h98l-2 -14l-155 -200h-64z" />
    <glyph glyph-name="Oslashacute" unicode="&#x1fe;" horiz-adv-x="767" 
d="M760 630l-83 -79q63 -83 63 -196q2 -96 -49 -181.5t-137 -136t-182 -48.5q-117 0 -205 72l-83 -80l-47 49l83 80q-62 85 -62 195q-3 147 109 258t259 108q117 0 204 -71l83 79zM138 309q0 -80 40 -144l397 380q-64 54 -155 54q-115 2 -199.5 -85t-82.5 -205zM659 353
q0 83 -40 142l-397 -380q64 -54 154 -54q115 -2 200 86t83 206zM431 724l113 186h98l-2 -14l-148 -172h-61z" />
    <glyph glyph-name="oslashacute" unicode="&#x1ff;" horiz-adv-x="614" 
d="M573 453l-59 -58q48 -62 48 -143q2 -106 -80.5 -185.5t-191.5 -77.5q-83 0 -145 46l-58 -58l-47 48l57 56q-47 62 -47 144q-2 106 80 186t189 78q83 0 148 -47l60 58zM129 227q0 -53 26 -94l260 255q-41 31 -99 31q-77 0 -132 -56.5t-55 -135.5zM482 249q0 52 -25 93
l-259 -255q40 -28 95 -28q78 0 133.5 55.5t55.5 134.5zM315 566l123 214h98l-2 -14l-155 -200h-64z" />
    <glyph glyph-name="uni0218" unicode="&#x218;" horiz-adv-x="557" 
d="M23 148l62 38q71 -125 190 -125q58 0 93.5 30t35.5 80q0 35 -22 61.5t-70 53.5l-71 40q-121 67 -121 168q0 76 58.5 126.5t147.5 50.5q142 0 208 -122l-62 -37q-56 87 -149 87q-56 0 -89 -27t-33 -74q0 -32 19 -55.5t68 -53.5l70 -40q127 -72 127 -172q0 -82 -60 -135
t-152 -53q-165 0 -250 159zM147 -220l40 171h75l-55 -171h-60z" />
    <glyph glyph-name="uni0219" unicode="&#x219;" horiz-adv-x="456" 
d="M22 95l56 48q36 -45 67 -64t69 -19q44 0 70.5 18.5t26.5 49.5q0 24 -15 39.5t-61 38.5l-44 22q-55 27 -79 58t-24 74q0 62 45.5 100t121.5 38q109 0 164 -85l-54 -44q-43 58 -116 58q-39 0 -60.5 -16.5t-21.5 -45.5q0 -22 14 -37.5t53 -35.5l42 -22q63 -34 88.5 -63
t25.5 -75q0 -64 -48.5 -103.5t-127.5 -39.5q-61 0 -111 27.5t-81 78.5zM126 -220l40 171h75l-55 -171h-60z" />
    <glyph glyph-name="uni021A" unicode="&#x21a;" horiz-adv-x="587" 
d="M212 0l104 590h-232l12 70h543l-13 -70h-232l-104 -590h-78zM166 -220l40 171h75l-55 -171h-60z" />
    <glyph glyph-name="uni021B" unicode="&#x21b;" horiz-adv-x="379" 
d="M214 418l-46 -259q-3 -15 -3 -27q0 -74 109 -74q3 0 9 0.5t17 1t20 0.5l-12 -66q-32 -5 -56 -5q-76 0 -120 32t-44 100q0 19 4 39l45 258h-80l10 69h83l23 133h77l-24 -133h153l-12 -69h-153zM99 -220l40 171h75l-55 -171h-60z" />
    <glyph glyph-name="uni0237" unicode="&#x237;" horiz-adv-x="247" 
d="M-128 -177l11 62q29 -6 56 -6q42 0 66 20.5t32 65.5l93 522h77l-95 -533q-12 -72 -54.5 -108.5t-108.5 -36.5q-38 0 -77 14z" />
    <glyph glyph-name="uni0259" unicode="&#x259;" horiz-adv-x="562" 
d="M515 260q2 -110 -77.5 -191.5t-186.5 -79.5q-91 0 -150.5 57t-59.5 145q0 37 12 72h383q-2 77 -45.5 120.5t-117.5 43.5q-77 0 -149 -59l-39 51q82 79 195 79q103 0 169 -67t66 -171zM428 195h-309v-9q0 -59 37 -93.5t99 -34.5q63 0 109.5 37t63.5 100z" />
    <glyph glyph-name="circumflex" unicode="&#x2c6;" horiz-adv-x="500" 
d="M466 566h-55l-77 129l-124 -129h-62l173 214h47z" />
    <glyph glyph-name="caron" unicode="&#x2c7;" horiz-adv-x="500" 
d="M442 780h62l-173 -214h-47l-98 214h54l77 -129z" />
    <glyph glyph-name="breve" unicode="&#x2d8;" horiz-adv-x="500" 
d="M184 708q0 19 7 54h63q-6 -30 -6 -48q0 -37 22 -59t59 -22t62 24t33 68l6 37h63l-6 -37q-12 -71 -54.5 -111.5t-105.5 -40.5q-62 0 -102.5 38t-40.5 97z" />
    <glyph glyph-name="dotaccent" unicode="&#x2d9;" horiz-adv-x="500" 
d="M268 673q0 23 17 39.5t40 16.5q24 0 41 -16.5t17 -39.5q0 -24 -17 -40t-41 -16t-40.5 16t-16.5 40z" />
    <glyph glyph-name="ring" unicode="&#x2da;" horiz-adv-x="500" 
d="M215 663q0 47 33 80q35 33 83 33q45 0 75 -29t30 -73q0 -48 -34 -81t-82 -33q-45 0 -75 29.5t-30 73.5zM375 671q0 21 -13 35t-34 14q-22 0 -37.5 -16t-15.5 -38q0 -21 13.5 -35t34.5 -14t36.5 15.5t15.5 38.5z" />
    <glyph glyph-name="ogonek" unicode="&#x2db;" horiz-adv-x="500" 
d="M98 -109q0 41 39 73q41 33 136 71l25 -35l-66 -34q-55 -30 -55 -62q0 -33 56 -33q1 0 43 2l-10 -57q-28 -7 -61 -7q-50 0 -78.5 22t-28.5 60z" />
    <glyph glyph-name="tilde" unicode="&#x2dc;" horiz-adv-x="500" 
d="M323 625l-24 22q-23 22 -38 22q-17 0 -25 -14t-12 -46h-62q12 129 95 129q38 0 70 -29l24 -22q23 -22 38 -22q17 0 25 14t12 46h62q-13 -129 -94 -129q-37 0 -71 29z" />
    <glyph glyph-name="hungarumlaut" unicode="&#x2dd;" horiz-adv-x="500" 
d="M121 566l123 214h88l-2 -14l-149 -200h-60zM320 566l122 214h89l-3 -14l-148 -200h-60z" />
    <glyph glyph-name="gravecomb" unicode="&#x300;" horiz-adv-x="0" 
d="M-178 566l-50 200l5 14h86l14 -214h-55z" />
    <glyph glyph-name="acutecomb" unicode="&#x301;" horiz-adv-x="0" 
d="M-285 566l123 214h98l-2 -14l-155 -200h-64z" />
    <glyph glyph-name="uni0302" unicode="&#x302;" horiz-adv-x="0" 
d="M-34 566h-55l-77 129l-124 -129h-62l173 214h47z" />
    <glyph glyph-name="tildecomb" unicode="&#x303;" horiz-adv-x="0" 
d="M-177 625l-24 22q-23 22 -38 22q-17 0 -25 -14t-12 -46h-62q12 129 95 129q38 0 70 -29l24 -22q23 -22 38 -22q17 0 25 14t12 46h62q-13 -129 -94 -129q-37 0 -71 29z" />
    <glyph glyph-name="uni0304" unicode="&#x304;" horiz-adv-x="0" 
d="M-317 642l11 62h274l-11 -62h-274z" />
    <glyph glyph-name="uni0306" unicode="&#x306;" horiz-adv-x="0" 
d="M-317 708q0 19 7 54h63q-6 -30 -6 -48q0 -37 22 -59t59 -22t62 24t33 68l6 37h63l-6 -37q-12 -71 -54.5 -111.5t-105.5 -40.5q-62 0 -102.5 38t-40.5 97z" />
    <glyph glyph-name="uni0307" unicode="&#x307;" horiz-adv-x="0" 
d="M-232 673q0 23 17 39.5t40 16.5q24 0 41 -16.5t17 -39.5q0 -24 -17 -40t-41 -16t-40.5 16t-16.5 40z" />
    <glyph glyph-name="uni0308" unicode="&#x308;" horiz-adv-x="0" 
d="M-341 673q0 22 16.5 37.5t38.5 15.5q23 0 39.5 -15.5t16.5 -37.5t-16.5 -37.5t-39.5 -15.5q-22 0 -38.5 15.5t-16.5 37.5zM-119 673q0 22 16.5 37.5t39.5 15.5t39 -15.5t16 -37.5t-16 -37.5t-39 -15.5t-39.5 15.5t-16.5 37.5z" />
    <glyph glyph-name="uni030A" unicode="&#x30a;" horiz-adv-x="0" 
d="M-285 663q0 47 34 80q33 33 82 33q45 0 75 -29t30 -73q0 -48 -34 -81t-82 -33q-45 0 -75 29.5t-30 73.5zM-125 671q0 21 -13 35t-34 14q-22 0 -37.5 -16t-15.5 -38q0 -21 13.5 -35t34.5 -14t36.5 15.5t15.5 38.5z" />
    <glyph glyph-name="uni030B" unicode="&#x30b;" horiz-adv-x="0" 
d="M-379 566l123 214h88l-2 -14l-149 -200h-60zM-180 566l122 214h89l-3 -14l-148 -200h-60z" />
    <glyph glyph-name="uni030C" unicode="&#x30c;" horiz-adv-x="0" 
d="M-58 780h62l-173 -214h-47l-98 214h54l77 -129z" />
    <glyph glyph-name="uni0326" unicode="&#x326;" horiz-adv-x="0" 
d="M-375 -220l40 171h75l-55 -171h-60z" />
    <glyph glyph-name="uni0327" unicode="&#x327;" horiz-adv-x="0" 
d="M-424 -176l9 54q40 -8 63 -8q39 0 60 20t21 56q0 34 -22 62l31 14q55 -31 55 -91q0 -52 -39 -87t-97 -35q-42 0 -81 15z" />
    <glyph glyph-name="uni0328" unicode="&#x328;" horiz-adv-x="0" 
d="M-402 -109q0 41 39 73q41 33 136 71l25 -35l-66 -34q-55 -30 -55 -62q0 -33 56 -33q1 0 43 2l-10 -57q-28 -7 -61 -7q-50 0 -78.5 22t-28.5 60z" />
    <glyph glyph-name="tonos" unicode="&#x384;" horiz-adv-x="500" 
d="M245 566l68 214h93l-3 -14l-98 -200h-60z" />
    <glyph glyph-name="dieresistonos" unicode="&#x385;" horiz-adv-x="500" 
d="M253 566l68 214h92l-2 -14l-98 -200h-60zM140 673q0 22 16.5 37.5t38.5 15.5q23 0 39.5 -15.5t16.5 -37.5t-16.5 -37.5t-39.5 -15.5q-22 0 -38.5 15.5t-16.5 37.5zM402 673q0 22 16.5 37.5t39.5 15.5t39 -15.5t16 -37.5t-16 -37.5t-39 -15.5t-39.5 15.5t-16.5 37.5z" />
    <glyph glyph-name="Alphatonos" unicode="&#x386;" horiz-adv-x="663" 
d="M514 0l-33 134h-321l-80 -134h-88l404 671h28l169 -671h-79zM463 204l-75 320l-187 -320h262zM64 453l50 207h83l-76 -207h-57z" />
    <glyph glyph-name="anoteleia" unicode="&#x387;" horiz-adv-x="280" 
d="M90 314q0 27 18.5 45t44.5 18t44.5 -18t18.5 -45t-18.5 -45t-44.5 -18t-44.5 18t-18.5 45z" />
    <glyph glyph-name="Epsilontonos" unicode="&#x388;" horiz-adv-x="567" 
d="M49 0l116 660h423l-13 -70h-345l-37 -202h265l-12 -70h-264l-43 -248h357l-12 -70h-435zM-59 453l50 207h83l-76 -207h-57z" />
    <glyph glyph-name="Etatonos" unicode="&#x389;" horiz-adv-x="708" 
d="M49 0l116 660h78l-48 -272h371l47 272h78l-116 -660h-78l56 318h-371l-55 -318h-78zM-58 453l50 207h83l-76 -207h-57z" />
    <glyph glyph-name="Iotatonos" unicode="&#x38a;" horiz-adv-x="259" 
d="M49 0l116 660h78l-116 -660h-78zM-59 453l50 207h83l-76 -207h-57z" />
    <glyph glyph-name="Omicrontonos" unicode="&#x38c;" horiz-adv-x="782" 
d="M66 305q-2 97 49 182.5t137 135.5t182 48q134 2 225 -90.5t89 -225.5q2 -96 -49.5 -182t-137.5 -136t-181 -48q-134 -2 -225 90.5t-89 225.5zM667 353q0 106 -67.5 176t-171.5 70q-115 2 -200 -85t-82 -205q0 -107 67.5 -177.5t170.5 -70.5q115 -2 200 86t83 206z
M-13 453l50 207h83l-76 -207h-57z" />
    <glyph glyph-name="Upsilontonos" unicode="&#x38e;" horiz-adv-x="616" 
d="M645 660l-298 -389l-47 -271h-78l48 274l-161 386h81l128 -312l235 312h92zM-83 452l50 207h83l-76 -207h-57z" />
    <glyph glyph-name="Omegatonos" unicode="&#x38f;" horiz-adv-x="791" 
d="M576 70h135l-12 -70h-274l12 71q116 46 177.5 120.5t61.5 169.5q0 106 -70 172t-180 66q-115 2 -196.5 -82t-79.5 -200q0 -154 160 -246l-13 -71h-262l13 70h152q-62 47 -96.5 113t-34.5 136q-3 142 104 248.5t250 103.5q143 2 239.5 -87.5t94.5 -220.5q0 -90 -47 -165.5
t-134 -127.5zM-14 453l50 207h83l-76 -207h-57z" />
    <glyph glyph-name="iotadieresistonos" unicode="&#x390;" horiz-adv-x="301" 
d="M60 102q0 17 5 49l61 336h77l-60 -331q-4 -20 -4 -39q0 -58 71 -58q24 0 52 5l-11 -65q-30 -10 -59 -10q-61 0 -96.5 30t-35.5 83zM141 566l68 214h92l-2 -14l-98 -200h-60zM28 673q0 22 16.5 37.5t38.5 15.5q23 0 39.5 -15.5t16.5 -37.5t-16.5 -37.5t-39.5 -15.5
q-22 0 -38.5 15.5t-16.5 37.5zM290 673q0 22 16.5 37.5t39.5 15.5t39 -15.5t16 -37.5t-16 -37.5t-39 -15.5t-39.5 15.5t-16.5 37.5z" />
    <glyph glyph-name="Alpha" unicode="&#x391;" horiz-adv-x="663" 
d="M514 0l-33 134h-321l-80 -134h-88l404 671h28l169 -671h-79zM463 204l-75 320l-187 -320h262z" />
    <glyph glyph-name="Beta" unicode="&#x392;" horiz-adv-x="615" 
d="M561 196q0 -86 -65.5 -141t-167.5 -55h-279l116 660h207q81 0 129 -43t48 -114q0 -101 -86 -149q46 -21 72 -62.5t26 -95.5zM358 590h-127l-36 -205h147q57 0 91.5 30.5t34.5 82.5q0 44 -29 68t-81 24zM480 198q0 54 -34 85t-93 31h-171l-43 -244h185q71 0 113.5 35
t42.5 93z" />
    <glyph glyph-name="Gamma" unicode="&#x393;" horiz-adv-x="507" 
d="M49 0l116 660h391l-11 -70h-315l-103 -590h-78z" />
    <glyph glyph-name="uni0394" unicode="&#x394;" horiz-adv-x="663" 
d="M424 671l163 -648l-4 -23h-582l4 23l390 648h29zM496 70l-109 450l-266 -450h375z" />
    <glyph glyph-name="Epsilon" unicode="&#x395;" horiz-adv-x="567" 
d="M49 0l116 660h423l-13 -70h-345l-37 -202h265l-12 -70h-264l-43 -248h357l-12 -70h-435z" />
    <glyph glyph-name="Zeta" unicode="&#x396;" horiz-adv-x="589" 
d="M628 660l-5 -23l-494 -567h396l-12 -70h-524l4 23l492 567h-347l11 70h479z" />
    <glyph glyph-name="Eta" unicode="&#x397;" horiz-adv-x="708" 
d="M49 0l116 660h78l-48 -272h371l47 272h78l-116 -660h-78l56 318h-371l-55 -318h-78z" />
    <glyph glyph-name="Theta" unicode="&#x398;" horiz-adv-x="782" 
d="M66 305q-3 147 109 258t259 108q133 2 224.5 -90t89.5 -226q2 -96 -49 -181.5t-137 -136t-182 -48.5q-133 -2 -224.5 90t-89.5 226zM666 354q0 107 -67.5 176t-170.5 69q-115 2 -200 -85.5t-82 -205.5q0 -107 67.5 -177t170.5 -70q113 -2 198.5 86.5t83.5 206.5zM242 293
l12 70h316l-11 -70h-317z" />
    <glyph glyph-name="Iota" unicode="&#x399;" horiz-adv-x="259" 
d="M49 0l116 660h78l-116 -660h-78z" />
    <glyph glyph-name="Kappa" unicode="&#x39a;" horiz-adv-x="631" 
d="M165 660h78l-116 -660h-78zM651 660l-354 -314l265 -346h-93l-271 354l344 306h109z" />
    <glyph glyph-name="Lambda" unicode="&#x39b;" horiz-adv-x="663" 
d="M593 0h-80l-128 521l-306 -521h-87l403 671h29z" />
    <glyph glyph-name="Mu" unicode="&#x39c;" horiz-adv-x="789" 
d="M746 671h28l-118 -671h-78l83 470l-256 -283h-28l-165 300l-85 -487h-78l118 671h28l207 -381z" />
    <glyph glyph-name="Nu" unicode="&#x39d;" horiz-adv-x="708" 
d="M613 660h78l-118 -671h-28l-331 516l-87 -505h-78l118 671h28l331 -517z" />
    <glyph glyph-name="Xi" unicode="&#x39e;" horiz-adv-x="618" 
d="M103 590l12 70h535l-11 -70h-536zM119 298l12 70h402l-13 -70h-401zM-1 0l13 70h535l-13 -70h-535z" />
    <glyph glyph-name="Omicron" unicode="&#x39f;" horiz-adv-x="782" 
d="M66 305q-2 97 49 182.5t137 135.5t182 48q134 2 225 -90.5t89 -225.5q2 -96 -49.5 -182t-137.5 -136t-181 -48q-134 -2 -225 90.5t-89 225.5zM667 353q0 106 -67.5 176t-171.5 70q-115 2 -200 -85t-82 -205q0 -107 67.5 -177.5t170.5 -70.5q115 -2 200 86t83 206z" />
    <glyph glyph-name="Pi" unicode="&#x3a0;" horiz-adv-x="681" 
d="M49 0l116 660h499l-116 -660h-78l104 590h-344l-103 -590h-78z" />
    <glyph glyph-name="Rho" unicode="&#x3a1;" horiz-adv-x="577" 
d="M49 0l116 660h209q95 0 149.5 -48t54.5 -130q0 -92 -66.5 -149t-175.5 -57h-161l-48 -276h-78zM188 346h157q71 0 111.5 35.5t40.5 97.5q0 54 -32.5 82.5t-94.5 28.5h-140z" />
    <glyph glyph-name="Sigma" unicode="&#x3a3;" horiz-adv-x="574" 
d="M595 660l-13 -70h-328l146 -241l-3 -20l-228 -259h333l-11 -70h-468l3 20l286 328l-177 292l4 20h456z" />
    <glyph glyph-name="Tau" unicode="&#x3a4;" horiz-adv-x="587" 
d="M212 0l104 590h-232l12 70h543l-13 -70h-232l-104 -590h-78z" />
    <glyph glyph-name="Upsilon" unicode="&#x3a5;" horiz-adv-x="616" 
d="M645 660l-298 -389l-47 -271h-78l48 274l-161 386h81l128 -312l235 312h92z" />
    <glyph glyph-name="Phi" unicode="&#x3a6;" horiz-adv-x="828" 
d="M326 -40l11 65q-119 6 -195.5 83.5t-76.5 190.5q0 149 104.5 241.5t275.5 93.5l11 65h78l-11 -65q118 -6 194.5 -83.5t76.5 -190.5q0 -149 -104.5 -241t-274.5 -94l-11 -65h-78zM348 95l84 469q-128 0 -207.5 -72t-79.5 -189q0 -89 58 -148.5t145 -59.5zM714 356
q0 90 -57.5 149t-146.5 59l-83 -469q129 0 208 72t79 189z" />
    <glyph glyph-name="Chi" unicode="&#x3a7;" horiz-adv-x="592" 
d="M624 660l-264 -329l164 -331h-84l-134 274l-224 -274h-97l285 345l-153 315h83l123 -260l204 260h97z" />
    <glyph glyph-name="Psi" unicode="&#x3a8;" horiz-adv-x="747" 
d="M293 0l26 152q-104 13 -163.5 78t-59.5 165q0 28 6 61l36 204h78l-37 -208q-5 -32 -5 -53q0 -78 42.5 -125t115.5 -49l76 435h78l-76 -435q96 -1 153 55t78 172l38 208h78l-37 -204q-27 -154 -101 -223.5t-222 -80.5l-26 -152h-78z" />
    <glyph glyph-name="uni03A9" unicode="&#x3a9;" horiz-adv-x="791" 
d="M576 70h135l-12 -70h-274l12 71q116 46 177.5 120.5t61.5 169.5q0 106 -70 172t-180 66q-115 2 -196.5 -82t-79.5 -200q0 -154 160 -246l-13 -71h-262l13 70h152q-62 47 -96.5 113t-34.5 136q-3 142 104 248.5t250 103.5q143 2 239.5 -87.5t94.5 -220.5q0 -90 -47 -165.5
t-134 -127.5z" />
    <glyph glyph-name="Iotadieresis" unicode="&#x3aa;" horiz-adv-x="259" 
d="M49 0l116 660h78l-116 -660h-78zM58 810q0 22 16.5 37.5t38.5 15.5q23 0 39 -15.5t16 -37.5t-16 -37.5t-39 -15.5q-22 0 -38.5 15.5t-16.5 37.5zM291 809q0 22 16 38t39 16t39 -16t16 -38t-16 -37.5t-39 -15.5t-39 15.5t-16 37.5z" />
    <glyph glyph-name="Upsilondieresis" unicode="&#x3ab;" horiz-adv-x="616" 
d="M645 660l-298 -389l-47 -271h-78l48 274l-161 386h81l128 -312l235 312h92zM228 810q0 22 16.5 37.5t38.5 15.5q23 0 39 -15.5t16 -37.5t-16 -37.5t-39 -15.5q-22 0 -38.5 15.5t-16.5 37.5zM461 809q0 22 16 38t39 16t39 -16t16 -38t-16 -37.5t-39 -15.5t-39 15.5
t-16 37.5z" />
    <glyph glyph-name="alphatonos" unicode="&#x3ac;" horiz-adv-x="649" 
d="M597 58l-12 -64q-12 -4 -40 -4q-80 0 -97 72q-67 -73 -178 -73q-97 0 -160 65.5t-63 166.5q-2 115 76 197t185 80q63 0 115.5 -28.5t77.5 -76.5q6 28 22 96h72l-7 -29q-16 -68 -24 -109q-9 -43 -18 -96l-18 -108q-6 -36 -6 -44q0 -46 49 -46q20 0 26 1zM471 267
q0 71 -43 115.5t-113 44.5q-78 0 -133.5 -58t-55.5 -140q0 -74 45.5 -121.5t115.5 -47.5q77 0 130.5 60.5t53.5 146.5zM306 566l68 214h93l-3 -14l-98 -200h-60z" />
    <glyph glyph-name="epsilontonos" unicode="&#x3ad;" horiz-adv-x="506" 
d="M400 121l41 -54q-34 -36 -90 -57t-121 -21q-87 0 -140.5 37.5t-53.5 97.5q0 48 31.5 82t87.5 48q-55 37 -55 104q0 63 53.5 101.5t141.5 38.5q63 0 112.5 -22t74.5 -62l-52 -44q-19 27 -56 42.5t-81 15.5q-54 0 -83.5 -20.5t-29.5 -57.5q0 -31 22 -48.5t61 -17.5h100
l-10 -68h-117q-55 0 -87.5 -22t-32.5 -59q0 -35 31.5 -55t86.5 -20q102 0 166 61zM266 566l68 214h93l-3 -14l-98 -200h-60z" />
    <glyph glyph-name="etatonos" unicode="&#x3ae;" horiz-adv-x="585" 
d="M522 338q0 -20 -6 -54l-82 -464h-77l82 461q6 31 6 48q0 46 -29 72.5t-78 26.5q-55 0 -94 -32t-49 -88l-55 -308h-77l60 340q5 30 5 41q0 48 -48 48q-5 0 -27 -2l12 65q18 5 39 5q35 0 60 -16t35 -44q61 61 154 61q78 0 123.5 -44t45.5 -116zM316 566l68 214h93l-3 -14
l-98 -200h-60z" />
    <glyph glyph-name="iotatonos" unicode="&#x3af;" horiz-adv-x="301" 
d="M60 102q0 17 5 49l61 336h77l-60 -331q-4 -20 -4 -39q0 -58 71 -58q24 0 52 5l-11 -65q-30 -10 -59 -10q-61 0 -96.5 30t-35.5 83zM139 566l68 214h93l-3 -14l-98 -200h-60z" />
    <glyph glyph-name="upsilondieresistonos" unicode="&#x3b0;" horiz-adv-x="559" 
d="M69 166q0 22 4 42l48 279h77l-51 -289q-2 -14 -2 -29q0 -48 32.5 -78.5t83.5 -30.5t87 31t46 83l54 313h77l-55 -315q-15 -84 -73 -133q-59 -50 -140 -50q-82 0 -135 50t-53 127zM283 566l68 214h92l-2 -14l-98 -200h-60zM170 673q0 22 16.5 37.5t38.5 15.5
q23 0 39.5 -15.5t16.5 -37.5t-16.5 -37.5t-39.5 -15.5q-22 0 -38.5 15.5t-16.5 37.5zM432 673q0 22 16.5 37.5t39.5 15.5t39 -15.5t16 -37.5t-16 -37.5t-39 -15.5t-39.5 15.5t-16.5 37.5z" />
    <glyph glyph-name="alpha" unicode="&#x3b1;" horiz-adv-x="649" 
d="M597 58l-12 -64q-12 -4 -40 -4q-80 0 -97 72q-67 -73 -178 -73q-97 0 -160 65.5t-63 166.5q-2 115 76 197t185 80q63 0 115.5 -28.5t77.5 -76.5q6 28 22 96h72l-7 -29q-16 -68 -24 -109q-9 -43 -18 -96l-18 -108q-6 -36 -6 -44q0 -46 49 -46q20 0 26 1zM471 267
q0 71 -43 115.5t-113 44.5q-78 0 -133.5 -58t-55.5 -140q0 -74 45.5 -121.5t115.5 -47.5q77 0 130.5 60.5t53.5 146.5z" />
    <glyph glyph-name="beta" unicode="&#x3b2;" horiz-adv-x="608" 
d="M557 236q0 -108 -68.5 -177.5t-174.5 -69.5q-97 0 -162 66t-65 165q0 24 5 56l44 254q19 108 84.5 168t164.5 60q82 0 134 -46t52 -118q0 -106 -119 -181q105 -63 105 -177zM212 528l-28 -158q169 60 238.5 110t69.5 111q0 41 -33.5 68.5t-83.5 27.5q-66 0 -108 -41
t-55 -118zM478 232q0 90 -92 144q-94 -46 -216 -83l-3 -19q-5 -30 -5 -49q0 -71 44.5 -118t111.5 -47q72 0 115 48q45 48 45 124z" />
    <glyph glyph-name="gamma" unicode="&#x3b3;" horiz-adv-x="535" 
d="M546 487l-283 -444l-38 -223h-77l39 222l-127 445h79l99 -367l222 367h86z" />
    <glyph glyph-name="delta" unicode="&#x3b4;" horiz-adv-x="596" 
d="M587 750l-9 -73h-296l172 -212q52 -65 72 -111q21 -46 21 -101q2 -107 -77 -186.5t-185 -77.5q-103 0 -169.5 64t-66.5 164q-2 110 78.5 192t189.5 80h16l-198 238l2 23h450zM311 420q-79 0 -131 -57t-52 -145q0 -72 42 -115t113 -43q81 0 133 55t52 140q0 74 -43 119.5
t-114 45.5z" />
    <glyph glyph-name="epsilon" unicode="&#x3b5;" horiz-adv-x="506" 
d="M400 121l41 -54q-34 -36 -90 -57t-121 -21q-87 0 -140.5 37.5t-53.5 97.5q0 48 31.5 82t87.5 48q-55 37 -55 104q0 63 53.5 101.5t141.5 38.5q63 0 112.5 -22t74.5 -62l-52 -44q-19 27 -56 42.5t-81 15.5q-54 0 -83.5 -20.5t-29.5 -57.5q0 -31 22 -48.5t61 -17.5h100
l-10 -68h-117q-55 0 -87.5 -22t-32.5 -59q0 -35 31.5 -55t86.5 -20q102 0 166 61z" />
    <glyph glyph-name="zeta" unicode="&#x3b6;" horiz-adv-x="487" 
d="M507 727l-257 -317q-74 -91 -97.5 -136.5t-23.5 -98.5q0 -82 106 -106l50 -11q54 -12 86.5 -46.5t32.5 -80.5q0 -49 -42 -111h-77q39 52 39 105q0 28 -17.5 44t-57.5 25l-51 12q-70 16 -109 60t-39 107q0 61 27.5 113t119.5 165l181 227h-250l12 72h370z" />
    <glyph glyph-name="eta" unicode="&#x3b7;" horiz-adv-x="585" 
d="M522 338q0 -20 -6 -54l-82 -464h-77l82 461q6 31 6 48q0 46 -29 72.5t-78 26.5q-55 0 -94 -32t-49 -88l-55 -308h-77l60 340q5 30 5 41q0 48 -48 48q-5 0 -27 -2l12 65q18 5 39 5q35 0 60 -16t35 -44q61 61 154 61q78 0 123.5 -44t45.5 -116z" />
    <glyph glyph-name="theta" unicode="&#x3b8;" horiz-adv-x="617" 
d="M603 504q1 -144 -40 -263t-114.5 -186.5t-162.5 -65.5q-102 0 -161.5 65t-59.5 177q0 50 14 126h77q-14 -87 -14 -125q0 -83 36.5 -127.5t104.5 -44.5q70 0 126.5 61t86.5 167q-157 17 -239 81.5t-82 169.5q0 98 61 160t156 62q103 0 157 -66t54 -191zM512 359
q12 66 12 143q0 188 -136 188q-60 0 -96.5 -40.5t-36.5 -105.5q0 -79 66 -126.5t191 -58.5z" />
    <glyph glyph-name="iota" unicode="&#x3b9;" horiz-adv-x="301" 
d="M60 102q0 17 5 49l61 336h77l-60 -331q-4 -20 -4 -39q0 -58 71 -58q24 0 52 5l-11 -65q-30 -10 -59 -10q-61 0 -96.5 30t-35.5 83z" />
    <glyph glyph-name="kappa" unicode="&#x3ba;" horiz-adv-x="506" 
d="M129 487h77l-86 -487h-77zM518 487l-252 -231l185 -256h-91l-183 262l235 225h106z" />
    <glyph glyph-name="lambda" unicode="&#x3bb;" horiz-adv-x="548" 
d="M487 62h15l-11 -63q-15 -4 -41 -4q-64 0 -83 93l-62 309l-234 -397h-88l301 497l-17 99q-17 95 -87 95q-26 0 -44 -3l12 65q32 8 54 8q50 0 86.5 -34.5t48.5 -94.5l103 -521q5 -26 16 -37.5t31 -11.5z" />
    <glyph glyph-name="uni03BC" unicode="&#x3bc;" horiz-adv-x="592" 
d="M540 58l-12 -64q-17 -4 -38 -4q-74 0 -94 58q-54 -59 -140 -59q-88 0 -128 62l-40 -231h-77l118 667h77l-50 -284q-5 -35 -5 -39q0 -47 30 -76t80 -29q53 0 91 32t48 87l55 309h77l-61 -343q-5 -30 -5 -41q0 -46 48 -46q21 0 26 1z" />
    <glyph glyph-name="nu" unicode="&#x3bd;" horiz-adv-x="536" 
d="M459 487h88l-317 -498h-28l-142 498h78l97 -364z" />
    <glyph glyph-name="xi" unicode="&#x3be;" horiz-adv-x="473" 
d="M228 538q0 -52 32.5 -84.5t84.5 -32.5h93l-11 -68h-129q-67 0 -118.5 -49t-51.5 -113q0 -108 115 -125l38 -6q56 -9 86 -41t30 -80q0 -61 -42 -119h-76q38 59 38 102q0 59 -65 69l-46 7q-76 11 -118 61.5t-42 128.5q0 74 47.5 131.5t127.5 82.5q-71 44 -71 124
q0 96 80 152h-96l12 72h386l-12 -72h-145q-64 0 -105 -40q-42 -40 -42 -100z" />
    <glyph glyph-name="omicron" unicode="&#x3bf;" horiz-adv-x="609" 
d="M49 231q-2 107 79.5 188t190.5 79q103 0 173 -69.5t70 -172.5q2 -107 -80 -188t-192 -79q-103 0 -172 69.5t-69 172.5zM483 256q0 72 -47.5 121.5t-119.5 49.5q-79 0 -133.5 -57t-54.5 -139q0 -76 46 -123q47 -48 119 -48q80 0 135 57t55 139z" />
    <glyph glyph-name="pi" unicode="&#x3c0;" horiz-adv-x="582" 
d="M53 0l74 416h-73l12 73h536l-13 -73h-74l-74 -416h-76l74 416h-235l-74 -416h-77z" />
    <glyph glyph-name="rho" unicode="&#x3c1;" horiz-adv-x="617" 
d="M570 261q2 -113 -74.5 -193.5t-182.5 -78.5q-60 0 -109.5 26t-76.5 70l-46 -265h-77l76 433q20 114 88.5 179.5t166.5 65.5q103 0 169 -67t66 -170zM491 257q0 76 -44 123t-115 47q-76 0 -127.5 -59t-51.5 -145q0 -70 44 -117q43 -46 113 -46q75 0 128 58t53 139z" />
    <glyph glyph-name="uni03C2" unicode="&#x3c2;" horiz-adv-x="525" 
d="M344 -80q0 50 -68 69l-58 16q-81 23 -125 81t-44 143q0 115 76 192t189 77q67 0 122 -30.5t86 -84.5l-59 -39q-54 83 -151 83q-80 0 -132 -55t-52 -142q0 -64 34.5 -103.5t108.5 -59.5l40 -11q54 -15 83 -46t29 -74q0 -54 -42 -116h-76q39 57 39 100z" />
    <glyph glyph-name="sigma" unicode="&#x3c3;" horiz-adv-x="624" 
d="M652 487l-12 -73h-165q78 -55 78 -164q2 -106 -79.5 -184.5t-190.5 -76.5q-101 0 -168 67t-67 169q0 116 78.5 189t204.5 73h321zM474 254q0 74 -44 118.5t-116 44.5q-80 0 -133.5 -54t-53.5 -135q0 -74 44 -121q45 -47 116 -47q79 0 133 56t54 138z" />
    <glyph glyph-name="tau" unicode="&#x3c4;" horiz-adv-x="477" 
d="M285 414l-42 -242q-3 -16 -3 -33q0 -81 116 -81q7 0 61 2l-12 -65q-31 -6 -71 -6q-83 0 -127.5 36.5t-44.5 103.5q0 24 4 44l42 241h-163l14 73h429l-14 -73h-189z" />
    <glyph glyph-name="upsilon" unicode="&#x3c5;" horiz-adv-x="559" 
d="M69 166q0 22 4 42l48 279h77l-51 -289q-2 -14 -2 -29q0 -48 32.5 -78.5t83.5 -30.5t87 31t46 83l54 313h77l-55 -315q-15 -84 -73 -133q-59 -50 -140 -50q-82 0 -135 50t-53 127z" />
    <glyph glyph-name="phi" unicode="&#x3c6;" horiz-adv-x="727" 
d="M359 -11l-30 -169h-77l30 169q-106 3 -171 65t-65 159q0 107 66.5 184.5t176.5 98.5l12 -69q-82 -20 -129.5 -75t-47.5 -131q0 -72 47 -117t124 -47l51 286q13 76 52.5 115.5t102.5 39.5q82 0 133 -57.5t51 -149.5q2 -127 -92.5 -215t-233.5 -87zM605 285q0 66 -29 103.5
t-79 37.5q-32 0 -50 -20.5t-26 -67.5l-50 -281q100 1 167 66.5t67 161.5z" />
    <glyph glyph-name="chi" unicode="&#x3c7;" horiz-adv-x="507" 
d="M393 -117q18 0 24 1l-11 -64q-17 -6 -40 -6q-65 0 -93 83l-62 190l-194 -267h-91l253 341l-71 223q-14 41 -52 41q-18 0 -24 -1l12 65q17 5 41 5q35 0 55.5 -18t34.5 -63l59 -188l185 262h90l-245 -337l75 -222q15 -45 54 -45z" />
    <glyph glyph-name="psi" unicode="&#x3c8;" horiz-adv-x="738" 
d="M257 -180l30 169q-94 0 -153.5 57.5t-59.5 146.5q0 25 5 48l42 246h76l-42 -242q-4 -23 -4 -47q0 -64 40.5 -101.5t108.5 -37.5l105 601h77l-105 -601q176 0 209 191l41 237h76l-42 -243q-22 -130 -94 -192.5t-203 -62.5l-30 -169h-77z" />
    <glyph glyph-name="omega" unicode="&#x3c9;" horiz-adv-x="786" 
d="M737 268q0 -121 -58.5 -200t-148.5 -79q-53 0 -94 22.5t-62 61.5q-53 -84 -154 -84q-83 0 -129 55.5t-46 157.5q0 113 62 193q61 80 168 103l10 -68q-76 -23 -118.5 -83.5t-42.5 -145.5q0 -141 99 -141q47 0 79.5 33.5t43.5 93.5l24 136h73l-20 -114q-4 -25 -4 -45
q0 -50 26.5 -77t76.5 -27q61 0 98.5 56.5t37.5 146.5q0 70 -22 110.5t-70 59.5l31 65q140 -52 140 -230z" />
    <glyph glyph-name="iotadieresis" unicode="&#x3ca;" horiz-adv-x="301" 
d="M60 102q0 17 5 49l61 336h77l-60 -331q-4 -20 -4 -39q0 -58 71 -58q24 0 52 5l-11 -65q-30 -10 -59 -10q-61 0 -96.5 30t-35.5 83zM43 674q0 22 16.5 37.5t39.5 15.5t39 -15.5t16 -37.5t-16 -37.5t-39 -15.5t-39.5 15.5t-16.5 37.5zM229 674q0 22 16.5 37.5t38.5 15.5
q23 0 39.5 -15.5t16.5 -37.5t-16.5 -37.5t-39.5 -15.5q-22 0 -38.5 15.5t-16.5 37.5z" />
    <glyph glyph-name="upsilondieresis" unicode="&#x3cb;" horiz-adv-x="559" 
d="M69 166q0 22 4 42l48 279h77l-51 -289q-2 -14 -2 -29q0 -48 32.5 -78.5t83.5 -30.5t87 31t46 83l54 313h77l-55 -315q-15 -84 -73 -133q-59 -50 -140 -50q-82 0 -135 50t-53 127zM167 673q0 22 16.5 37.5t38.5 15.5q23 0 39.5 -15.5t16.5 -37.5t-16.5 -37.5t-39.5 -15.5
q-22 0 -38.5 15.5t-16.5 37.5zM389 673q0 22 16.5 37.5t39.5 15.5t39 -15.5t16 -37.5t-16 -37.5t-39 -15.5t-39.5 15.5t-16.5 37.5z" />
    <glyph glyph-name="omicrontonos" unicode="&#x3cc;" horiz-adv-x="609" 
d="M49 231q-2 107 79.5 188t190.5 79q103 0 173 -69.5t70 -172.5q2 -107 -80 -188t-192 -79q-103 0 -172 69.5t-69 172.5zM483 256q0 72 -47.5 121.5t-119.5 49.5q-79 0 -133.5 -57t-54.5 -139q0 -76 46 -123q47 -48 119 -48q80 0 135 57t55 139zM296 566l68 214h93l-3 -14
l-98 -200h-60z" />
    <glyph glyph-name="upsilontonos" unicode="&#x3cd;" horiz-adv-x="559" 
d="M69 166q0 22 4 42l48 279h77l-51 -289q-2 -14 -2 -29q0 -48 32.5 -78.5t83.5 -30.5t87 31t46 83l54 313h77l-55 -315q-15 -84 -73 -133q-59 -50 -140 -50q-82 0 -135 50t-53 127zM281 566l68 214h93l-3 -14l-98 -200h-60z" />
    <glyph glyph-name="omegatonos" unicode="&#x3ce;" horiz-adv-x="786" 
d="M737 268q0 -121 -58.5 -200t-148.5 -79q-53 0 -94 22.5t-62 61.5q-53 -84 -154 -84q-83 0 -129 55.5t-46 157.5q0 113 62 193q61 80 168 103l10 -68q-76 -23 -118.5 -83.5t-42.5 -145.5q0 -141 99 -141q47 0 79.5 33.5t43.5 93.5l24 136h73l-20 -114q-4 -25 -4 -45
q0 -50 26.5 -77t76.5 -27q61 0 98.5 56.5t37.5 146.5q0 70 -22 110.5t-70 59.5l31 65q140 -52 140 -230zM412 566l68 214h93l-3 -14l-98 -200h-60z" />
    <glyph glyph-name="uni0400" unicode="&#x400;" horiz-adv-x="567" 
d="M49 0l116 660h423l-13 -70h-345l-37 -202h265l-12 -70h-264l-43 -248h357l-12 -70h-435zM355 724l-86 172l2 14h88l53 -186h-57z" />
    <glyph glyph-name="uni0401" unicode="&#x401;" horiz-adv-x="567" 
d="M49 0l116 660h423l-13 -70h-345l-37 -202h265l-12 -70h-264l-43 -248h357l-12 -70h-435zM225 810q0 22 16.5 37.5t38.5 15.5q23 0 39 -15.5t16 -37.5t-16 -37.5t-39 -15.5q-22 0 -38.5 15.5t-16.5 37.5zM458 809q0 22 16 38t39 16t39 -16t16 -38t-16 -37.5t-39 -15.5
t-39 15.5t-16 37.5z" />
    <glyph glyph-name="uni0402" unicode="&#x402;" horiz-adv-x="733" 
d="M426 -11l-4 70q80 5 127 45t47 103q0 58 -35 88.5t-101 30.5q-89 0 -146 -25l-54 -301h-78l105 590h-203l12 70h523l-13 -70h-241l-39 -218q59 24 146 24q90 0 148.5 -51t58.5 -131q0 -96 -68 -156.5t-185 -68.5z" />
    <glyph glyph-name="uni0403" unicode="&#x403;" horiz-adv-x="508" 
d="M49 0l116 660h393l-11 -70h-317l-103 -590h-78zM314 724l113 186h98l-2 -14l-148 -172h-61z" />
    <glyph glyph-name="uni0404" unicode="&#x404;" horiz-adv-x="714" 
d="M609 166l54 -45q-53 -63 -126 -97.5t-155 -34.5q-136 0 -226 90t-90 226q-2 96 49 181.5t137.5 136t183.5 48.5q87 0 157.5 -41.5t111.5 -116.5l-64 -39q-69 125 -210 125q-101 0 -178.5 -64.5t-98.5 -162.5h355l-12 -70h-350q1 -105 69 -173t172 -68q131 0 221 105z" />
    <glyph glyph-name="uni0405" unicode="&#x405;" horiz-adv-x="557" 
d="M23 148l62 38q71 -125 190 -125q58 0 93.5 30t35.5 80q0 35 -22 61.5t-70 53.5l-71 40q-121 67 -121 168q0 76 58.5 126.5t147.5 50.5q142 0 208 -122l-62 -37q-56 87 -149 87q-56 0 -89 -27t-33 -74q0 -32 19 -55.5t68 -53.5l70 -40q127 -72 127 -172q0 -82 -60 -135
t-152 -53q-165 0 -250 159z" />
    <glyph glyph-name="uni0406" unicode="&#x406;" horiz-adv-x="259" 
d="M49 0l116 660h78l-116 -660h-78z" />
    <glyph glyph-name="uni0407" unicode="&#x407;" horiz-adv-x="259" 
d="M49 0l116 660h78l-116 -660h-78zM58 810q0 22 16.5 37.5t38.5 15.5q23 0 39 -15.5t16 -37.5t-16 -37.5t-39 -15.5q-22 0 -38.5 15.5t-16.5 37.5zM291 809q0 22 16 38t39 16t39 -16t16 -38t-16 -37.5t-39 -15.5t-39 15.5t-16 37.5z" />
    <glyph glyph-name="uni0408" unicode="&#x408;" horiz-adv-x="374" 
d="M-17 7l13 67q55 -12 91 -12q89 0 105 95l88 503h78l-91 -516q-13 -76 -58 -115.5t-117 -39.5q-56 0 -109 18z" />
    <glyph glyph-name="uni0409" unicode="&#x409;" horiz-adv-x="955" 
d="M899 207q0 -94 -68.5 -150.5t-183.5 -56.5h-228l103 590h-234l-6 -31q-45 -230 -85 -355q-37 -118 -83 -165q-43 -46 -115 -46q-28 0 -41 7l11 68q6 -3 31 -3q52 0 85 50q33 51 57 146q26 102 65 299l19 100h387l-46 -258h120q100 0 156 -51.5t56 -143.5zM820 203
q0 63 -34.5 96t-101.5 33h-129l-46 -262h148q77 0 120 35t43 98z" />
    <glyph glyph-name="uni040A" unicode="&#x40a;" horiz-adv-x="966" 
d="M49 0l116 660h78l-47 -258h305l46 258h78l-46 -258h120q98 0 155 -50t57 -137q0 -95 -70 -155t-182 -60h-228l58 332h-304l-58 -332h-78zM521 70h148q75 0 119 39t44 104q0 57 -35 88t-101 31h-129z" />
    <glyph glyph-name="uni040B" unicode="&#x40b;" horiz-adv-x="786" 
d="M684 202q0 -27 -5 -55l-26 -147h-78l25 141q5 28 5 53q0 132 -148 132q-77 0 -143 -25l-54 -301h-78l105 590h-203l12 70h523l-13 -70h-241l-39 -219q69 25 146 25q98 0 155 -51.5t57 -142.5z" />
    <glyph glyph-name="uni040C" unicode="&#x40c;" horiz-adv-x="631" 
d="M165 660h78l-116 -660h-78zM651 660l-354 -314l265 -346h-93l-271 354l344 306h109zM365 724l113 186h98l-2 -14l-148 -172h-61z" />
    <glyph glyph-name="uni040D" unicode="&#x40d;" horiz-adv-x="718" 
d="M675 671h28l-118 -671h-78l90 510l-522 -521h-28l118 671h78l-91 -511zM418 724l-86 172l2 14h88l53 -186h-57z" />
    <glyph glyph-name="uni040E" unicode="&#x40e;" horiz-adv-x="627" 
d="M582 660h91l-330 -546q-41 -68 -84.5 -96t-107.5 -28q-40 0 -63 10l11 70q20 -7 53 -7q42 0 67.5 17t52.5 62l1 1l-157 517h82l129 -432zM257 862q0 10 6 48h65q-6 -34 -6 -42q0 -39 22 -61.5t58 -22.5q38 0 62.5 24.5t31.5 70.5l5 31h64l-5 -31q-11 -71 -54.5 -112
t-107.5 -41q-60 0 -101 38q-40 39 -40 98z" />
    <glyph glyph-name="uni040F" unicode="&#x40f;" horiz-adv-x="698" 
d="M681 660l-116 -660h-219l-25 -141h-78l25 141h-219l116 660h78l-104 -590h361l103 590h78z" />
    <glyph glyph-name="uni0410" unicode="&#x410;" horiz-adv-x="663" 
d="M514 0l-33 134h-321l-80 -134h-88l404 671h28l169 -671h-79zM463 204l-75 320l-187 -320h262z" />
    <glyph glyph-name="uni0411" unicode="&#x411;" horiz-adv-x="583" 
d="M49 0l116 660h392l-12 -70h-314l-36 -200h136q90 0 144 -51.5t54 -136.5q0 -94 -64.5 -148t-175.5 -54h-240zM139 70h156q74 0 114.5 33.5t40.5 94.5q0 58 -32.5 90t-91.5 32h-143z" />
    <glyph glyph-name="uni0412" unicode="&#x412;" horiz-adv-x="615" 
d="M561 196q0 -86 -65.5 -141t-167.5 -55h-279l116 660h207q81 0 129 -43t48 -114q0 -101 -86 -149q46 -21 72 -62.5t26 -95.5zM358 590h-127l-36 -205h147q57 0 91.5 30.5t34.5 82.5q0 44 -29 68t-81 24zM480 198q0 54 -34 85t-93 31h-171l-43 -244h185q71 0 113.5 35
t42.5 93z" />
    <glyph glyph-name="uni0413" unicode="&#x413;" horiz-adv-x="508" 
d="M49 0l116 660h393l-11 -70h-317l-103 -590h-78z" />
    <glyph glyph-name="uni0414" unicode="&#x414;" horiz-adv-x="675" 
d="M638 660l-103 -590h80l-38 -211h-78l25 141h-479l-25 -141h-78l38 211h51q63 49 108 170q47 120 84 337l15 83h400zM117 70h340l91 520h-251q-71 -405 -180 -520z" />
    <glyph glyph-name="uni0415" unicode="&#x415;" horiz-adv-x="567" 
d="M49 0l116 660h423l-13 -70h-345l-37 -202h265l-12 -70h-264l-43 -248h357l-12 -70h-435z" />
    <glyph glyph-name="uni0416" unicode="&#x416;" horiz-adv-x="959" 
d="M219 660l234 -306l-364 -354h-104l374 361l-232 299h92zM515 660h78l-116 -660h-78zM981 660l-338 -312l248 -348h-91l-251 354l325 306h107z" />
    <glyph glyph-name="uni0417" unicode="&#x417;" horiz-adv-x="582" 
d="M526 206q0 -94 -69.5 -155.5t-175.5 -61.5q-87 0 -152 42.5t-99 119.5l61 35q62 -125 188 -125q76 0 122 38.5t46 102.5q0 52 -34.5 82.5t-90.5 30.5h-88l11 69h69q70 0 111 31t41 84q0 47 -32 73.5t-88 26.5q-100 0 -171 -75l-49 47q86 100 228 100q84 0 137.5 -46.5
t53.5 -118.5q0 -52 -28 -93.5t-77 -63.5q86 -47 86 -143z" />
    <glyph glyph-name="uni0418" unicode="&#x418;" horiz-adv-x="718" 
d="M675 671h28l-118 -671h-78l90 510l-522 -521h-28l118 671h78l-91 -511z" />
    <glyph glyph-name="uni0419" unicode="&#x419;" horiz-adv-x="718" 
d="M675 671h28l-118 -671h-78l90 510l-522 -521h-28l118 671h78l-91 -511zM310 862q0 10 6 48h65q-6 -34 -6 -42q0 -39 22 -61.5t58 -22.5q38 0 62.5 24.5t31.5 70.5l5 31h64l-5 -31q-11 -71 -54.5 -112t-107.5 -41q-60 0 -101 38q-40 39 -40 98z" />
    <glyph glyph-name="uni041A" unicode="&#x41a;" horiz-adv-x="631" 
d="M165 660h78l-116 -660h-78zM651 660l-354 -314l265 -346h-93l-271 354l344 306h109z" />
    <glyph glyph-name="uni041B" unicode="&#x41b;" horiz-adv-x="659" 
d="M227 660h415l-116 -660h-78l105 590h-264l-6 -30q-44 -225 -83 -348q-37 -118 -83.5 -168.5t-117.5 -50.5q-28 0 -41 7l11 68q6 -3 31 -3q48 0 81 51q34 52 61 154q28 102 66 291z" />
    <glyph glyph-name="uni041C" unicode="&#x41c;" horiz-adv-x="789" 
d="M746 671h28l-118 -671h-78l83 470l-256 -283h-28l-165 300l-85 -487h-78l118 671h28l207 -381z" />
    <glyph glyph-name="uni041D" unicode="&#x41d;" horiz-adv-x="708" 
d="M49 0l116 660h78l-49 -272h371l48 272h78l-116 -660h-78l57 318h-371l-56 -318h-78z" />
    <glyph glyph-name="uni041E" unicode="&#x41e;" horiz-adv-x="782" 
d="M66 305q-2 97 49 182.5t137 135.5t182 48q134 2 225 -90.5t89 -225.5q2 -96 -49.5 -182t-137.5 -136t-181 -48q-134 -2 -225 90.5t-89 225.5zM667 353q0 106 -67.5 176t-171.5 70q-115 2 -200 -85t-82 -205q0 -107 67.5 -177.5t170.5 -70.5q115 -2 200 86t83 206z" />
    <glyph glyph-name="uni041F" unicode="&#x41f;" horiz-adv-x="698" 
d="M49 0l116 660h516l-116 -660h-78l105 590h-361l-104 -590h-78z" />
    <glyph glyph-name="uni0420" unicode="&#x420;" horiz-adv-x="577" 
d="M49 0l116 660h209q95 0 149.5 -48t54.5 -130q0 -92 -66.5 -149t-175.5 -57h-161l-48 -276h-78zM188 346h157q71 0 111.5 35.5t40.5 97.5q0 54 -32.5 82.5t-94.5 28.5h-140z" />
    <glyph glyph-name="uni0421" unicode="&#x421;" horiz-adv-x="714" 
d="M66 305q-2 96 49 181.5t137.5 136t183.5 48.5q87 0 157.5 -41.5t111.5 -116.5l-64 -39q-69 125 -210 125q-116 2 -201 -85t-83 -206q0 -108 68 -177.5t173 -69.5q131 0 221 105l54 -45q-53 -63 -126 -97.5t-155 -34.5q-136 0 -226 90t-90 226z" />
    <glyph glyph-name="uni0422" unicode="&#x422;" horiz-adv-x="587" 
d="M212 0l104 590h-232l12 70h543l-13 -70h-232l-104 -590h-78z" />
    <glyph glyph-name="uni0423" unicode="&#x423;" horiz-adv-x="627" 
d="M582 660h91l-330 -546q-41 -68 -84.5 -96t-107.5 -28q-40 0 -63 10l11 70q20 -7 53 -7q42 0 67.5 17t52.5 62l1 1l-157 517h82l129 -432z" />
    <glyph glyph-name="uni0424" unicode="&#x424;" horiz-adv-x="810" 
d="M320 -20l15 85q-112 -2 -191 72t-77 178q0 128 97 208t252 80h15l13 77h78l-14 -77q113 0 190 -72.5t77 -178.5q0 -128 -96.5 -207.5t-251.5 -79.5h-14l-15 -85h-78zM348 135l71 398h-14q-113 0 -184.5 -60t-71.5 -154q0 -82 55.5 -133t143.5 -51zM426 135h11
q115 0 186 59t71 154q0 81 -55 133t-143 52z" />
    <glyph glyph-name="uni0425" unicode="&#x425;" horiz-adv-x="592" 
d="M624 660l-264 -329l164 -331h-84l-134 274l-224 -274h-97l285 345l-153 315h83l123 -260l204 260h97z" />
    <glyph glyph-name="uni0426" unicode="&#x426;" horiz-adv-x="718" 
d="M543 -141l25 141h-519l116 660h78l-104 -590h361l103 590h78l-103 -590h80l-37 -211h-78z" />
    <glyph glyph-name="uni0427" unicode="&#x427;" horiz-adv-x="647" 
d="M553 660h78l-116 -660h-78l47 266q-63 -27 -141 -27q-112 0 -176.5 55.5t-64.5 151.5q0 31 8 77l24 137h78l-24 -137q-8 -50 -8 -73q0 -139 165 -139q88 0 151 26z" />
    <glyph glyph-name="uni0428" unicode="&#x428;" horiz-adv-x="964" 
d="M49 0l116 660h78l-104 -590h275l103 590h78l-103 -590h274l104 590h78l-116 -660h-783z" />
    <glyph glyph-name="uni0429" unicode="&#x429;" horiz-adv-x="985" 
d="M809 -141l25 141h-785l116 660h78l-104 -590h275l103 590h78l-103 -590h274l104 590h78l-104 -590h81l-38 -211h-78z" />
    <glyph glyph-name="uni042A" unicode="&#x42a;" horiz-adv-x="664" 
d="M128 0l104 590h-151l12 70h229l-46 -258h120q100 0 156 -52t56 -144q0 -94 -68.5 -150t-183.5 -56h-228zM218 70h148q77 0 120 35t43 98t-34.5 96t-101.5 33h-129z" />
    <glyph glyph-name="uni042B" unicode="&#x42b;" horiz-adv-x="816" 
d="M49 0l116 660h78l-46 -258h120q100 0 156 -51t56 -142q0 -97 -68 -153t-184 -56h-228zM139 70h148q78 0 120.5 35.5t42.5 100.5q0 126 -136 126h-129zM606 0l116 660h78l-116 -660h-78z" />
    <glyph glyph-name="uni042C" unicode="&#x42c;" horiz-adv-x="584" 
d="M49 0l116 660h78l-46 -258h120q100 0 156 -51t56 -142q0 -97 -68 -153t-184 -56h-228zM139 70h148q78 0 120.5 35.5t42.5 100.5q0 126 -136 126h-129z" />
    <glyph glyph-name="uni042D" unicode="&#x42d;" horiz-adv-x="714" 
d="M679 355q3 -147 -109 -258t-260 -108q-88 0 -158.5 41.5t-110.5 116.5l64 39q69 -125 210 -125q104 0 183 68t97 171h-313l13 70h303q-6 101 -73 165t-167 64q-131 0 -221 -105l-55 45q53 63 126.5 97.5t155.5 34.5q134 2 225.5 -90t89.5 -226z" />
    <glyph glyph-name="uni042E" unicode="&#x42e;" horiz-adv-x="979" 
d="M945 355q3 -147 -105 -258t-251 -108q-128 -2 -216.5 90t-86.5 226v13h-103l-56 -318h-78l116 660h78l-49 -272h101q27 121 125 202t221 81q128 2 217 -90.5t87 -225.5zM864 353q0 107 -65 176.5t-164 69.5q-110 2 -191.5 -85t-79.5 -205q0 -108 65 -178t164 -70
q110 -2 191.5 85.5t79.5 206.5z" />
    <glyph glyph-name="uni042F" unicode="&#x42f;" horiz-adv-x="619" 
d="M379 660h223l-116 -660h-78l44 250h-114q-21 0 -27 1l-214 -251h-91l227 268q-54 22 -83 67t-29 105q0 98 70.5 159t187.5 61zM464 320l49 270h-144q-77 0 -122 -40t-45 -105q0 -60 36 -92.5t105 -32.5h121z" />
    <glyph glyph-name="uni0430" unicode="&#x430;" horiz-adv-x="629" 
d="M511 487h77l-86 -487h-72l12 65q-65 -76 -176 -76q-94 0 -156.5 66t-62.5 165q-2 115 76.5 197.5t187.5 80.5q60 0 109.5 -25.5t76.5 -68.5zM471 272q0 69 -42.5 112t-112.5 43q-79 0 -134.5 -59.5t-55.5 -142.5q0 -73 45 -119t116 -46q77 0 130.5 61.5t53.5 150.5z" />
    <glyph glyph-name="uni0431" unicode="&#x431;" horiz-adv-x="618" 
d="M164 398q68 89 186 89q96 0 158 -65t62 -166q0 -112 -77 -189t-189 -77q-101 0 -167.5 64t-66.5 163q0 51 24 180q31 157 104.5 225.5t243.5 97.5q60 10 112 20q37 7 67 21l-13 -73q-31 -14 -66 -22q-21 -4 -108 -16q-138 -22 -190 -71.5t-80 -180.5zM147 226
q0 -73 44.5 -119.5t114.5 -46.5q77 0 131 55t54 135q0 72 -45 119.5t-115 47.5q-77 0 -130.5 -56t-53.5 -135z" />
    <glyph glyph-name="uni0432" unicode="&#x432;" horiz-adv-x="514" 
d="M455 154q0 -73 -60 -119t-156 -46q-92 0 -144 53t-52 148q0 34 11 98q17 100 79 155t158 55q79 0 125.5 -34t46.5 -92q0 -86 -91 -117q83 -29 83 -101zM132 288h124q61 0 94 20.5t33 58.5q0 62 -96 62q-66 0 -103.5 -34.5t-51.5 -106.5zM376 149q0 33 -34.5 52t-93.5 19
h-126q-1 -6 -1 -25q0 -66 32.5 -101.5t92.5 -35.5t95 25t35 66z" />
    <glyph glyph-name="uni0433" unicode="&#x433;" horiz-adv-x="454" 
d="M30 122q0 49 40 88.5t115 64.5l58 19q45 15 64 32t19 42q0 28 -20.5 43.5t-58.5 15.5q-63 0 -124 -49l-34 60q75 60 164 60q70 0 110.5 -35.5t40.5 -95.5q0 -100 -143 -147l-58 -19q-94 -30 -94 -80q0 -29 23 -45t65 -16q74 0 148 70l42 -57q-79 -84 -189 -84
q-76 0 -122 36.5t-46 96.5z" />
    <glyph glyph-name="uni0434" unicode="&#x434;" horiz-adv-x="603" 
d="M550 303q0 -148 -70 -231t-194 -83q-106 0 -172.5 65t-66.5 169q-2 104 74.5 182t179.5 76q105 0 168 -71q-20 142 -79.5 206.5t-169.5 64.5q-29 0 -76 -5l13 73q38 5 63 5q167 0 248.5 -111.5t81.5 -339.5zM467 246q0 74 -44 119t-117 45q-77 0 -128.5 -53t-51.5 -134
q0 -74 43 -118.5t114 -44.5q79 0 131.5 53.5t52.5 132.5z" />
    <glyph glyph-name="uni0435" unicode="&#x435;" horiz-adv-x="563" 
d="M510 220h-383q4 -74 49.5 -117t120.5 -43q78 0 150 59l39 -52q-81 -78 -196 -78q-105 0 -173.5 67.5t-68.5 171.5q-2 109 77.5 190.5t186.5 79.5q93 0 151.5 -60t58.5 -156q0 -34 -12 -62zM133 288h311q-1 66 -37 103t-99 37q-65 0 -112 -38t-63 -102z" />
    <glyph glyph-name="uni0436" unicode="&#x436;" horiz-adv-x="762" 
d="M177 487l160 -226l-264 -261h-102l276 267l-160 220h90zM387 487h77l-86 -487h-77zM764 487l-243 -231l186 -256h-91l-184 261l226 226h106z" />
    <glyph glyph-name="uni0437" unicode="&#x437;" horiz-adv-x="455" 
d="M382 145q0 -70 -51 -113t-135 -43q-119 0 -188 88l52 52q65 -69 142 -69q101 0 101 85q0 38 -27.5 58.5t-78.5 20.5h-49l13 68h56q102 0 102 71q0 29 -23.5 46.5t-63.5 17.5q-67 0 -121 -60l-46 49q70 82 172 82q73 0 116.5 -35.5t43.5 -94.5q0 -81 -80 -117
q65 -30 65 -106z" />
    <glyph glyph-name="uni0438" unicode="&#x438;" horiz-adv-x="566" 
d="M448 487h77l-85 -487h-73l8 47q-58 -58 -144 -58q-75 0 -120.5 44.5t-45.5 115.5q0 19 6 54l50 284h77l-51 -286q-5 -30 -5 -41q0 -48 28.5 -74.5t79.5 -26.5q54 0 94 32.5t50 86.5z" />
    <glyph glyph-name="uni0439" unicode="&#x439;" horiz-adv-x="566" 
d="M448 487h77l-85 -487h-73l8 47q-58 -58 -144 -58q-75 0 -120.5 44.5t-45.5 115.5q0 19 6 54l50 284h77l-51 -286q-5 -30 -5 -41q0 -48 28.5 -74.5t79.5 -26.5q54 0 94 32.5t50 86.5zM205 708q0 19 7 54h64q-6 -40 -6 -48q0 -39 21.5 -61.5t58.5 -22.5t62 25t32 70l6 37
h64l-6 -37q-12 -71 -55 -111.5t-107 -40.5q-62 0 -101.5 38t-39.5 97z" />
    <glyph glyph-name="uni043A" unicode="&#x43a;" horiz-adv-x="506" 
d="M129 487h77l-86 -487h-77zM518 487l-252 -231l185 -256h-91l-183 262l235 225h106z" />
    <glyph glyph-name="uni043B" unicode="&#x43b;" horiz-adv-x="539" 
d="M-21 -1l12 65q4 -1 18 -1q45 0 72.5 46.5t52.5 168.5q21 101 49 143q28 44 63 55q36 11 98 11h153l-85 -487h-76l73 420h-60q-73 -3 -98 -30t-50 -134q-34 -153 -72.5 -206.5t-115.5 -55.5q-19 0 -34 5z" />
    <glyph glyph-name="uni043C" unicode="&#x43c;" horiz-adv-x="687" 
d="M619 498h28l-88 -498h-77l58 322l-199 -199h-29l-133 212l-59 -335h-77l88 498h28l178 -282z" />
    <glyph glyph-name="uni043D" unicode="&#x43d;" horiz-adv-x="564" 
d="M44 0l85 487h77l-35 -195h242l34 195h77l-86 -487h-76l39 226h-241l-39 -226h-77z" />
    <glyph glyph-name="uni043E" unicode="&#x43e;" horiz-adv-x="609" 
d="M49 231q-2 107 79.5 188t190.5 79q103 0 173 -69.5t70 -172.5q2 -107 -80 -188t-192 -79q-103 0 -172 69.5t-69 172.5zM483 256q0 72 -47.5 121.5t-119.5 49.5q-79 0 -133.5 -57t-54.5 -139q0 -76 46 -123q47 -48 119 -48q80 0 135 57t55 139z" />
    <glyph glyph-name="uni043F" unicode="&#x43f;" horiz-adv-x="566" 
d="M503 338q0 -20 -6 -54l-50 -284h-77l51 286q5 30 5 41q0 48 -29 74.5t-78 26.5q-55 0 -95 -32.5t-49 -87.5l-54 -308h-77l85 487h72l-8 -47q58 58 144 58q75 0 120.5 -44.5t45.5 -115.5z" />
    <glyph glyph-name="uni0440" unicode="&#x440;" horiz-adv-x="630" 
d="M583 261q2 -112 -76 -193t-185 -79q-61 0 -111.5 27t-75.5 72l-47 -268h-77l118 667h72l-12 -66q64 77 175 77q94 0 156.5 -67.5t62.5 -169.5zM504 254q0 77 -46 124q-45 49 -116 49q-77 0 -130.5 -61.5t-53.5 -150.5q0 -68 44 -112q44 -43 115 -43q77 0 132 57t55 137z
" />
    <glyph glyph-name="uni0441" unicode="&#x441;" horiz-adv-x="558" 
d="M48 228q-2 110 79.5 191t191.5 79q66 0 120 -30.5t84 -84.5l-59 -39q-53 83 -147 83q-80 0 -135 -57t-55 -138q0 -75 47 -124t119 -49q90 0 148 70l50 -46q-74 -94 -201 -94q-104 0 -173 68t-69 171z" />
    <glyph glyph-name="uni0442" unicode="&#x442;" horiz-adv-x="874" 
d="M811 338q0 -20 -6 -54l-50 -284h-77l51 286q5 33 5 41q0 48 -27.5 74.5t-75.5 26.5q-52 0 -91 -32.5t-48 -87.5l-54 -308h-77l51 286q5 33 5 41q0 47 -28 74t-75 27q-52 0 -91 -32.5t-48 -87.5l-54 -308h-77l85 487h72l-8 -47q58 58 140 58q103 0 143 -81q64 81 169 81
q75 0 120.5 -44t45.5 -116z" />
    <glyph glyph-name="uni0443" unicode="&#x443;" horiz-adv-x="564" 
d="M446 487h77l-85 -483q-16 -90 -76 -142.5t-146 -52.5q-63 0 -118 29.5t-89 82.5l51 49q63 -90 156 -90q58 0 96 33t49 94l8 47q-57 -52 -137 -52q-74 0 -119.5 43.5t-45.5 115.5q0 19 6 54l48 272h77l-50 -274q-5 -30 -5 -41q0 -47 29 -73.5t79 -26.5q54 0 93.5 32
t49.5 87z" />
    <glyph glyph-name="uni0444" unicode="&#x444;" horiz-adv-x="721" 
d="M675 265q0 -122 -87 -199t-226 -77h-7l-29 -169h-77l31 170q-103 6 -168 70.5t-65 161.5q0 122 88 199t227 77h6l44 252h76l-44 -253q103 -6 167 -70.5t64 -161.5zM291 58l65 370h-4q-104 0 -165 -55t-61 -147q0 -75 44 -120t121 -48zM596 261q0 76 -44 120.5t-121 46.5
l-64 -370h5q102 0 163 55t61 148z" />
    <glyph glyph-name="uni0445" unicode="&#x445;" horiz-adv-x="495" 
d="M505 487l-210 -239l138 -248h-88l-103 196l-170 -196h-95l226 255l-125 232h89l90 -178l154 178h94z" />
    <glyph glyph-name="uni0446" unicode="&#x446;" horiz-adv-x="599" 
d="M506 63h25l-36 -204h-72l25 140q-42 7 -60 49q-64 -59 -157 -59q-74 0 -120 44t-46 116q0 19 6 54l50 284h77l-51 -286q-5 -30 -5 -41q0 -47 29 -74t79 -27q56 0 94.5 32t49.5 87l54 309h77l-63 -357q0 -3 -0.5 -7t-1 -6.5t-0.5 -5v-3.5q0 -21 12.5 -33t33.5 -12z" />
    <glyph glyph-name="uni0447" unicode="&#x447;" horiz-adv-x="511" 
d="M400 487h77l-86 -487h-77l33 189q-52 -20 -107 -20q-79 0 -123.5 45t-44.5 124q0 20 5 52l17 97h77l-18 -102q-5 -33 -5 -44q0 -101 103 -101q56 0 109 19z" />
    <glyph glyph-name="uni0448" unicode="&#x448;" horiz-adv-x="874" 
d="M756 487h77l-85 -486h-72l8 48q-57 -59 -141 -59q-102 0 -142 81q-64 -81 -170 -81q-75 0 -120.5 44t-45.5 116q0 20 6 54l50 283h77l-51 -285q-5 -30 -5 -42q0 -47 27.5 -73.5t75.5 -26.5q53 0 91.5 32t48.5 87l54 308h77l-51 -285q-5 -30 -5 -42q0 -47 27.5 -73.5
t75.5 -26.5q52 0 90.5 32.5t48.5 86.5z" />
    <glyph glyph-name="uni0449" unicode="&#x449;" horiz-adv-x="907" 
d="M814 63h25l-36 -204h-72l25 140q-46 11 -60 51q-61 -61 -149 -61q-107 0 -147 81q-64 -81 -169 -81q-74 0 -120 44t-46 116q0 19 6 54l50 284h77l-51 -286q-5 -30 -5 -41q0 -47 28 -74t76 -27q53 0 91 32t48 87l54 309h77l-51 -286q-5 -30 -5 -41q0 -48 27.5 -74.5
t75.5 -26.5q52 0 91 32.5t48 86.5l54 309h77l-63 -357l-2 -22q0 -21 12.5 -33t33.5 -12z" />
    <glyph glyph-name="uni044A" unicode="&#x44a;" horiz-adv-x="567" 
d="M505 166q0 -80 -55.5 -128t-149.5 -48q-87 0 -135 41.5t-48 116.5q0 18 5 51l40 221h-110l11 67h187l-28 -157h93q90 0 140 -43t50 -121zM426 164q0 47 -32 72t-91 25h-93l-12 -68q-4 -20 -4 -39q0 -97 106 -97q58 0 92 28.5t34 78.5z" />
    <glyph glyph-name="uni044B" unicode="&#x44b;" horiz-adv-x="685" 
d="M450 166q0 -80 -54 -128t-144 -48q-86 0 -133 41.5t-47 116.5q0 18 5 51l52 288h77l-28 -157h82q90 0 140 -43t50 -121zM575 487h77l-86 -487h-77zM371 164q0 97 -123 97h-83l-12 -68q-4 -20 -4 -39q0 -97 106 -97q54 0 85 28.5t31 78.5z" />
    <glyph glyph-name="uni044C" unicode="&#x44c;" horiz-adv-x="523" 
d="M460 166q0 -80 -55.5 -128t-149.5 -48q-85 0 -134 41t-49 117q0 18 5 51l52 288h77l-28 -157h92q90 0 140 -43t50 -121zM381 164q0 97 -123 97h-93l-12 -68q-4 -20 -4 -39q0 -97 106 -97q58 0 92 28.5t34 78.5z" />
    <glyph glyph-name="uni044D" unicode="&#x44d;" horiz-adv-x="557" 
d="M509 258q2 -109 -79 -190t-191 -79q-66 0 -120 30.5t-84 83.5l59 40q54 -84 148 -84q70 0 121.5 44t64.5 113h-232l11 68h222q-8 65 -53 104.5t-111 39.5q-88 0 -148 -71l-50 44q75 97 201 97q104 0 172.5 -68.5t68.5 -171.5z" />
    <glyph glyph-name="uni044E" unicode="&#x44e;" horiz-adv-x="798" 
d="M750 258q2 -108 -78 -189.5t-188 -79.5q-98 0 -164 65t-71 164h-91l-38 -218h-77l86 487h77l-36 -201h85q18 91 91.5 151.5t167.5 60.5q100 0 168 -69.5t68 -170.5zM510 427q-76 0 -131 -58t-55 -139q0 -74 46.5 -122t116.5 -48q79 0 132 57t53 140q0 73 -46 121.5
t-116 48.5z" />
    <glyph glyph-name="uni044F" unicode="&#x44f;" horiz-adv-x="525" 
d="M300 487h184l-86 -487h-77l31 178h-87l-166 -178h-95l179 191q-42 17 -66.5 51t-24.5 76q0 77 56.5 123t151.5 46zM364 245l31 173h-100q-60 0 -92.5 -25t-32.5 -71q0 -35 27 -56t72 -21h95z" />
    <glyph glyph-name="uni0450" unicode="&#x450;" horiz-adv-x="563" 
d="M510 220h-383q4 -74 49.5 -117t120.5 -43q78 0 150 59l39 -52q-81 -78 -196 -78q-105 0 -173.5 67.5t-68.5 171.5q-2 109 77.5 190.5t186.5 79.5q93 0 151.5 -60t58.5 -156q0 -34 -12 -62zM133 288h311q-1 66 -37 103t-99 37q-65 0 -112 -38t-63 -102zM284 566l-50 200
l5 14h86l14 -214h-55z" />
    <glyph glyph-name="uni0451" unicode="&#x451;" horiz-adv-x="563" 
d="M510 220h-383q4 -74 49.5 -117t120.5 -43q78 0 150 59l39 -52q-81 -78 -196 -78q-105 0 -173.5 67.5t-68.5 171.5q-2 109 77.5 190.5t186.5 79.5q93 0 151.5 -60t58.5 -156q0 -34 -12 -62zM133 288h311q-1 66 -37 103t-99 37q-65 0 -112 -38t-63 -102zM175 673
q0 22 16.5 37.5t38.5 15.5q23 0 39.5 -15.5t16.5 -37.5t-16.5 -37.5t-39.5 -15.5q-22 0 -38.5 15.5t-16.5 37.5zM397 673q0 22 16.5 37.5t39.5 15.5t39 -15.5t16 -37.5t-16 -37.5t-39 -15.5t-39.5 15.5t-16.5 37.5z" />
    <glyph glyph-name="uni0452" unicode="&#x452;" horiz-adv-x="570" 
d="M504 325q0 -24 -6 -54l-56 -316q-13 -71 -56.5 -108.5t-107.5 -37.5q-39 0 -78 14l11 62q29 -6 56 -6q83 0 100 87l55 307q5 30 5 41q0 47 -29 73.5t-78 26.5q-56 0 -95 -32.5t-49 -87.5l-53 -294h-76l102 579h-83l12 68h83l18 103h77l-18 -103h201l-13 -68h-200
l-26 -147q58 52 138 52q74 0 120 -44.5t46 -114.5z" />
    <glyph glyph-name="uni0453" unicode="&#x453;" horiz-adv-x="454" 
d="M30 122q0 49 40 88.5t115 64.5l58 19q45 15 64 32t19 42q0 28 -20.5 43.5t-58.5 15.5q-63 0 -124 -49l-34 60q75 60 164 60q70 0 110.5 -35.5t40.5 -95.5q0 -100 -143 -147l-58 -19q-94 -30 -94 -80q0 -29 23 -45t65 -16q74 0 148 70l42 -57q-79 -84 -189 -84
q-76 0 -122 36.5t-46 96.5zM219 566l123 214h98l-2 -14l-155 -200h-64z" />
    <glyph glyph-name="uni0454" unicode="&#x454;" horiz-adv-x="563" 
d="M441 129l50 -43q-75 -97 -201 -97q-104 0 -173 68.5t-69 171.5q-2 109 79.5 190t191.5 79q66 0 120 -30.5t84 -84.5l-59 -39q-55 84 -148 84q-66 0 -116.5 -40t-66.5 -104h231l-11 -68h-225q5 -71 50 -114t115 -43q90 0 148 70z" />
    <glyph glyph-name="uni0455" unicode="&#x455;" horiz-adv-x="456" 
d="M22 95l56 48q36 -45 67 -64t69 -19q44 0 70.5 18.5t26.5 49.5q0 24 -15 39.5t-61 38.5l-44 22q-55 27 -79 58t-24 74q0 62 45.5 100t121.5 38q109 0 164 -85l-54 -44q-43 58 -116 58q-39 0 -60.5 -16.5t-21.5 -45.5q0 -22 14 -37.5t53 -35.5l42 -22q63 -34 88.5 -63
t25.5 -75q0 -64 -48.5 -103.5t-127.5 -39.5q-61 0 -111 27.5t-81 78.5z" />
    <glyph glyph-name="uni0456" unicode="&#x456;" horiz-adv-x="246" 
d="M43 0l86 487h77l-86 -487h-77zM143 673q0 23 17 39.5t40 16.5q24 0 41 -16.5t17 -39.5q0 -24 -17 -40t-41 -16t-40.5 16t-16.5 40z" />
    <glyph glyph-name="uni0457" unicode="&#x457;" horiz-adv-x="248" 
d="M79 673q0 23 15.5 39.5t37.5 16.5t37.5 -16.5t15.5 -39.5q0 -24 -15.5 -40t-37.5 -16t-37.5 16t-15.5 40zM201 673q0 23 15.5 39.5t37.5 16.5t37.5 -16.5t15.5 -39.5q0 -24 -15.5 -40t-37.5 -16t-37.5 16t-15.5 40zM43 0l86 487h77l-86 -487h-77z" />
    <glyph glyph-name="uni0458" unicode="&#x458;" horiz-adv-x="247" 
d="M-128 -177l11 62q29 -6 56 -6q42 0 66 20.5t32 65.5l93 522h77l-95 -533q-12 -72 -54.5 -108.5t-108.5 -36.5q-38 0 -77 14zM143 673q0 23 17 39.5t40 16.5q24 0 41 -16.5t17 -39.5q0 -24 -17 -40t-41 -16t-40.5 16t-16.5 40z" />
    <glyph glyph-name="uni0459" unicode="&#x459;" horiz-adv-x="807" 
d="M745 166q0 -80 -55.5 -128t-149.5 -48q-85 0 -134 41t-49 117q0 18 5 51l40 221h-40q-59 0 -89 -15q-29 -14 -41 -41q-10 -26 -24 -84l-6 -24q-40 -159 -75.5 -208t-113.5 -52q-19 0 -34 4l12 66q12 -3 29 -3q31 0 52 31q22 30 34 72q9 31 28 113l5 20q15 66 32 104
q39 84 183 84h136l-28 -157h93q90 0 140 -43t50 -121zM666 164q0 47 -32 72t-91 25h-93l-12 -68q-4 -20 -4 -39q0 -97 106 -97q58 0 92 28.5t34 78.5z" />
    <glyph glyph-name="uni045A" unicode="&#x45a;" horiz-adv-x="814" 
d="M749 155q0 -77 -53.5 -121t-146.5 -44q-86 0 -136.5 41t-50.5 118q0 17 5 50l8 44h-212l-42 -243h-77l85 487h77l-32 -176h213l31 176h77l-31 -176h94q91 0 141 -41t50 -115zM671 152q0 91 -125 91h-94l-9 -50q-4 -20 -4 -39q0 -97 109 -97q58 0 90.5 25t32.5 70z" />
    <glyph glyph-name="uni045B" unicode="&#x45b;" horiz-adv-x="569" 
d="M503 324q0 -18 -6 -54l-47 -270h-77l48 272q5 37 5 41q0 47 -29 73.5t-78 26.5q-55 0 -95 -32t-49 -87l-52 -294h-77l101 579h-81l12 68h81l18 103h77l-18 -103h203l-13 -68h-201l-26 -147q58 52 138 52q75 0 120.5 -44.5t45.5 -115.5z" />
    <glyph glyph-name="uni045C" unicode="&#x45c;" horiz-adv-x="506" 
d="M129 487h77l-86 -487h-77zM518 487l-252 -231l185 -256h-91l-183 262l235 225h106zM266 566l123 214h98l-2 -14l-155 -200h-64z" />
    <glyph glyph-name="uni045D" unicode="&#x45d;" horiz-adv-x="566" 
d="M448 487h77l-85 -487h-73l8 47q-58 -58 -144 -58q-75 0 -120.5 44.5t-45.5 115.5q0 19 6 54l50 284h77l-51 -286q-5 -30 -5 -41q0 -48 28.5 -74.5t79.5 -26.5q54 0 94 32.5t50 86.5zM294 566l-50 200l5 14h86l14 -214h-55z" />
    <glyph glyph-name="uni045E" unicode="&#x45e;" horiz-adv-x="564" 
d="M446 487h77l-85 -483q-16 -90 -76 -142.5t-146 -52.5q-63 0 -118 29.5t-89 82.5l51 49q63 -90 156 -90q58 0 96 33t49 94l8 47q-57 -52 -137 -52q-74 0 -119.5 43.5t-45.5 115.5q0 19 6 54l48 272h77l-50 -274q-5 -30 -5 -41q0 -47 29 -73.5t79 -26.5q54 0 93.5 32
t49.5 87zM200 708q0 19 7 54h64q-6 -40 -6 -48q0 -39 21.5 -61.5t58.5 -22.5t62 25t32 70l6 37h64l-6 -37q-12 -71 -55 -111.5t-107 -40.5q-62 0 -101.5 38t-39.5 97z" />
    <glyph glyph-name="uni045F" unicode="&#x45f;" horiz-adv-x="566" 
d="M448 487h77l-85 -487h-73l8 47q-58 -58 -144 -58q-75 0 -120.5 44.5t-45.5 115.5q0 19 6 54l50 284h77l-51 -286q-5 -30 -5 -41q0 -48 28.5 -74.5t79.5 -26.5q54 0 94 32.5t50 86.5zM171 -220l41 171h68l-31 -171h-78z" />
    <glyph glyph-name="uni0462" unicode="&#x462;" horiz-adv-x="654" 
d="M120 0l87 500h-142l11 67h142l18 93h78l-18 -93h189l-12 -67h-188l-21 -119h131q94 0 148.5 -45.5t54.5 -125.5q0 -95 -69 -152.5t-184 -57.5h-225zM209 70h146q75 0 118.5 36.5t43.5 98.5q0 51 -35 78.5t-99 27.5h-131z" />
    <glyph glyph-name="uni0463" unicode="&#x463;" horiz-adv-x="840" 
d="M778 166q0 -80 -56 -128t-150 -48q-85 0 -133.5 41t-48.5 117q0 31 5 51l16 87q5 30 5 41q0 48 -27 74.5t-75 26.5q-53 0 -91.5 -32.5t-47.5 -87.5l-54 -308h-77l85 487h72l-8 -45q59 56 139 56q72 0 116.5 -44t44.5 -116v-8h94q91 0 141 -43t50 -121zM699 164
q0 47 -32 72t-91 25h-93l-12 -68q-4 -20 -4 -39q0 -97 105 -97q59 0 93 28.5t34 78.5z" />
    <glyph glyph-name="uni0472" unicode="&#x472;" horiz-adv-x="782" 
d="M748 355q2 -96 -49.5 -182t-137.5 -136t-181 -48q-134 -2 -225 90.5t-89 225.5q-2 97 49 182.5t137 135.5t182 48q134 2 225 -90.5t89 -225.5zM150 361q82 33 144 33q48 0 120 -23q76 -23 121 -23q57 0 130 27q-6 97 -72.5 160.5t-164.5 63.5q-103 0 -181.5 -68
t-96.5 -170zM662 305q-76 -30 -140 -30q-53 0 -125 24q-72 22 -116 22q-57 0 -135 -29q6 -101 72.5 -166t165.5 -65q103 0 182 70t96 174z" />
    <glyph glyph-name="uni0473" unicode="&#x473;" horiz-adv-x="609" 
d="M562 256q2 -107 -80 -188t-192 -79q-103 0 -172 69.5t-69 172.5q-2 107 79.5 188t190.5 79q103 0 173 -69.5t70 -172.5zM134 282q39 16 81 16q33 0 91 -16q54 -17 90 -17t85 17q-8 64 -54 104.5t-111 40.5t-115 -40.5t-67 -104.5zM479 217q-42 -17 -84 -17q-36 0 -93 17
q-51 16 -88 16t-85 -17q5 -69 50 -112.5t114 -43.5q70 0 121.5 44t64.5 113z" />
    <glyph glyph-name="uni0474" unicode="&#x474;" horiz-adv-x="687" 
d="M758 660l-12 -67q-13 3 -29 3q-29 0 -48.5 -13.5t-40.5 -46.5l-328 -547h-29l-168 671h81l125 -513l250 423q57 96 151 96q22 0 48 -6z" />
    <glyph glyph-name="uni0475" unicode="&#x475;" horiz-adv-x="534" 
d="M580 487l-12 -64h-23q-40 0 -71 -49l-244 -385h-28l-142 498h78l97 -364l175 286q50 84 127 84q22 0 43 -6z" />
    <glyph glyph-name="uni0490" unicode="&#x490;" horiz-adv-x="489" 
d="M49 0l116 660h296l24 140h78l-36 -210h-297l-103 -590h-78z" />
    <glyph glyph-name="uni0491" unicode="&#x491;" horiz-adv-x="437" 
d="M43 0l87 487h251l23 133h77l-35 -202h-251l-75 -418h-77z" />
    <glyph glyph-name="uni0492" unicode="&#x492;" horiz-adv-x="526" 
d="M568 590h-316l-44 -250h169l-11 -65h-170l-48 -275h-78l48 275h-95l12 65h95l56 320h393z" />
    <glyph glyph-name="uni0493" unicode="&#x493;" horiz-adv-x="428" 
d="M445 418h-252l-27 -150h142l-12 -68h-142l-35 -200h-77l35 200h-80l12 68h80l39 219h329z" />
    <glyph glyph-name="uni0496" unicode="&#x496;" horiz-adv-x="958" 
d="M219 660l234 -306l-364 -354h-104l370 360l-228 300h92zM515 660h78l-116 -660h-78zM644 343l197 -273h89l-37 -211h-78l25 141h-40l-251 354l325 306h107z" />
    <glyph glyph-name="uni0497" unicode="&#x497;" horiz-adv-x="810" 
d="M183 487l160 -226l-264 -261h-102l277 268l-160 219h89zM392 487h78l-86 -487h-77zM528 255l135 -187h80l-36 -209h-72l25 141h-38l-184 261l226 226h105z" />
    <glyph glyph-name="uni0498" unicode="&#x498;" horiz-adv-x="582" 
d="M526 206q0 -94 -69.5 -155.5t-175.5 -61.5q-87 0 -152 42.5t-99 119.5l61 35q62 -125 188 -125q76 0 122 38.5t46 102.5q0 52 -34.5 82.5t-90.5 30.5h-88l11 69h69q70 0 111 31t41 84q0 47 -32 73.5t-88 26.5q-100 0 -171 -75l-49 47q86 100 228 100q84 0 137.5 -46.5
t53.5 -118.5q0 -52 -28 -93.5t-77 -63.5q86 -47 86 -143zM112 -176l9 54q40 -8 63 -8q39 0 60 20t21 56q0 34 -22 62l31 14q55 -31 55 -91q0 -52 -39 -87t-97 -35q-42 0 -81 15z" />
    <glyph glyph-name="uni0499" unicode="&#x499;" horiz-adv-x="455" 
d="M382 145q0 -70 -51 -113t-135 -43q-119 0 -188 88l52 52q65 -69 142 -69q101 0 101 85q0 38 -27.5 58.5t-78.5 20.5h-49l13 68h56q102 0 102 71q0 29 -23.5 46.5t-63.5 17.5q-67 0 -121 -60l-46 49q70 82 172 82q73 0 116.5 -35.5t43.5 -94.5q0 -81 -80 -117
q65 -30 65 -106zM24 -176l9 54q40 -8 63 -8q39 0 60 20t21 56q0 34 -22 62l31 14q55 -31 55 -91q0 -52 -39 -87t-97 -35q-42 0 -81 15z" />
    <glyph glyph-name="uni049A" unicode="&#x49a;" horiz-adv-x="626" 
d="M165 660h78l-116 -660h-78zM297 346l212 -276h89l-36 -211h-78l25 141h-40l-271 354l344 306h108z" />
    <glyph glyph-name="uni049B" unicode="&#x49b;" horiz-adv-x="551" 
d="M129 487h76l-86 -487h-76zM266 255l135 -187h83l-37 -209h-72l25 141h-39l-184 261l226 226h105z" />
    <glyph glyph-name="uni04A0" unicode="&#x4a0;" horiz-adv-x="798" 
d="M94 660h316l-116 -660h-78l104 590h-238zM819 660l-354 -315l264 -345h-92l-272 354l344 306h110z" />
    <glyph glyph-name="uni04A1" unicode="&#x4a1;" horiz-adv-x="585" 
d="M23 487h256l-86 -487h-77l74 420h-178zM581 487l-242 -230l185 -257h-89l-185 262l226 225h105z" />
    <glyph glyph-name="uni04A2" unicode="&#x4a2;" horiz-adv-x="728" 
d="M553 -141l25 141h-81l57 318h-371l-56 -318h-78l116 660h78l-49 -272h371l48 272h78l-104 -590h81l-37 -211h-78z" />
    <glyph glyph-name="uni04A3" unicode="&#x4a3;" horiz-adv-x="595" 
d="M420 -141l25 141h-85l40 225h-239l-40 -225h-77l85 487h77l-34 -194h240l33 194h77l-74 -421h81l-37 -207h-72z" />
    <glyph glyph-name="uni04AA" unicode="&#x4aa;" horiz-adv-x="714" 
d="M66 305q-2 96 49 181.5t137.5 136t183.5 48.5q87 0 157.5 -41.5t111.5 -116.5l-64 -39q-69 125 -210 125q-116 2 -201 -85t-83 -206q0 -108 68 -177.5t173 -69.5q131 0 221 105l54 -45q-53 -63 -126 -97.5t-155 -34.5q-136 0 -226 90t-90 226zM199 -176l9 54q40 -8 63 -8
q39 0 60 20t21 56q0 34 -22 62l31 14q55 -31 55 -91q0 -52 -39 -87t-97 -35q-42 0 -81 15z" />
    <glyph glyph-name="uni04AB" unicode="&#x4ab;" horiz-adv-x="558" 
d="M48 228q-2 110 79.5 191t191.5 79q66 0 120 -30.5t84 -84.5l-59 -39q-53 83 -147 83q-80 0 -135 -57t-55 -138q0 -75 47 -124t119 -49q90 0 148 70l50 -46q-74 -94 -201 -94q-104 0 -173 68t-69 171zM107 -176l9 54q40 -8 63 -8q39 0 60 20t21 56q0 34 -22 62l31 14
q55 -31 55 -91q0 -52 -39 -87t-97 -35q-42 0 -81 15z" />
    <glyph glyph-name="uni04AE" unicode="&#x4ae;" horiz-adv-x="616" 
d="M645 660l-298 -389l-47 -271h-78l48 274l-161 386h81l128 -312l235 312h92z" />
    <glyph glyph-name="uni04AF" unicode="&#x4af;" horiz-adv-x="552" 
d="M563 487l-292 -488l-30 -179h-77l31 178l-118 489h79l90 -410l231 410h86z" />
    <glyph glyph-name="uni04B0" unicode="&#x4b0;" horiz-adv-x="625" 
d="M655 660l-295 -386h149l-12 -66h-151l-36 -208h-78l36 208h-151l12 66h151l-161 386h80l129 -312l236 312h91z" />
    <glyph glyph-name="uni04B1" unicode="&#x4b1;" horiz-adv-x="552" 
d="M563 487l-291 -487h130l-12 -68h-130l-19 -112h-77l19 112h-130l11 68h131l-118 487h79l90 -410l231 410h86z" />
    <glyph glyph-name="uni04B2" unicode="&#x4b2;" horiz-adv-x="600" 
d="M360 331l129 -261h83l-38 -211h-78l25 141h-42l-133 273l-224 -273h-97l285 345l-153 315h83l123 -260l204 260h97z" />
    <glyph glyph-name="uni04B3" unicode="&#x4b3;" horiz-adv-x="539" 
d="M295 248l101 -180h76l-36 -209h-72l25 141h-44l-104 197l-169 -197h-95l226 255l-124 232h88l91 -179l153 179h94z" />
    <glyph glyph-name="uni04B6" unicode="&#x4b6;" horiz-adv-x="668" 
d="M631 660l-103 -590h80l-37 -211h-78l25 141h-81l47 266q-63 -27 -141 -27q-112 0 -176.5 55t-64.5 152q0 31 8 77l24 137h78l-24 -137q-8 -50 -8 -73q0 -139 165 -139q88 0 151 26l57 323h78z" />
    <glyph glyph-name="uni04B7" unicode="&#x4b7;" horiz-adv-x="550" 
d="M403 68h81l-37 -209h-72l25 141h-86l33 189q-52 -20 -107 -20q-79 0 -123.5 45t-44.5 124q0 20 5 52l17 97h77l-18 -102q-5 -33 -5 -44q0 -101 103 -101q56 0 109 19l40 228h77z" />
    <glyph glyph-name="uni04BA" unicode="&#x4ba;" horiz-adv-x="647" 
d="M577 214q0 -31 -8 -77l-24 -137h-78l24 137q8 50 8 73q0 139 -164 139q-88 0 -151 -26l-57 -323h-78l116 660h78l-47 -265q64 26 141 26q112 0 176 -55.5t64 -151.5z" />
    <glyph glyph-name="uni04BB" unicode="&#x4bb;" horiz-adv-x="566" 
d="M503 338q0 -21 -6 -54l-50 -284h-77l51 286q5 32 5 41q0 47 -28.5 74t-78.5 27q-56 0 -95 -32.5t-49 -87.5l-54 -308h-77l131 750h77l-53 -304q58 52 138 52q74 0 120 -44t46 -116z" />
    <glyph glyph-name="uni04C0" unicode="&#x4c0;" horiz-adv-x="259" 
d="M49 0l116 660h78l-116 -660h-78z" />
    <glyph glyph-name="uni04C1" unicode="&#x4c1;" horiz-adv-x="959" 
d="M219 660l234 -306l-364 -354h-104l374 361l-232 299h92zM515 660h78l-116 -660h-78zM981 660l-338 -312l248 -348h-91l-251 354l325 306h107zM430 862q0 10 6 48h65q-6 -34 -6 -42q0 -39 22 -61.5t58 -22.5q38 0 62.5 24.5t31.5 70.5l5 31h64l-5 -31q-11 -71 -54.5 -112
t-107.5 -41q-60 0 -101 38q-40 39 -40 98z" />
    <glyph glyph-name="uni04C2" unicode="&#x4c2;" horiz-adv-x="762" 
d="M177 487l160 -226l-264 -261h-102l276 267l-160 220h90zM387 487h77l-86 -487h-77zM764 487l-243 -231l186 -256h-91l-184 261l226 226h106zM305 708q0 19 7 54h64q-6 -40 -6 -48q0 -39 21.5 -61.5t58.5 -22.5t62 25t32 70l6 37h64l-6 -37q-12 -71 -55 -111.5t-107 -40.5
q-62 0 -101.5 38t-39.5 97z" />
    <glyph glyph-name="uni04CF" unicode="&#x4cf;" horiz-adv-x="239" 
d="M43 0l132 750h77l-132 -750h-77z" />
    <glyph glyph-name="uni04D0" unicode="&#x4d0;" horiz-adv-x="663" 
d="M514 0l-33 134h-321l-80 -134h-88l404 671h28l169 -671h-79zM463 204l-75 320l-187 -320h262zM278 862q0 10 6 48h65q-6 -34 -6 -42q0 -39 22 -61.5t58 -22.5q38 0 62.5 24.5t31.5 70.5l5 31h64l-5 -31q-11 -71 -54.5 -112t-107.5 -41q-60 0 -101 38q-40 39 -40 98z" />
    <glyph glyph-name="uni04D1" unicode="&#x4d1;" horiz-adv-x="629" 
d="M511 487h77l-86 -487h-72l12 65q-65 -76 -176 -76q-94 0 -156.5 66t-62.5 165q-2 115 76.5 197.5t187.5 80.5q60 0 109.5 -25.5t76.5 -68.5zM471 272q0 69 -42.5 112t-112.5 43q-79 0 -134.5 -59.5t-55.5 -142.5q0 -73 45 -119t116 -46q77 0 130.5 61.5t53.5 150.5z
M200 708q0 19 7 54h64q-6 -40 -6 -48q0 -39 21.5 -61.5t58.5 -22.5t62 25t32 70l6 37h64l-6 -37q-12 -71 -55 -111.5t-107 -40.5q-62 0 -101.5 38t-39.5 97z" />
    <glyph glyph-name="uni04D4" unicode="&#x4d4;" horiz-adv-x="823" 
d="M830 590h-322l-2 -202h208l-12 -70h-196l-2 -248h248l-13 -70h-315l1 135h-270l-92 -135h-92l456 660h415zM428 534l-225 -329h222z" />
    <glyph glyph-name="uni04D5" unicode="&#x4d5;" horiz-adv-x="890" 
d="M836 210h-381q5 -69 50 -109.5t118 -40.5q78 0 150 59l39 -52q-81 -78 -196 -78q-68 0 -122 31t-83 85q-29 -54 -86.5 -85t-129.5 -31q-80 0 -124.5 35t-44.5 97q0 71 53.5 112t145.5 41h156l1 5q4 20 4 51q0 46 -29.5 71.5t-83.5 25.5q-70 0 -142 -61l-38 56
q82 76 189 76q62 0 105 -25t60 -70q76 95 194 95q90 0 148.5 -60t58.5 -152q0 -46 -12 -76zM458 274h312v17q0 64 -36 100.5t-99 36.5q-68 0 -116 -42.5t-61 -111.5zM364 175l6 35h-145q-120 0 -120 -81q0 -36 26.5 -56.5t72.5 -20.5q58 0 105 35q46 34 55 88z" />
    <glyph glyph-name="uni04D6" unicode="&#x4d6;" horiz-adv-x="567" 
d="M49 0l116 660h423l-13 -70h-345l-37 -202h265l-12 -70h-264l-43 -248h357l-12 -70h-435zM252 862q0 10 6 48h65q-6 -34 -6 -42q0 -39 22 -61.5t58 -22.5q38 0 62.5 24.5t31.5 70.5l5 31h64l-5 -31q-11 -71 -54.5 -112t-107.5 -41q-60 0 -101 38q-40 39 -40 98z" />
    <glyph glyph-name="uni04D7" unicode="&#x4d7;" horiz-adv-x="563" 
d="M510 220h-383q4 -74 49.5 -117t120.5 -43q78 0 150 59l39 -52q-81 -78 -196 -78q-105 0 -173.5 67.5t-68.5 171.5q-2 109 77.5 190.5t186.5 79.5q93 0 151.5 -60t58.5 -156q0 -34 -12 -62zM133 288h311q-1 66 -37 103t-99 37q-65 0 -112 -38t-63 -102zM196 708q0 19 7 54
h64q-6 -40 -6 -48q0 -39 21.5 -61.5t58.5 -22.5t62 25t32 70l6 37h64l-6 -37q-12 -71 -55 -111.5t-107 -40.5q-62 0 -101.5 38t-39.5 97z" />
    <glyph glyph-name="uni04D8" unicode="&#x4d8;" horiz-adv-x="735" 
d="M701 362q3 -150 -102.5 -262.5t-244.5 -109.5q-130 0 -212 77.5t-82 201.5q0 39 10 85h550v5q0 104 -67 172t-169 68q-63 0 -121 -27t-97 -74l-51 47q50 60 122 93t151 33q130 2 222.5 -89.5t90.5 -219.5zM612 284h-471q-1 -5 -1 -20q0 -89 60 -145.5t155 -56.5
q91 0 162.5 62.5t94.5 159.5z" />
    <glyph glyph-name="uni04D9" unicode="&#x4d9;" horiz-adv-x="562" 
d="M515 260q2 -110 -77.5 -191.5t-186.5 -79.5q-91 0 -150.5 57t-59.5 145q0 37 12 72h383q-2 77 -45.5 120.5t-117.5 43.5q-77 0 -149 -59l-39 51q82 79 195 79q103 0 169 -67t66 -171zM428 195h-309v-9q0 -59 37 -93.5t99 -34.5q63 0 109.5 37t63.5 100z" />
    <glyph glyph-name="uni04E2" unicode="&#x4e2;" horiz-adv-x="718" 
d="M675 671h28l-118 -671h-78l90 510l-522 -521h-28l118 671h78l-91 -511zM307 770l11 63h294l-11 -63h-294z" />
    <glyph glyph-name="uni04E3" unicode="&#x4e3;" horiz-adv-x="566" 
d="M448 487h77l-85 -487h-73l8 47q-58 -58 -144 -58q-75 0 -120.5 44.5t-45.5 115.5q0 19 6 54l50 284h77l-51 -286q-5 -30 -5 -41q0 -48 28.5 -74.5t79.5 -26.5q54 0 94 32.5t50 86.5zM214 642l11 62h274l-11 -62h-274z" />
    <glyph glyph-name="uni04E6" unicode="&#x4e6;" horiz-adv-x="782" 
d="M66 305q-2 97 49 182.5t137 135.5t182 48q134 2 225 -90.5t89 -225.5q2 -96 -49.5 -182t-137.5 -136t-181 -48q-134 -2 -225 90.5t-89 225.5zM667 353q0 106 -67.5 176t-171.5 70q-115 2 -200 -85t-82 -205q0 -107 67.5 -177.5t170.5 -70.5q115 -2 200 86t83 206z
M319 810q0 22 16.5 37.5t38.5 15.5q23 0 39 -15.5t16 -37.5t-16 -37.5t-39 -15.5q-22 0 -38.5 15.5t-16.5 37.5zM552 809q0 22 16 38t39 16t39 -16t16 -38t-16 -37.5t-39 -15.5t-39 15.5t-16 37.5z" />
    <glyph glyph-name="uni04E7" unicode="&#x4e7;" horiz-adv-x="609" 
d="M49 231q-2 107 79.5 188t190.5 79q103 0 173 -69.5t70 -172.5q2 -107 -80 -188t-192 -79q-103 0 -172 69.5t-69 172.5zM483 256q0 72 -47.5 121.5t-119.5 49.5q-79 0 -133.5 -57t-54.5 -139q0 -76 46 -123q47 -48 119 -48q80 0 135 57t55 139zM182 673q0 22 16.5 37.5
t38.5 15.5q23 0 39.5 -15.5t16.5 -37.5t-16.5 -37.5t-39.5 -15.5q-22 0 -38.5 15.5t-16.5 37.5zM404 673q0 22 16.5 37.5t39.5 15.5t39 -15.5t16 -37.5t-16 -37.5t-39 -15.5t-39.5 15.5t-16.5 37.5z" />
    <glyph glyph-name="uni04E8" unicode="&#x4e8;" horiz-adv-x="782" 
d="M748 355q2 -96 -49.5 -182t-137.5 -136t-181 -48q-134 -2 -225 90.5t-89 225.5q-2 97 49 182.5t137 135.5t182 48q134 2 225 -90.5t89 -225.5zM153 372h513q-6 99 -72 163t-166 64t-177.5 -64.5t-97.5 -162.5zM663 302h-517q2 -103 69 -172t169 -69t181.5 69t97.5 172z
" />
    <glyph glyph-name="uni04E9" unicode="&#x4e9;" horiz-adv-x="609" 
d="M562 256q2 -107 -80 -188t-192 -79q-103 0 -172 69.5t-69 172.5q-2 107 79.5 188t190.5 79q103 0 173 -69.5t70 -172.5zM134 280h348q-8 66 -54 106q-47 41 -112 41q-66 0 -117 -42q-50 -41 -65 -105zM478 212h-349q6 -68 51 -110t113 -42t119 42q53 44 66 110z" />
    <glyph glyph-name="uni04EE" unicode="&#x4ee;" horiz-adv-x="627" 
d="M582 660h91l-330 -546q-41 -68 -84.5 -96t-107.5 -28q-40 0 -63 10l11 70q20 -7 53 -7q42 0 67.5 17t52.5 62l1 1l-157 517h82l129 -432zM254 770l11 63h294l-11 -63h-294z" />
    <glyph glyph-name="uni04EF" unicode="&#x4ef;" horiz-adv-x="564" 
d="M446 487h77l-85 -483q-16 -90 -76 -142.5t-146 -52.5q-63 0 -118 29.5t-89 82.5l51 49q63 -90 156 -90q58 0 96 33t49 94l8 47q-57 -52 -137 -52q-74 0 -119.5 43.5t-45.5 115.5q0 19 6 54l48 272h77l-50 -274q-5 -30 -5 -41q0 -47 29 -73.5t79 -26.5q54 0 93.5 32
t49.5 87zM222 642l11 62h274l-11 -62h-274z" />
    <glyph glyph-name="uni04F2" unicode="&#x4f2;" horiz-adv-x="627" 
d="M582 660h91l-330 -546q-41 -68 -84.5 -96t-107.5 -28q-40 0 -63 10l11 70q20 -7 53 -7q42 0 67.5 17t52.5 62l1 1l-157 517h82l129 -432zM242 724l119 186h87l-1 -14l-145 -172h-60zM458 724l118 186h88l-2 -14l-145 -172h-59z" />
    <glyph glyph-name="uni04F3" unicode="&#x4f3;" horiz-adv-x="564" 
d="M446 487h77l-85 -483q-16 -90 -76 -142.5t-146 -52.5q-63 0 -118 29.5t-89 82.5l51 49q63 -90 156 -90q58 0 96 33t49 94l8 47q-57 -52 -137 -52q-74 0 -119.5 43.5t-45.5 115.5q0 19 6 54l48 272h77l-50 -274q-5 -30 -5 -41q0 -47 29 -73.5t79 -26.5q54 0 93.5 32
t49.5 87zM215 566l123 214h88l-2 -14l-149 -200h-60zM414 566l122 214h89l-3 -14l-148 -200h-60z" />
    <glyph glyph-name="Wgrave" unicode="&#x1e80;" horiz-adv-x="1057" 
d="M995 660h88l-368 -671h-28l-115 521l-303 -521h-28l-133 671h81l94 -501l300 512h28l113 -512zM590 724l-86 172l2 14h88l53 -186h-57z" />
    <glyph glyph-name="wgrave" unicode="&#x1e81;" horiz-adv-x="849" 
d="M773 487h86l-293 -498h-28l-97 366l-233 -366h-28l-120 498h78l78 -361l230 371h29l97 -367zM428 566l-50 200l5 14h86l14 -214h-55z" />
    <glyph glyph-name="Wacute" unicode="&#x1e82;" horiz-adv-x="1057" 
d="M995 660h88l-368 -671h-28l-115 521l-303 -521h-28l-133 671h81l94 -501l300 512h28l113 -512zM584 724l113 186h98l-2 -14l-148 -172h-61z" />
    <glyph glyph-name="wacute" unicode="&#x1e83;" horiz-adv-x="849" 
d="M773 487h86l-293 -498h-28l-97 366l-233 -366h-28l-120 498h78l78 -361l230 371h29l97 -367zM428 566l123 214h98l-2 -14l-155 -200h-64z" />
    <glyph glyph-name="Wdieresis" unicode="&#x1e84;" horiz-adv-x="1057" 
d="M995 660h88l-368 -671h-28l-115 521l-303 -521h-28l-133 671h81l94 -501l300 512h28l113 -512zM460 810q0 22 16.5 37.5t38.5 15.5q23 0 39 -15.5t16 -37.5t-16 -37.5t-39 -15.5q-22 0 -38.5 15.5t-16.5 37.5zM693 809q0 22 16 38t39 16t39 -16t16 -38t-16 -37.5
t-39 -15.5t-39 15.5t-16 37.5z" />
    <glyph glyph-name="wdieresis" unicode="&#x1e85;" horiz-adv-x="849" 
d="M773 487h86l-293 -498h-28l-97 366l-233 -366h-28l-120 498h78l78 -361l230 371h29l97 -367zM319 673q0 22 16.5 37.5t38.5 15.5q23 0 39.5 -15.5t16.5 -37.5t-16.5 -37.5t-39.5 -15.5q-22 0 -38.5 15.5t-16.5 37.5zM541 673q0 22 16.5 37.5t39.5 15.5t39 -15.5t16 -37.5
t-16 -37.5t-39 -15.5t-39.5 15.5t-16.5 37.5z" />
    <glyph glyph-name="uni1E9E" unicode="&#x1e9e;" horiz-adv-x="710" 
d="M683 660l-4 -23l-179 -231q68 -17 110 -69q43 -52 43 -122q0 -94 -66.5 -160t-161.5 -66q-113 0 -188 94l48 53q61 -75 140 -75q63 0 105 42.5t42 104.5t-42.5 99.5t-112.5 37.5h-37l2 22l171 223h-323l-103 -590h-78l116 660h518z" />
    <glyph glyph-name="Ygrave" unicode="&#x1ef2;" horiz-adv-x="616" 
d="M645 660l-298 -389l-47 -271h-78l48 274l-161 386h81l128 -312l235 312h92zM360 724l-86 172l2 14h88l53 -186h-57z" />
    <glyph glyph-name="ygrave" unicode="&#x1ef3;" horiz-adv-x="564" 
d="M446 487h77l-85 -483q-16 -90 -76 -142.5t-146 -52.5q-63 0 -118 29.5t-89 82.5l51 49q63 -90 156 -90q58 0 96 33t49 94l8 47q-57 -52 -137 -52q-74 0 -119.5 43.5t-45.5 115.5q0 19 6 54l48 272h77l-50 -274q-5 -30 -5 -41q0 -47 29 -73.5t79 -26.5q54 0 93.5 32
t49.5 87zM289 566l-50 200l5 14h86l14 -214h-55z" />
    <glyph glyph-name="uni2009" unicode="&#x2009;" horiz-adv-x="140" 
 />
    <glyph glyph-name="endash" unicode="&#x2013;" horiz-adv-x="500" 
d="M50 282l12 65h414l-12 -65h-414z" />
    <glyph glyph-name="emdash" unicode="&#x2014;" horiz-adv-x="1000" 
d="M57 282l13 65h900l-13 -65h-900z" />
    <glyph glyph-name="uni2015" unicode="&#x2015;" horiz-adv-x="1000" 
d="M57 282l13 65h900l-13 -65h-900z" />
    <glyph glyph-name="quoteleft" unicode="&#x2018;" horiz-adv-x="281" 
d="M112 403l86 257h63l-58 -257h-91z" />
    <glyph glyph-name="quoteright" unicode="&#x2019;" horiz-adv-x="281" 
d="M124 403l58 257h90l-86 -257h-62z" />
    <glyph glyph-name="quotesinglbase" unicode="&#x201a;" horiz-adv-x="281" 
d="M22 -167l59 257h91l-87 -257h-63z" />
    <glyph glyph-name="quotedblleft" unicode="&#x201c;" horiz-adv-x="465" 
d="M112 403l86 257h63l-58 -257h-91zM296 403l86 257h63l-58 -257h-91z" />
    <glyph glyph-name="quotedblright" unicode="&#x201d;" horiz-adv-x="465" 
d="M124 403l58 257h90l-86 -257h-62zM308 403l58 257h90l-86 -257h-62z" />
    <glyph glyph-name="quotedblbase" unicode="&#x201e;" horiz-adv-x="464" 
d="M22 -167l59 257h91l-87 -257h-63zM205 -167l59 257h91l-87 -257h-63z" />
    <glyph glyph-name="dagger" unicode="&#x2020;" horiz-adv-x="454" 
d="M203 325l40 224h-125l12 68h125l22 133h77l-23 -133h124l-10 -68h-125l-40 -224h-77z" />
    <glyph glyph-name="daggerdbl" unicode="&#x2021;" horiz-adv-x="451" 
d="M192 271l19 102h-125l12 69h125l24 137h-125l12 68h125l18 103h76l-17 -103h124l-11 -68h-125l-24 -137h125l-12 -69h-126l-18 -102h-77z" />
    <glyph glyph-name="bullet" unicode="&#x2022;" horiz-adv-x="377" 
d="M62 267q0 55 39 92.5t93 37.5q53 0 92 -37.5t39 -92.5t-38.5 -92t-92.5 -37t-93 37t-39 92z" />
    <glyph glyph-name="ellipsis" unicode="&#x2026;" horiz-adv-x="776" 
d="M293 52q0 27 18.5 45t44.5 18t44.5 -18t18.5 -45t-18.5 -45t-44.5 -18t-44.5 18t-18.5 45zM44 52q0 27 18.5 45t44.5 18t44.5 -18t18.5 -45t-18.5 -45t-44.5 -18t-44.5 18t-18.5 45zM540 52q0 27 18.5 45t44.5 18t44.5 -18t18.5 -45t-18.5 -45t-44.5 -18t-44.5 18
t-18.5 45z" />
    <glyph glyph-name="perthousand" unicode="&#x2030;" horiz-adv-x="1199" 
d="M100 505q0 68 49 116.5t118 48.5q65 0 110 -45t45 -110q0 -68 -49.5 -117t-118.5 -49q-64 0 -109 45.5t-45 110.5zM129 0l519 660h70l-520 -660h-69zM358 514q0 44 -25.5 71.5t-66.5 27.5q-44 0 -73 -30.5t-29 -76.5q0 -44 26 -72t68 -28q44 0 72 30.5t28 77.5zM810 147
q0 68 49 116.5t117 48.5q65 0 110 -45t45 -110q0 -68 -49.5 -117t-118.5 -49q-65 0 -109 45t-44 111zM421 146q0 68 49 116.5t118 48.5q65 0 110 -45t45 -110q0 -68 -49.5 -117t-118.5 -49q-64 0 -109 45.5t-45 110.5zM1068 156q0 44 -26 71.5t-67 27.5q-44 0 -73 -30.5
t-29 -76.5q0 -44 26.5 -72t67.5 -28q44 0 72.5 30.5t28.5 77.5zM679 155q0 44 -25.5 71.5t-66.5 27.5q-44 0 -73 -30.5t-29 -76.5q0 -44 26.5 -72t67.5 -28q44 0 72 30.5t28 77.5z" />
    <glyph glyph-name="minute" unicode="&#x2032;" horiz-adv-x="247" 
d="M95 388l87 272h93l-118 -272h-62z" />
    <glyph glyph-name="second" unicode="&#x2033;" horiz-adv-x="430" 
d="M95 388l87 272h93l-118 -272h-62zM278 388l87 272h93l-118 -272h-62z" />
    <glyph glyph-name="guilsinglleft" unicode="&#x2039;" horiz-adv-x="305" 
d="M187 71l-146 188l4 23l208 189l45 -48l-169 -156l113 -155z" />
    <glyph glyph-name="guilsinglright" unicode="&#x203a;" horiz-adv-x="306" 
d="M63 71l-45 47l169 157l-114 155l56 41l145 -188l-3 -24z" />
    <glyph glyph-name="fraction" unicode="&#x2044;" horiz-adv-x="256" 
d="M-137 0l494 660h68l-495 -660h-67z" />
    <glyph glyph-name="uni2070" unicode="&#x2070;" horiz-adv-x="410" 
d="M102 516q0 60 18 119.5t64 106.5t111 45q63 0 96 -41t33 -116q0 -45 -10.5 -90.5t-32 -88t-60 -69t-87.5 -25.5q-64 0 -98 42t-34 117zM358 628q0 49 -19.5 73.5t-52.5 24.5q-30 1 -53.5 -20t-36 -54.5t-19 -68t-6.5 -66.5q0 -99 71 -99q39 -2 67 36t38.5 84t10.5 90z
" />
    <glyph glyph-name="uni2074" unicode="&#x2074;" horiz-adv-x="358" 
d="M385 494l-11 -57h-54l-12 -73h-63l13 73h-207l3 19l179 324h73l-159 -286h120l23 127h62l-22 -127h55z" />
    <glyph glyph-name="uni2075" unicode="&#x2075;" horiz-adv-x="366" 
d="M390 720h-170l-16 -94q30 2 35 2q60 0 96 -33t36 -87q0 -65 -44.5 -108t-112.5 -43q-53 0 -91.5 27t-55.5 75l53 28q29 -69 95 -69q39 0 64 23.5t25 60.5q0 70 -87 70h-87l36 208h236z" />
    <glyph glyph-name="uni2076" unicode="&#x2076;" horiz-adv-x="365" 
d="M373 508q0 -62 -45 -106t-107 -44q-59 0 -99 39q-40 40 -40 99q0 28 9 51t20 37q11 15 42 54l119 142h85l-119 -142q2 1 10 1q53 0 89 -38q36 -37 36 -93zM307 505q0 34 -20 55.5t-53 21.5q-36 0 -60.5 -25t-24.5 -61q0 -34 21.5 -55.5t53.5 -21.5q35 0 59 24.5t24 61.5z
" />
    <glyph glyph-name="uni2077" unicode="&#x2077;" horiz-adv-x="327" 
d="M121 780h281l-4 -19l-262 -397h-77l239 356h-188z" />
    <glyph glyph-name="uni2078" unicode="&#x2078;" horiz-adv-x="379" 
d="M379 480q0 -52 -42 -87q-41 -34 -105 -34q-67 0 -108.5 31t-41.5 80q0 87 109 117q-52 36 -52 86q0 49 37.5 81.5t94.5 32.5q58 0 93 -28t35 -75q0 -75 -89 -110q69 -34 69 -94zM201 673q0 -18 10.5 -30.5t43.5 -32.5q44 13 63.5 29t19.5 39q0 25 -19.5 40.5t-48.5 15.5
q-30 0 -49.5 -17t-19.5 -44zM313 480q0 21 -14 36t-54 36q-51 -13 -74 -31t-23 -45q0 -30 21.5 -47t58.5 -17q38 0 61.5 18.5t23.5 49.5z" />
    <glyph glyph-name="uni2079" unicode="&#x2079;" horiz-adv-x="366" 
d="M400 648q0 -30 -9 -52q-8 -20 -21 -38q-9 -13 -42 -52l-119 -142h-84l120 142q-3 -1 -13 -1q-53 0 -89 38q-35 38 -35 93q0 62 45 106t108 44q59 0 99 -40q40 -39 40 -98zM333 647q0 34 -21 56t-54 22q-36 0 -59.5 -24.5t-23.5 -61.5q0 -34 20 -55.5t53 -21.5
q36 0 60.5 24.5t24.5 60.5z" />
    <glyph glyph-name="uni207A" unicode="&#x207a;" horiz-adv-x="427" 
d="M194 400l26 144h-140l11 57h139l25 144h64l-25 -144h139l-10 -57h-140l-25 -144h-64z" />
    <glyph glyph-name="uni207B" unicode="&#x207b;" horiz-adv-x="427" 
d="M96 546l10 52h342l-10 -52h-342z" />
    <glyph glyph-name="uni207C" unicode="&#x207c;" horiz-adv-x="427" 
d="M116 623l11 57h329l-11 -57h-329zM89 465l10 57h329l-11 -57h-328z" />
    <glyph glyph-name="uni207D" unicode="&#x207d;" horiz-adv-x="258" 
d="M111 488q-1 142 62.5 261.5t157.5 151.5l18 -40q-81 -37 -131 -141q-49 -102 -49 -235q0 -142 76 -206l-29 -36q-105 72 -105 245z" />
    <glyph glyph-name="uni207E" unicode="&#x207e;" horiz-adv-x="258" 
d="M45 244l-18 40q80 37 130 141q49 102 49 235q0 143 -76 206l30 36q104 -72 104 -245q2 -141 -61.5 -261t-157.5 -152z" />
    <glyph glyph-name="uni2080" unicode="&#x2080;" horiz-adv-x="410" 
d="M17 32q0 60 18 119.5t64 106.5t111 45q63 0 96 -41t33 -116q0 -44 -10.5 -90t-32 -88.5t-60 -69t-87.5 -25.5q-64 0 -98 42t-34 117zM273 144q0 49 -19.5 73.5t-52.5 24.5q-30 1 -53.5 -20t-36 -54.5t-19 -68t-6.5 -66.5q0 -99 71 -99q39 -2 67 36t38.5 84t10.5 90z" />
    <glyph glyph-name="uni2081" unicode="&#x2081;" horiz-adv-x="352" 
d="M-17 -120l11 60h103l53 296h-99l11 60h165l-63 -356h90l-10 -60h-261z" />
    <glyph glyph-name="uni2082" unicode="&#x2082;" horiz-adv-x="369" 
d="M184 4l-78 -64h169l-11 -60h-292l3 15l175 153q46 42 65.5 70.5t19.5 57.5q0 30 -18.5 48t-49.5 18q-35 0 -54.5 -23.5t-19.5 -64.5v-12h-66v16q0 64 40 104.5t103 40.5q59 0 95 -33.5t36 -89.5q0 -43 -26.5 -83t-90.5 -93z" />
    <glyph glyph-name="uni2083" unicode="&#x2083;" horiz-adv-x="354" 
d="M312 296l-3 -19l-124 -138q39 -11 63.5 -43.5t24.5 -74.5q0 -62 -45 -105t-111 -43q-53 0 -90.5 26.5t-53.5 75.5l52 28q30 -69 92 -69q40 0 64.5 23t24.5 61q0 34 -23 52t-66 18h-38l3 19l115 129h-151l11 60h255z" />
    <glyph glyph-name="uni2084" unicode="&#x2084;" horiz-adv-x="358" 
d="M300 10l-11 -57h-54l-12 -73h-63l13 73h-207l3 19l179 324h73l-159 -286h120l23 127h62l-22 -127h55z" />
    <glyph glyph-name="uni2085" unicode="&#x2085;" horiz-adv-x="366" 
d="M305 236h-170l-16 -94q30 2 35 2q60 0 96 -33t36 -87q0 -65 -44.5 -108t-112.5 -43q-53 0 -91.5 27t-55.5 75l53 28q29 -69 95 -69q39 0 64 23.5t25 60.5q0 70 -87 70h-87l36 208h236z" />
    <glyph glyph-name="uni2086" unicode="&#x2086;" horiz-adv-x="365" 
d="M288 24q0 -62 -45 -106t-107 -44q-59 0 -99 40q-40 39 -40 98q0 28 9 51t20 37q10 15 42 54l119 142h85l-119 -142q2 1 10 1q53 0 89 -38q36 -37 36 -93zM222 21q0 34 -20 55.5t-53 21.5q-36 0 -60.5 -25t-24.5 -61q0 -34 21.5 -55.5t53.5 -21.5q35 0 59 24.5t24 61.5z
" />
    <glyph glyph-name="uni2087" unicode="&#x2087;" horiz-adv-x="327" 
d="M36 296h281l-4 -19l-262 -397h-77l239 356h-188z" />
    <glyph glyph-name="uni2088" unicode="&#x2088;" horiz-adv-x="379" 
d="M294 -4q0 -52 -42 -86q-43 -35 -105 -35q-67 0 -108.5 31t-41.5 80q0 87 109 117q-52 36 -52 86q0 49 37.5 81.5t94.5 32.5q58 0 93 -28t35 -75q0 -75 -89 -110q69 -34 69 -94zM116 189q0 -18 10.5 -30.5t43.5 -32.5q44 13 63.5 29t19.5 39q0 25 -19.5 40.5t-48.5 15.5
q-30 0 -49.5 -17t-19.5 -44zM228 -4q0 21 -14 36t-54 36q-51 -13 -74 -31t-23 -45q0 -30 21.5 -47t58.5 -17q38 0 61.5 18.5t23.5 49.5z" />
    <glyph glyph-name="uni2089" unicode="&#x2089;" horiz-adv-x="366" 
d="M315 164q0 -30 -9 -52q-8 -20 -21 -38q-9 -13 -42 -52l-119 -142h-84l120 142q-3 -1 -13 -1q-53 0 -89 38q-35 38 -35 93q0 62 45 106t108 44q59 0 99 -40q40 -39 40 -98zM248 163q0 34 -21 56t-54 22q-36 0 -59.5 -24.5t-23.5 -61.5q0 -34 20 -55.5t53 -21.5
q36 0 60.5 24.5t24.5 60.5z" />
    <glyph glyph-name="uni208A" unicode="&#x208a;" horiz-adv-x="428" 
d="M109 -85l26 144h-140l11 57h139l25 144h64l-25 -144h139l-10 -57h-140l-25 -144h-64z" />
    <glyph glyph-name="uni208B" unicode="&#x208b;" horiz-adv-x="426" 
d="M10 61l10 52h342l-10 -52h-342z" />
    <glyph glyph-name="uni208C" unicode="&#x208c;" horiz-adv-x="428" 
d="M31 138l11 57h329l-11 -57h-329zM4 -20l10 57h329l-11 -57h-328z" />
    <glyph glyph-name="uni208D" unicode="&#x208d;" horiz-adv-x="258" 
d="M26 3q-1 142 62.5 261.5t157.5 151.5l18 -40q-81 -37 -131 -141q-49 -102 -49 -235q0 -142 76 -206l-29 -36q-105 72 -105 245z" />
    <glyph glyph-name="uni208E" unicode="&#x208e;" horiz-adv-x="257" 
d="M-41 -241l-18 40q80 37 130 141q49 102 49 235q0 143 -76 206l30 36q104 -72 104 -245q2 -141 -61.5 -261t-157.5 -152z" />
    <glyph glyph-name="lira" unicode="&#x20a4;" horiz-adv-x="528" 
d="M218 464q0 -28 14 -72h188l-11 -68h-155q13 -39 13 -81v-2h126l-11 -68h-126q-20 -63 -72 -105h267l-11 -68h-425l2 21q124 61 159 152h-123l11 68h124q0 36 -14 83h-94l11 68h61q-14 48 -14 81q0 85 58 141t145 56q82 0 133.5 -47.5t61.5 -132.5l-71 -16q-7 61 -38.5 93
t-83.5 32q-55 0 -90 -38t-35 -97z" />
    <glyph glyph-name="peseta" unicode="&#x20a7;" horiz-adv-x="591" 
d="M635 489l-12 -68h-81q-17 -77 -85 -122.5t-167 -45.5h-103l-45 -253h-78l74 421h-81l11 68h82l30 171h150q97 0 154 -46t62 -125h89zM324 590h-78l-18 -102h238q-13 102 -142 102zM461 422h-244l-17 -99h97q133 0 164 99z" />
    <glyph glyph-name="Euro" unicode="&#x20ac;" horiz-adv-x="680" 
d="M225 439h299l-28 -68h-293q-8 -43 -8 -80v-6h260l-29 -68h-222q18 -72 71 -114t128 -42q99 0 160 70l50 -45q-79 -97 -216 -97q-106 0 -182 62q-75 64 -94 166h-118l12 68h99v3q0 40 7 83h-89l12 68h96q38 105 120 168t188 63q157 0 231 -116l-57 -41q-56 85 -173 85
q-74 0 -133.5 -43t-90.5 -116z" />
    <glyph glyph-name="uni20AE" unicode="&#x20ae;" horiz-adv-x="585" 
d="M626 590h-232l-32 -184l195 69l-12 -73l-196 -69l-16 -89l196 69l-12 -73l-197 -70l-30 -170h-78l26 146l-193 -68l12 74l194 67l16 90l-193 -68l12 73l193 68l37 208h-232l12 70h543z" />
    <glyph glyph-name="uni20B4" unicode="&#x20b4;" horiz-adv-x="543" 
d="M477 433h77l-11 -64h-497l10 64h338q35 35 35 77q0 44 -32 67t-81 23q-74 0 -141 -61l-39 52q85 80 191 80q77 0 130 -42q52 -40 52 -110q0 -46 -32 -86zM19 222l10 64h499l-11 -64h-361q-18 -28 -18 -60q0 -48 33.5 -75t91.5 -27q91 0 182 85l39 -53
q-106 -103 -231 -103q-84 0 -140 44q-55 45 -55 120q0 37 18 69h-57z" />
    <glyph glyph-name="uni20B8" unicode="&#x20b8;" horiz-adv-x="585" 
d="M84 590l12 70h543l-13 -70h-542zM212 0l75 425h-232l12 70h543l-13 -70h-232l-75 -425h-78z" />
    <glyph glyph-name="uni20B9" unicode="&#x20b9;" horiz-adv-x="513" 
d="M512 660l-12 -68h-135q32 -32 38 -81h81l-12 -68h-71q-15 -75 -79.5 -120.5t-157.5 -45.5h-8l240 -277h-96l-240 277l13 68h88q66 0 107 25.5t52 72.5h-230l12 68h219q-18 81 -135 81h-70l12 68h384z" />
    <glyph glyph-name="uni20BA" unicode="&#x20ba;" horiz-adv-x="518" 
d="M476 217q0 -106 -76.5 -167t-209.5 -61q-44 0 -109 9l42 238l-103 -44l12 73l103 44l16 89l-103 -43l13 73l103 43l33 189h79l-28 -156l203 85l-12 -73l-204 -86l-15 -89l202 87l-12 -73l-203 -86l-37 -210l33 -1q100 0 148 48t48 149h74q0 -2 1.5 -15.5t1.5 -22.5z" />
    <glyph glyph-name="uni20BD" unicode="&#x20bd;" horiz-adv-x="578" 
d="M64 0l24 134h-82l12 68h82l17 93h-83l12 68h82l52 297h198q90 0 141.5 -45.5t51.5 -124.5q0 -86 -64 -140.5t-165 -54.5h-147l-17 -93h265l-12 -68h-265l-24 -134h-78zM206 363h140q68 0 106.5 33.5t38.5 91.5q0 50 -31 77t-91 27h-122z" />
    <glyph glyph-name="uni20BF" unicode="&#x20bf;" horiz-adv-x="580" 
d="M519 209q0 -67 -44 -114t-118 -60l-22 -129h-72l22 125h-84l-22 -125h-71l22 125h-75l105 599h75l21 120h71l-21 -120h61q18 0 23 -1l21 121h71l-23 -141q69 -38 69 -122q0 -97 -88 -140q37 -20 58 -57t21 -81zM221 563l-32 -182h151q52 0 83 28t31 74q0 80 -99 80h-134z
M445 211q0 48 -31 76t-84 28h-152l-39 -218h165q66 0 103.5 30.5t37.5 83.5z" />
    <glyph glyph-name="uni2113" unicode="&#x2113;" horiz-adv-x="422" 
d="M271 58q31 0 75 6l-11 -65q-40 -10 -80 -10q-79 0 -121.5 36t-42.5 103q0 26 6 57l1 3l-24 -15q-5 -4 -19 -12.5t-21 -12.5l-30 61q80 51 110 75l51 292q17 94 59 139.5t113 45.5q121 0 121 -126q0 -187 -275 -396l-10 -55q-5 -33 -5 -43q0 -83 103 -83zM241 574
l-40 -232q185 158 185 287q0 66 -54 66q-36 0 -58 -29t-33 -92z" />
    <glyph glyph-name="uni2116" unicode="&#x2116;" horiz-adv-x="1123" 
d="M526 154l87 506h78l-118 -671h-28l-331 516l-87 -505h-78l118 671h28zM777 389q0 70 51 120t122 50q64 0 109 -44t45 -107q0 -70 -51.5 -120.5t-122.5 -50.5q-65 0 -109 43.5t-44 108.5zM841 391q0 -43 25.5 -70t65.5 -27q46 0 77 31.5t31 78.5q0 43 -26 70.5t-67 27.5
q-45 0 -75.5 -32t-30.5 -79zM732 105l9 56h318l-9 -56h-318z" />
    <glyph glyph-name="uni2117" unicode="&#x2117;" horiz-adv-x="792" 
d="M68 316q-2 92 47.5 175t134.5 132.5t178 47.5q134 3 231.5 -95t95.5 -231q2 -92 -48 -175.5t-134.5 -133t-177.5 -47.5q-134 -3 -232 95t-95 232zM695 346q2 112 -77.5 192t-191.5 78q-120 2 -210 -88.5t-88 -211.5q0 -115 78 -193.5t191 -78.5q119 -2 209.5 89.5
t88.5 212.5zM263 150l62 353h128q57 0 90 -28.5t33 -78.5q0 -56 -41.5 -91t-107.5 -35h-78l-21 -120h-65zM360 327h74q75 0 75 64q0 56 -63 56h-65z" />
    <glyph glyph-name="trademark" unicode="&#x2122;" horiz-adv-x="951" 
d="M940 667h23l-80 -456h-67l49 287l-158 -172h-24l-104 185l-51 -300h-68l77 456h26l143 -254zM89 660h373l-11 -61h-153l-68 -388h-67l68 388h-153z" />
    <glyph glyph-name="uni2126" unicode="&#x2126;" horiz-adv-x="791" 
d="M576 70h135l-12 -70h-274l12 71q116 46 177.5 120.5t61.5 169.5q0 106 -70 172t-180 66q-115 2 -196.5 -82t-79.5 -200q0 -154 160 -246l-13 -71h-262l13 70h152q-62 47 -96.5 113t-34.5 136q-3 142 104 248.5t250 103.5q143 2 239.5 -87.5t94.5 -220.5q0 -90 -47 -165.5
t-134 -127.5z" />
    <glyph glyph-name="estimated" unicode="&#x212e;" horiz-adv-x="795" 
d="M742 327h-544v-202q77 -104 220 -104q77 0 144 32t112 87l24 -21q-49 -61 -122.5 -95t-157.5 -34q-146 -2 -248 97.5t-99 238.5q-3 140 102 243.5t241 100.5q80 2 157 -35t127 -105.5t48 -148.5q0 -33 -4 -54zM198 534v-176h421v191q-75 89 -201 89q-142 0 -220 -104z
" />
    <glyph glyph-name="uni2150" unicode="&#x2150;" horiz-adv-x="934" 
d="M47 244l11 60h103l53 296h-99l11 60h165l-63 -356h90l-10 -60h-261zM215 0l494 660h68l-495 -660h-67zM664 416h281l-4 -19l-262 -397h-77l239 356h-188z" />
    <glyph glyph-name="uni2151" unicode="&#x2151;" horiz-adv-x="943" 
d="M47 244l11 60h103l53 296h-99l11 60h165l-63 -356h90l-10 -60h-261zM215 0l494 660h68l-495 -660h-67zM913 284q0 -29 -9 -52q-8 -20 -21 -38q-9 -13 -42 -52l-119 -142h-84l120 142q-3 -1 -13 -1q-53 0 -89 38q-35 38 -35 93q0 62 45 106t108 44q59 0 99 -40
q40 -39 40 -98zM846 283q0 34 -21 56t-54 22q-36 0 -59.5 -24.5t-23.5 -61.5q0 -34 20 -55.5t53 -21.5q36 0 60.5 24.5t24.5 60.5z" />
    <glyph glyph-name="uni2152" unicode="&#x2152;" horiz-adv-x="1368" 
d="M47 244l11 60h103l53 296h-99l11 60h165l-63 -356h90l-10 -60h-261zM215 0l494 660h68l-495 -660h-67zM611 0l11 60h103l53 296h-99l11 60h165l-63 -356h90l-10 -60h-261zM997 152q0 60 18 119.5t64 106.5t111 45q63 0 96 -41t33 -116q0 -45 -10.5 -90.5t-32 -88t-60 -69
t-87.5 -25.5q-64 0 -98 42t-34 117zM1253 264q0 49 -19.5 73.5t-52.5 24.5q-30 1 -53.5 -20t-36 -54.5t-19 -68t-6.5 -66.5q0 -99 71 -99q39 -2 67 36t38.5 84t10.5 90z" />
    <glyph glyph-name="uni2153" unicode="&#x2153;" horiz-adv-x="961" 
d="M47 244l11 60h103l53 296h-99l11 60h165l-63 -356h90l-10 -60h-261zM215 0l494 660h68l-495 -660h-67zM940 416l-3 -19l-124 -138q39 -11 63.5 -43.5t24.5 -74.5q0 -62 -45 -105t-111 -43q-53 0 -90.5 26.5t-53.5 75.5l52 28q30 -69 92 -69q40 0 64.5 23t24.5 61
q0 34 -23 52t-66 18h-38l3 19l115 129h-151l11 60h255z" />
    <glyph glyph-name="uni2154" unicode="&#x2154;" horiz-adv-x="978" 
d="M248 368l-78 -64h169l-11 -60h-292l3 15l175 153q46 42 65.5 70.5t19.5 57.5q0 30 -18.5 48t-49.5 18q-35 0 -54.5 -23.5t-19.5 -64.5v-12h-66v16q0 64 40 104.5t103 40.5q59 0 95 -33.5t36 -89.5q0 -43 -26.5 -83t-90.5 -93zM232 0l494 660h68l-495 -660h-67zM957 416
l-3 -19l-124 -138q39 -11 63.5 -43.5t24.5 -74.5q0 -62 -45 -105t-111 -43q-53 0 -90.5 26.5t-53.5 75.5l52 28q30 -69 92 -69q40 0 64.5 23t24.5 61q0 34 -23 52t-66 18h-38l3 19l115 129h-151l11 60h255z" />
    <glyph glyph-name="uni2155" unicode="&#x2155;" horiz-adv-x="965" 
d="M47 244l11 60h103l53 296h-99l11 60h165l-63 -356h90l-10 -60h-261zM215 0l494 660h68l-495 -660h-67zM925 356h-170l-16 -94q30 2 35 2q60 0 96 -33t36 -87q0 -65 -44.5 -108t-112.5 -43q-53 0 -91.5 27t-55.5 75l53 28q29 -69 95 -69q39 0 64 23.5t25 60.5q0 70 -87 70
h-87l36 208h236z" />
    <glyph glyph-name="uni2156" unicode="&#x2156;" horiz-adv-x="982" 
d="M248 368l-78 -64h169l-11 -60h-292l3 15l175 153q46 42 65.5 70.5t19.5 57.5q0 30 -18.5 48t-49.5 18q-35 0 -54.5 -23.5t-19.5 -64.5v-12h-66v16q0 64 40 104.5t103 40.5q59 0 95 -33.5t36 -89.5q0 -43 -26.5 -83t-90.5 -93zM232 0l494 660h68l-495 -660h-67zM942 356
h-170l-16 -94q30 2 35 2q60 0 96 -33t36 -87q0 -65 -44.5 -108t-112.5 -43q-53 0 -91.5 27t-55.5 75l53 28q28 -69 95 -69q39 0 64 23.5t25 60.5q0 70 -87 70h-87l36 208h236z" />
    <glyph glyph-name="uni2157" unicode="&#x2157;" horiz-adv-x="932" 
d="M376 660l-3 -19l-124 -138q39 -11 63.5 -43.5t24.5 -74.5q0 -62 -45 -105t-111 -43q-53 0 -90.5 26.5t-53.5 75.5l52 28q30 -69 92 -69q40 0 64.5 23t24.5 61q0 34 -23 52t-66 18h-38l3 19l115 129h-151l11 60h255zM182 0l494 660h68l-495 -660h-67zM892 356h-170
l-16 -94q30 2 35 2q60 0 96 -33t36 -87q0 -65 -44.5 -108t-112.5 -43q-53 0 -91.5 27t-55.5 75l53 28q28 -69 95 -69q39 0 64 23.5t25 60.5q0 70 -87 70h-87l36 208h236z" />
    <glyph glyph-name="uni2158" unicode="&#x2158;" horiz-adv-x="981" 
d="M364 374l-11 -57h-54l-12 -73h-63l13 73h-207l3 19l179 324h73l-159 -286h120l23 127h62l-22 -127h55zM231 0l494 660h68l-495 -660h-67zM941 356h-170l-16 -94q30 2 35 2q60 0 96 -33t36 -87q0 -65 -44.5 -108t-112.5 -43q-53 0 -91.5 27t-55.5 75l53 28q29 -69 95 -69
q39 0 64 23.5t25 60.5q0 70 -87 70h-87l36 208h236z" />
    <glyph glyph-name="uni2159" unicode="&#x2159;" horiz-adv-x="892" 
d="M47 244l11 60h103l53 296h-99l11 60h165l-63 -356h90l-10 -60h-261zM215 0l494 660h68l-495 -660h-67zM836 144q0 -62 -45 -106t-107 -44q-58 0 -99 39q-40 40 -40 99q0 28 9 51t20 37q10 15 42 54l119 142h85l-119 -142q2 1 10 1q53 0 89 -38q36 -37 36 -93zM770 141
q0 34 -20 55.5t-53 21.5q-36 0 -60.5 -25t-24.5 -61q0 -34 21.5 -55.5t53.5 -21.5q35 0 59 24.5t24 61.5z" />
    <glyph glyph-name="uni215A" unicode="&#x215a;" horiz-adv-x="871" 
d="M369 600h-170l-16 -94q30 2 35 2q60 0 96 -33t36 -87q0 -65 -44.5 -108t-112.5 -43q-53 0 -91.5 27t-55.5 75l53 28q29 -69 95 -69q39 0 64 23.5t25 60.5q0 70 -87 70h-87l36 208h236zM194 0l494 660h68l-495 -660h-67zM816 144q0 -62 -45 -106t-107 -44q-58 0 -99 39
q-40 40 -40 99q0 28 9 51t20 37q10 15 42 54l119 142h85l-119 -142q2 1 10 1q53 0 89 -38q36 -37 36 -93zM750 141q0 34 -20 55.5t-53 21.5q-36 0 -60.5 -25t-24.5 -61q0 -34 21.5 -55.5t53.5 -21.5q35 0 59 24.5t24 61.5z" />
    <glyph glyph-name="oneeighth" unicode="&#x215b;" horiz-adv-x="941" 
d="M47 244l11 60h103l53 296h-99l11 60h165l-63 -356h90l-10 -60h-261zM215 0l494 660h68l-495 -660h-67zM877 116q0 -52 -42 -87q-41 -34 -105 -34q-67 0 -108.5 31t-41.5 80q0 87 109 117q-52 36 -52 86q0 49 37.5 81.5t94.5 32.5q58 0 93 -28t35 -75q0 -75 -89 -110
q69 -34 69 -94zM699 309q0 -18 10.5 -30.5t43.5 -32.5q44 13 63.5 29t19.5 39q0 25 -19.5 40.5t-48.5 15.5q-30 0 -49.5 -17t-19.5 -44zM811 116q0 21 -14 36t-54 36q-51 -13 -74 -31t-23 -45q0 -30 21.5 -47t58.5 -17q38 0 61.5 18.5t23.5 49.5z" />
    <glyph glyph-name="threeeighths" unicode="&#x215c;" horiz-adv-x="908" 
d="M376 660l-3 -19l-124 -138q39 -11 63.5 -43.5t24.5 -74.5q0 -62 -45 -105t-111 -43q-53 0 -90.5 26.5t-53.5 75.5l52 28q30 -69 92 -69q40 0 64.5 23t24.5 61q0 34 -23 52t-66 18h-38l3 19l115 129h-151l11 60h255zM182 0l494 660h68l-495 -660h-67zM844 116
q0 -52 -42 -87q-41 -34 -105 -34q-67 0 -108.5 31t-41.5 80q0 87 109 117q-52 36 -52 86q0 49 37.5 81.5t94.5 32.5q58 0 93 -28t35 -75q0 -75 -89 -110q69 -34 69 -94zM666 309q0 -18 10.5 -30.5t43.5 -32.5q44 13 63.5 29t19.5 39q0 25 -19.5 40.5t-48.5 15.5
q-30 0 -49.5 -17t-19.5 -44zM778 116q0 21 -14 36t-54 36q-51 -13 -74 -31t-23 -45q0 -30 21.5 -47t58.5 -17q38 0 61.5 18.5t23.5 49.5z" />
    <glyph glyph-name="fiveeighths" unicode="&#x215d;" horiz-adv-x="920" 
d="M369 600h-170l-16 -94q30 2 35 2q60 0 96 -33t36 -87q0 -65 -44.5 -108t-112.5 -43q-53 0 -91.5 27t-55.5 75l53 28q29 -69 95 -69q39 0 64 23.5t25 60.5q0 70 -87 70h-87l36 208h236zM194 0l494 660h68l-495 -660h-67zM857 116q0 -52 -42 -87q-41 -34 -105 -34
q-67 0 -108.5 31t-41.5 80q0 87 109 117q-52 36 -52 86q0 49 37.5 81.5t94.5 32.5q58 0 93 -28t35 -75q0 -75 -89 -110q69 -34 69 -94zM679 309q0 -18 10.5 -30.5t43.5 -32.5q44 13 63.5 29t19.5 39q0 25 -19.5 40.5t-48.5 15.5q-30 0 -49.5 -17t-19.5 -44zM791 116
q0 21 -14 36t-54 36q-51 -13 -74 -31t-23 -45q0 -30 21.5 -47t58.5 -17q38 0 61.5 18.5t23.5 49.5z" />
    <glyph glyph-name="seveneighths" unicode="&#x215e;" horiz-adv-x="818" 
d="M100 660h281l-4 -19l-262 -397h-77l239 356h-188zM92 0l494 660h68l-495 -660h-67zM754 116q0 -52 -42 -87q-41 -34 -105 -34q-67 0 -108.5 31t-41.5 80q0 87 109 117q-52 36 -52 86q0 49 37.5 81.5t94.5 32.5q58 0 93 -28t35 -75q0 -75 -89 -110q69 -34 69 -94zM576 309
q0 -18 10.5 -30.5t43.5 -32.5q44 13 63.5 29t19.5 39q0 25 -19.5 40.5t-48.5 15.5q-30 0 -49.5 -17t-19.5 -44zM688 116q0 21 -14 36t-54 36q-51 -13 -74 -31t-23 -45q0 -30 21.5 -47t58.5 -17q38 0 61.5 18.5t23.5 49.5z" />
    <glyph glyph-name="arrowleft" unicode="&#x2190;" horiz-adv-x="650" 
d="M612 282h-416l195 -195l-45 -45l-264 264v18l264 263l45 -44l-196 -196h417v-65z" />
    <glyph glyph-name="arrowup" unicode="&#x2191;" horiz-adv-x="650" 
d="M611 317l-45 -45l-191 189v-415h-69v416l-193 -190l-45 45l263 261h17z" />
    <glyph glyph-name="arrowright" unicode="&#x2192;" horiz-adv-x="650" 
d="M334 586l264 -263v-18l-264 -264l-45 45l197 197l-418 -1v65h416l-195 195z" />
    <glyph glyph-name="arrowdown" unicode="&#x2193;" horiz-adv-x="650" 
d="M564 358l45 -45l-263 -263h-17l-263 263l45 45l193 -192v418h69v-417z" />
    <glyph glyph-name="arrowboth" unicode="&#x2194;" horiz-adv-x="971" 
d="M656 587l264 -263v-18l-264 -264l-45 45l195 195h-605l195 -195l-45 -45l-263 264v18l263 263l45 -44l-195 -195h605l-195 195z" />
    <glyph glyph-name="arrowupdn" unicode="&#x2195;" horiz-adv-x="650" 
d="M375 54l182 182l45 -45l-253 -253h-18l-253 253l45 45l183 -183v555l-183 -184l-45 45l253 253h18l253 -253l-45 -45l-182 183v-553z" />
    <glyph glyph-name="uni2196" unicode="&#x2196;" horiz-adv-x="650" 
d="M295 397l277 -277l-48 -47l-276 276l-46 45v-281h-68v385l13 13h380v-66h-281z" />
    <glyph glyph-name="uni2197" unicode="&#x2197;" horiz-adv-x="650" 
d="M534 511l13 -13v-385h-68v281l-46 -45l-276 -276l-48 47l277 277l49 48h-282v66h381z" />
    <glyph glyph-name="uni2198" unicode="&#x2198;" horiz-adv-x="650" 
d="M478 496h68v-383l-13 -13h-381v64h283l-327 327l48 47l276 -276l46 -45v279z" />
    <glyph glyph-name="uni2199" unicode="&#x2199;" horiz-adv-x="650" 
d="M244 164h282v-64h-380l-13 13v383h68v-280l322 322l48 -47z" />
    <glyph glyph-name="partialdiff" unicode="&#x2202;" horiz-adv-x="579" 
d="M552 429q1 -116 -42 -219t-116.5 -163t-155.5 -58q-88 0 -144 51t-56 132q0 101 71.5 166t182.5 65q82 0 179 -33q3 28 3 59q0 83 -36.5 127t-106.5 44q-81 0 -144 -67l-44 46q78 92 195 92q99 0 156.5 -65t57.5 -177zM461 304q-84 28 -166 28q-81 0 -129.5 -41
t-48.5 -110q0 -56 33.5 -88.5t90.5 -32.5q76 0 136 67t84 177z" />
    <glyph glyph-name="uni2206" unicode="&#x2206;" horiz-adv-x="663" 
d="M424 671l163 -648l-4 -23h-582l4 23l390 648h29zM496 70l-109 450l-266 -450h375z" />
    <glyph glyph-name="product" unicode="&#x220f;" horiz-adv-x="691" 
d="M27 -121l138 781h509l-138 -781h-78l126 711h-354l-125 -711h-78z" />
    <glyph glyph-name="summation" unicode="&#x2211;" horiz-adv-x="574" 
d="M595 660l-12 -70h-338l148 -299l-4 -20l-251 -322h343l-12 -70h-468l3 20l304 392l-172 349l3 20h456z" />
    <glyph glyph-name="minus" unicode="&#x2212;" 
d="M64 281l11 68h447l-11 -68h-447z" />
    <glyph glyph-name="uni2219" unicode="&#x2219;" horiz-adv-x="280" 
d="M90 314q0 27 18.5 45t44.5 18t44.5 -18t18.5 -45t-18.5 -45t-44.5 -18t-44.5 18t-18.5 45z" />
    <glyph glyph-name="radical" unicode="&#x221a;" horiz-adv-x="648" 
d="M650 750h82l-513 -883h-29v338h-157v68h233v-183z" />
    <glyph glyph-name="infinity" unicode="&#x221e;" horiz-adv-x="821" 
d="M801 327q0 -76 -55.5 -129t-135.5 -53q-60 0 -103.5 28.5t-86.5 87.5q-56 -59 -104.5 -87.5t-105.5 -28.5q-71 0 -117.5 44t-46.5 111q0 76 56 129t136 53q62 0 105 -28t86 -87q57 59 105 87t104 28q70 0 116.5 -44t46.5 -111zM381 316q-35 50 -67 73t-75 23
q-50 0 -82.5 -30.5t-32.5 -76.5q0 -40 26 -65t68 -25q39 0 75 23.5t88 77.5zM724 322q0 41 -26 65.5t-69 24.5q-40 0 -76.5 -24t-85.5 -76q36 -50 68.5 -73.5t74.5 -23.5q50 0 82 30.5t32 76.5z" />
    <glyph glyph-name="integral" unicode="&#x222b;" horiz-adv-x="328" 
d="M-58 -114l12 62q33 -6 60 -6q68 0 97 42t29 140v406q0 132 47 194.5t145 62.5q37 0 84 -14l-11 -63q-33 6 -59 6q-68 0 -98 -43t-30 -143v-406q0 -131 -46 -191.5t-146 -60.5q-40 0 -84 14z" />
    <glyph glyph-name="approxequal" unicode="&#x2248;" 
d="M341 356l-82 55q-42 27 -61 27q-39 0 -46 -69h-63q3 69 30.5 107t73.5 38q41 0 91 -34l82 -55q38 -27 61 -27q39 0 46 69h63q-3 -69 -30.5 -107t-73.5 -38q-41 0 -91 34zM303 142l-82 55q-42 27 -61 27q-39 0 -46 -69h-63q3 69 30.5 107t73.5 38q41 0 91 -34l82 -55
q38 -27 61 -27q39 0 46 69h63q-3 -69 -30.5 -107t-73.5 -38q-41 0 -91 34z" />
    <glyph glyph-name="notequal" unicode="&#x2260;" 
d="M519 384h-135l-104 -139h214l-11 -68h-253l-83 -111h-76l83 111h-98l11 68h138l104 139h-217l12 69h256l80 107h75l-80 -107h96z" />
    <glyph glyph-name="lessequal" unicode="&#x2264;" 
d="M539 527l-10 -71l-324 -114l282 -115l-11 -66l-409 172l4 22zM20 0l12 63h426l-10 -63h-428z" />
    <glyph glyph-name="greaterequal" unicode="&#x2265;" 
d="M122 527l407 -172l-4 -22l-468 -172l12 74l312 113l-270 114zM29 0l11 63h427l-10 -63h-428z" />
    <glyph glyph-name="uni24EA" unicode="&#x24ea;" horiz-adv-x="978" 
d="M74 330q-2 114 56.5 214.5t159 159.5t214.5 57q114 2 214.5 -57t159.5 -159.5t57 -214.5q2 -114 -57 -214.5t-159.5 -159.5t-214.5 -57q-114 -2 -214.5 57t-159 159.5t-56.5 214.5zM873 330q3 151 -108 261.5t-261 107.5q-150 3 -260 -107.5t-107 -261.5
q-3 -152 107 -262t260 -107q98 -2 184 47.5t136.5 136t48.5 185.5zM327 267q0 47 12 96.5t35.5 95.5t66 74.5t95.5 27.5q68 0 104.5 -45.5t36.5 -125.5q0 -47 -12 -96.5t-35.5 -95.5t-65.5 -74.5t-95 -27.5q-68 0 -105 45.5t-37 125.5zM609 390q0 110 -82 110
q-35 1 -62 -22.5t-42 -60.5t-22 -76t-7 -74q0 -55 22.5 -83t60.5 -28q34 -1 61 23t41.5 62t22 76.5t7.5 72.5z" />
    <glyph glyph-name="uni24FF" unicode="&#x24ff;" horiz-adv-x="978" 
d="M74 330q-2 114 56.5 214.5t159 159.5t214.5 57q114 2 214.5 -57t159.5 -159.5t57 -214.5q2 -114 -57 -214.5t-159.5 -159.5t-214.5 -57q-114 -2 -214.5 57t-159 159.5t-56.5 214.5zM677 390q0 80 -36.5 125.5t-104.5 45.5q-53 1 -95.5 -27.5t-66 -74.5t-35.5 -95.5
t-12 -96.5q0 -80 37 -125.5t105 -45.5q53 -1 95 27.5t65.5 74.5t35.5 95.5t12 96.5zM394 267q0 35 7 74t22 76t42 60.5t62 22.5q82 0 82 -110q0 -34 -7.5 -72.5t-22 -76.5t-41.5 -62t-61 -23q-38 0 -60.5 28t-22.5 83z" />
    <glyph glyph-name="filledbox" unicode="&#x25a0;" horiz-adv-x="730" 
d="M105 55v550h550v-550h-550z" />
    <glyph glyph-name="uni25A1" unicode="&#x25a1;" horiz-adv-x="730" 
d="M105 55v550h550v-550h-550zM181 124h398v412h-398v-412z" />
    <glyph glyph-name="uni25AA" unicode="&#x25aa;" horiz-adv-x="530" 
d="M59 54v380h381v-380h-381z" />
    <glyph glyph-name="uni25AB" unicode="&#x25ab;" horiz-adv-x="530" 
d="M59 54v380h381v-380h-381zM131 120h237v248h-237v-248z" />
    <glyph glyph-name="triagup" unicode="&#x25b2;" horiz-adv-x="730" 
d="M23 55l-7 13l337 592h15l336 -592l-7 -13h-674z" />
    <glyph glyph-name="uni25B3" unicode="&#x25b3;" horiz-adv-x="730" 
d="M388 660l336 -592l-7 -13h-674l-7 13l337 592h15zM604 131l-224 394l-224 -394h448z" />
    <glyph glyph-name="uni25B4" unicode="&#x25b4;" horiz-adv-x="530" 
d="M18 54l-7 13l232 406h15l231 -406l-7 -13h-464z" />
    <glyph glyph-name="uni25B5" unicode="&#x25b5;" horiz-adv-x="530" 
d="M258 473l231 -406l-7 -13h-464l-7 13l232 406h15zM381 117l-131 231l-130 -231h261z" />
    <glyph glyph-name="uni25B6" unicode="&#x25b6;" horiz-adv-x="730" 
d="M148 -11l-13 7v668l13 7l519 -334v-15z" />
    <glyph glyph-name="uni25B7" unicode="&#x25b7;" horiz-adv-x="730" 
d="M148 671l519 -334v-15l-519 -333l-13 7v668zM542 329l-331 214v-425z" />
    <glyph glyph-name="uni25B8" unicode="&#x25b8;" horiz-adv-x="530" 
d="M128 9l-13 7v457l13 7l356 -228v-15z" />
    <glyph glyph-name="uni25B9" unicode="&#x25b9;" horiz-adv-x="530" 
d="M128 480l356 -228v-15l-356 -228l-13 7v457zM371 245l-187 118v-237z" />
    <glyph glyph-name="triagrt" unicode="&#x25ba;" horiz-adv-x="961" 
d="M128 -11l-13 7v668l13 7l828 -334v-15z" />
    <glyph glyph-name="uni25BB" unicode="&#x25bb;" horiz-adv-x="961" 
d="M128 671l828 -334v-15l-828 -333l-13 7v668zM780 330l-589 237v-473z" />
    <glyph glyph-name="triagdn" unicode="&#x25bc;" horiz-adv-x="730" 
d="M65 605h674l7 -13l-336 -592h-15l-337 592z" />
    <glyph glyph-name="uni25BD" unicode="&#x25bd;" horiz-adv-x="730" 
d="M739 605l7 -13l-336 -592h-15l-337 592l7 13h674zM626 529h-449l224 -394z" />
    <glyph glyph-name="uni25BE" unicode="&#x25be;" horiz-adv-x="530" 
d="M274 15l-232 406l7 13h464l7 -13l-231 -406h-15z" />
    <glyph glyph-name="uni25BF" unicode="&#x25bf;" horiz-adv-x="530" 
d="M513 434l7 -13l-231 -406h-15l-232 406l7 13h464zM412 369h-262l131 -230z" />
    <glyph glyph-name="uni25C0" unicode="&#x25c0;" horiz-adv-x="730" 
d="M613 -11l-519 333v15l519 334l13 -7v-668z" />
    <glyph glyph-name="uni25C1" unicode="&#x25c1;" horiz-adv-x="730" 
d="M613 671l13 -7v-668l-13 -7l-519 333v15zM550 543l-330 -214l330 -211v425z" />
    <glyph glyph-name="uni25C2" unicode="&#x25c2;" horiz-adv-x="530" 
d="M403 9l-356 228v15l356 228l13 -7v-457z" />
    <glyph glyph-name="uni25C3" unicode="&#x25c3;" horiz-adv-x="530" 
d="M403 480l13 -7v-457l-13 -7l-356 228v15zM347 363l-187 -118l187 -119v237z" />
    <glyph glyph-name="triaglf" unicode="&#x25c4;" horiz-adv-x="961" 
d="M864 -11l-828 333v15l828 334l13 -7v-668z" />
    <glyph glyph-name="uni25C5" unicode="&#x25c5;" horiz-adv-x="961" 
d="M864 671l13 -7v-668l-13 -7l-828 333v15zM801 94v473l-589 -237z" />
    <glyph glyph-name="lozenge" unicode="&#x25ca;" horiz-adv-x="665" 
d="M361 671l213 -341l-213 -341h-28l-213 342l213 340h28zM348 101l144 229l-145 231l-144 -230z" />
    <glyph glyph-name="circle" unicode="&#x25cb;" horiz-adv-x="730" 
d="M51 329q-3 133 96.5 232.5t232.5 97.5q132 3 231 -97t97 -233q2 -133 -97 -232t-231 -96q-132 -3 -232 96.5t-97 231.5zM634 329q2 106 -74 184t-180 76q-105 2 -181 -76t-74 -184q0 -108 74 -183t181 -75q106 0 180 75.5t74 182.5z" />
    <glyph glyph-name="uni25CF" unicode="&#x25cf;" horiz-adv-x="730" 
d="M51 329q-3 133 96.5 232.5t232.5 97.5q132 3 231 -97t97 -233q2 -133 -97 -232t-231 -96q-132 -3 -232 96.5t-97 231.5z" />
    <glyph glyph-name="uni261C" unicode="&#x261c;" horiz-adv-x="1210" 
d="M1134 -16l-223 143q-94 -49 -187 -77q-96 -29 -164 -29q-104 0 -104 69q0 24 15 39q-47 15 -47 58q0 30 25 46q-36 17 -36 53q0 21 15 36l-195 6q-86 3 -124.5 22.5t-38.5 67.5q0 50 41.5 67t146.5 17q98 0 185 -10q1 43 24.5 67t59.5 24q37 0 75 -23l238 -143l68 -24
l226 145l25 -15l-47 -176l86 -72v-26l-86 -73l47 -174zM658 461l-86 52q-19 11 -31 11q-31 0 -32 -39q56 -5 149 -24zM892 182v159q-120 47 -304 77t-344 30q-64 0 -86.5 -6.5t-22.5 -24.5q0 -17 19.5 -24t71.5 -9l137 -7l141 -6l87 -3v-51l-97 2q-10 0 -17 -6t-7 -16
t6.5 -16.5t15.5 -6.5h110v-50h-99q-8 0 -14.5 -7t-6.5 -17q0 -9 6 -15.5t15 -6.5h109v-51q-22 -3 -66 -3h-9q-24 0 -24 -23q0 -24 44 -24q53 0 155 29q102 31 180 76zM1078 90l-31 109l77 63l-77 61l32 111l-127 -81v-184z" />
    <glyph glyph-name="uni261E" unicode="&#x261e;" horiz-adv-x="1210" 
d="M139 -16l-25 18l47 174l-85 73v26l85 72l-47 176l25 15l226 -145l68 24l238 143q38 23 75 23q36 0 59.5 -24t24.5 -67q87 10 185 10q105 0 146.5 -17t41.5 -67q0 -48 -38.5 -67.5t-124.5 -22.5l-195 -6q16 -16 16 -36q0 -36 -36 -53q24 -16 24 -46q0 -43 -47 -58
q15 -15 15 -39q0 -69 -104 -69q-66 0 -164 29q-93 28 -187 77zM764 485q-2 39 -32 39q-12 0 -31 -11l-86 -52q93 19 149 24zM760 101q0 23 -24 23h-9q-43 0 -66 3v51h109q9 0 15 6.5t6 15.5q0 10 -6.5 17t-14.5 7h-99v50h110q10 0 16 6.5t6 16.5t-7 16t-17 6l-97 -2v51l87 3
l142 6l136 7q52 2 71.5 9t19.5 24q0 18 -22.5 24.5t-86.5 6.5q-161 0 -345 -30q-182 -30 -303 -77v-159q79 -46 179 -76q102 -29 156 -29q44 0 44 24zM195 90l126 79v184l-127 81l32 -111l-77 -61l77 -63z" />
    <glyph glyph-name="uni2661" unicode="&#x2661;" horiz-adv-x="860" 
d="M821 475q0 -50 -24 -95q-23 -44 -84 -109l-261 -282h-15l-261 282q-59 65 -84 109q-24 45 -24 95q0 84 56.5 140t136.5 56q62 0 111.5 -35t71.5 -93q21 57 71 92.5t113 35.5q80 0 136.5 -56t56.5 -140zM742 480q0 53 -34 87t-85 34q-57 0 -97.5 -45t-63.5 -123h-35
q-23 78 -64 123t-98 45q-51 0 -84.5 -34t-33.5 -87q0 -39 20 -76t68 -88l209 -230l209 230q48 52 68.5 89t20.5 75z" />
    <glyph glyph-name="heart" unicode="&#x2665;" horiz-adv-x="860" 
d="M437 -11l-261 282q-59 65 -84 109q-24 45 -24 95q0 84 56.5 140t136.5 56q62 0 111.5 -35t71.5 -93q21 57 71 92.5t113 35.5q80 0 136.5 -56t56.5 -140q0 -50 -24 -95q-23 -44 -84 -109l-261 -282h-15z" />
    <glyph glyph-name="uni275B" unicode="&#x275b;" horiz-adv-x="670" 
d="M629 208q0 -89 -64 -153.5t-169 -64.5q-131 -2 -229 99.5t-96 239.5q-2 140 97.5 242.5t242.5 99.5q117 0 205 -70l-31 -50q-75 57 -170 57q-116 1 -197.5 -81t-79.5 -198q0 -109 66 -187q-11 35 -11 66q0 89 64.5 153.5t153.5 64.5t153.5 -64t64.5 -154z" />
    <glyph glyph-name="uni275C" unicode="&#x275c;" horiz-adv-x="670" 
d="M630 331q2 -140 -97.5 -242.5t-242.5 -99.5q-117 0 -205 70l31 50q76 -57 170 -57q116 -1 197.5 81t79.5 198q0 109 -66 187q11 -35 11 -66q0 -89 -64.5 -153.5t-153.5 -64.5t-153.5 64.5t-64.5 153.5t64 153.5t169 64.5q131 2 229 -99.5t96 -239.5z" />
    <glyph glyph-name="uni275D" unicode="&#x275d;" horiz-adv-x="1290" 
d="M1249 208q0 -89 -64 -153.5t-169 -64.5q-131 -2 -229 99.5t-96 239.5q-2 140 97.5 242.5t242.5 99.5q117 0 205 -70l-31 -50q-75 57 -170 57q-116 1 -197.5 -81t-79.5 -198q0 -109 66 -187q-11 35 -11 66q0 89 64.5 153.5t153.5 64.5t153.5 -64t64.5 -154zM629 208
q0 -89 -64 -153.5t-169 -64.5q-131 -2 -229 99.5t-96 239.5q-2 140 97.5 242.5t242.5 99.5q117 0 205 -70l-31 -50q-75 57 -170 57q-116 1 -197.5 -81t-79.5 -198q0 -109 66 -187q-11 35 -11 66q0 89 64.5 153.5t153.5 64.5t153.5 -64t64.5 -154z" />
    <glyph glyph-name="uni275E" unicode="&#x275e;" horiz-adv-x="1290" 
d="M630 331q2 -140 -97.5 -242.5t-242.5 -99.5q-117 0 -205 70l31 50q76 -57 170 -57q116 -1 197.5 81t79.5 198q0 109 -66 187q11 -35 11 -66q0 -89 -64.5 -153.5t-153.5 -64.5t-153.5 64.5t-64.5 153.5t64 153.5t169 64.5q131 2 229 -99.5t96 -239.5zM1250 331
q2 -140 -97.5 -242.5t-242.5 -99.5q-117 0 -205 70l31 50q76 -57 170 -57q116 -1 197.5 81t79.5 198q0 109 -66 187q11 -35 11 -66q0 -89 -64.5 -153.5t-153.5 -64.5t-153.5 64.5t-64.5 153.5t64 153.5t169 64.5q131 2 229 -99.5t96 -239.5z" />
    <glyph glyph-name="uni2776" unicode="&#x2776;" horiz-adv-x="978" 
d="M74 330q-2 114 56.5 214.5t159 159.5t214.5 57q114 2 214.5 -57t159.5 -159.5t57 -214.5q2 -114 -57 -214.5t-159.5 -159.5t-214.5 -57q-114 -2 -214.5 57t-159 159.5t-56.5 214.5zM345 105h264l11 58h-96l69 391h-161l-11 -58h96l-58 -333h-104z" />
    <glyph glyph-name="uni2777" unicode="&#x2777;" horiz-adv-x="978" 
d="M74 330q-2 114 56.5 214.5t159 159.5t214.5 57q114 2 214.5 -57t159.5 -159.5t57 -214.5q2 -114 -57 -214.5t-159.5 -159.5t-214.5 -57q-114 -2 -214.5 57t-159 159.5t-56.5 214.5zM322 106h315l10 59h-184l90 77q65 55 93.5 97.5t28.5 89.5q0 59 -39 95.5t-102 36.5
q-67 0 -112 -45.5t-45 -113.5q0 -17 1 -21h69q-1 4 -1 18q0 44 24 72.5t62 28.5q33 0 52.5 -20.5t19.5 -54.5q0 -59 -92 -139l-187 -163z" />
    <glyph glyph-name="uni2778" unicode="&#x2778;" horiz-adv-x="978" 
d="M74 330q-2 114 56.5 214.5t159 159.5t214.5 57q114 2 214.5 -57t159.5 -159.5t57 -214.5q2 -114 -57 -214.5t-159.5 -159.5t-214.5 -57q-114 -2 -214.5 57t-159 159.5t-56.5 214.5zM641 256q0 46 -27 81t-71 47l134 149l4 19h-272l-12 -58h168l-127 -143l-3 -19h38
q46 0 73 -21t27 -58q0 -41 -28.5 -68t-71.5 -27q-67 0 -103 78l-54 -28q19 -53 60 -81.5t97 -28.5q71 0 119.5 46t48.5 112z" />
    <glyph glyph-name="uni2779" unicode="&#x2779;" horiz-adv-x="978" 
d="M74 330q-2 114 56.5 214.5t159 159.5t214.5 57q114 2 214.5 -57t159.5 -159.5t57 -214.5q2 -114 -57 -214.5t-159.5 -159.5t-214.5 -57q-114 -2 -214.5 57t-159 159.5t-56.5 214.5zM514 105h67l14 78h63l10 62h-62l24 134h-67l-24 -134h-144l182 309h-73l-200 -351
l-4 -20h228z" />
    <glyph glyph-name="uni277A" unicode="&#x277a;" horiz-adv-x="978" 
d="M74 330q-2 114 56.5 214.5t159 159.5t214.5 57q114 2 214.5 -57t159.5 -159.5t57 -214.5q2 -114 -57 -214.5t-159.5 -159.5t-214.5 -57q-114 -2 -214.5 57t-159 159.5t-56.5 214.5zM650 258q0 60 -40 96t-103 36q-11 0 -43 -5l19 107h187l11 61h-253l-39 -223h94
q46 0 71.5 -20.5t25.5 -56.5q0 -41 -28 -67.5t-72 -26.5q-70 0 -107 76l-52 -28q18 -52 59.5 -81t99.5 -29q74 0 122 46.5t48 114.5z" />
    </font>
</defs>
</svg>
